osu file format v14

[General]
AudioFilename: audio.mp3
AudioLeadIn: 0
PreviewTime: 42898
Countdown: 0
SampleSet: Soft
StackLeniency: 0.7
Mode: 0
LetterboxInBreaks: 0
WidescreenStoryboard: 1

[Editor]
Bookmarks: 74838,85505,99727,113949
DistanceSpacing: 1
BeatDivisor: 4
GridSize: 4
TimelineZoom: 1

[Metadata]
Title:Umbrella Beach
TitleUnicode:Umbrella Beach
Artist:Owl City
ArtistUnicode:Owl City
Creator:Kyshiro
Version:Normal
Source:
Tags:home ocean eyes
BeatmapID:1069774
BeatmapSetID:502689

[Difficulty]
HPDrainRate:4
CircleSize:3.6
OverallDifficulty:4.5
ApproachRate:5
SliderMultiplier:1.1
SliderTickRate:2

[Events]
//Background and Video events
0,0,"wallhaven-161518.jpg",0,0
//Break Periods
2,75098,84365
2,99987,112809
//Storyboard Layer 0 (Background)
//Storyboard Layer 1 (Fail)
//Storyboard Layer 2 (Pass)
//Storyboard Layer 3 (Foreground)
//Storyboard Sound Samples

[TimingPoints]
232,444.444444444444,4,2,1,85,1,0
14454,-100,4,2,0,60,0,0
28676,-100,4,2,1,60,0,0
42898,-100,4,2,1,85,0,1
57009,-100,4,2,1,85,0,0
57120,-100,4,2,1,85,0,1
71343,-100,4,2,1,75,0,0
85565,-100,4,2,1,75,0,0
128231,-100,4,2,1,85,0,1
128343,-100,4,2,1,85,0,0
142454,-100,4,2,1,85,0,1
156565,-100,4,2,0,5,0,0
156676,-100,4,2,1,85,0,1
170898,-100,4,2,1,75,0,0

[Colours]
Combo1 : 251,179,189
Combo2 : 168,219,227
Combo3 : 164,156,254

[HitObjects]
41,138,232,6,0,P|136:117|233:204,1,220,4|0,0:0|0:0,0:0:0:0:
248,296,1565,1,8,0:0:0:0:
349,254,2009,2,0,P|374:204|351:101,2,165,0|2|8,0:0|0:0|0:0,0:0:0:0:
248,296,3787,6,0,L|124:284,1,110,0|8,0:0|0:0,0:0:0:0:
64,203,4676,2,0,P|46:151|61:88,1,110,0|8,0:0|0:0,0:0:0:0:
152,45,5565,1,0,0:0:0:0:
231,121,6009,1,8,0:0:0:0:
329,71,6454,2,0,L|343:11,2,55,0|0|8,0:0|0:0|0:0,0:0:0:0:
363,113,7120,1,2,0:0:0:0:
398,155,7343,6,0,L|367:262,1,110,0|8,0:0|0:0,0:0:0:0:
286,334,8231,1,0,0:0:0:0:
200,264,8676,1,8,0:0:0:0:
111,329,9120,2,0,P|55:331|3:287,2,110,0|8|0,0:0|0:0|0:0,0:0:0:0:
200,264,10454,1,8,0:0:0:0:
282,336,10898,6,0,L|407:325,1,110,0|8,0:0|0:0,0:0:0:0:
438,296,11565,2,0,P|457:241|451:180,1,110,2|2,0:0|0:0,0:0:0:0:
427,141,12231,1,8,0:0:0:0:
330,193,12676,2,0,L|201:178,1,110,0|8,0:0|0:0,0:0:0:0:
129,242,13565,1,0,0:0:0:0:
46,168,14009,1,8,0:0:0:0:
54,113,14231,1,2,0:0:0:0:
94,75,14454,6,0,P|172:58|281:142,1,220,4|0,0:0|3:0,0:0:0:0:
293,245,15787,1,0,0:0:0:0:
393,201,16231,2,0,B|463:115|463:115|451:1,1,220,0|0,3:0|3:0,0:0:0:0:
356,62,17565,1,0,0:0:0:0:
250,30,18009,6,0,P|217:57|133:69,1,110,0|0,3:0|0:0,0:0:0:0:
42,71,18898,2,0,L|28:192,1,110,0|0,3:0|0:0,0:0:0:0:
118,245,19787,2,0,B|226:281|226:208|335:245,1,220,0|0,3:0|0:0,0:0:0:0:
419,312,21120,1,0,0:0:0:0:
482,222,21565,6,0,P|495:176|481:110,1,110,0|0,3:0|0:0,0:0:0:0:
384,67,22454,2,0,L|271:83,1,110,0|0,3:0|0:0,0:0:0:0:
197,160,23343,2,0,P|127:173|23:74,1,220,0|0,3:0|3:0,0:0:0:0:
115,18,24676,1,0,0:0:0:0:
218,54,25120,6,0,L|341:41,1,110,0|0,3:0|0:0,0:0:0:0:
425,91,26009,2,0,P|446:141|436:202,1,110,0|0,3:0|0:0,0:0:0:0:
359,271,26898,1,0,3:0:0:0:
264,214,27343,1,0,0:0:0:0:
185,290,27787,1,0,0:0:0:0:
278,347,28231,1,0,0:0:0:0:
359,271,28676,6,0,P|374:228|376:196,1,55,0|2,0:0|0:0,0:0:0:0:
336,180,29120,2,0,P|325:154|319:127,1,55,0|2,0:0|0:0,0:0:0:0:
354,84,29565,1,0,0:0:0:0:
266,17,30009,1,0,0:0:0:0:
185,92,30454,2,0,P|133:111|64:112,1,110,0|0,0:0|0:0,0:0:0:0:
32,144,31120,2,0,L|17:265,1,110,2|2,0:0|0:0,0:0:0:0:
57,292,31787,1,0,0:0:0:0:
159,251,32231,6,0,P|176:215|180:132,1,110,0|2,0:0|0:0,0:0:0:0:
204,95,32898,2,0,P|261:87|320:107,1,110
347,142,33565,1,2,0:0:0:0:
450,105,34009,1,0,0:0:0:0:
500,202,34454,1,2,0:0:0:0:
396,239,34898,1,0,0:0:0:0:
347,142,35343,1,2,0:0:0:0:
248,190,35787,6,0,P|240:246|250:309,1,110,0|2,0:0|0:0,0:0:0:0:
332,368,36676,2,0,L|445:357,1,110,0|2,0:0|0:0,0:0:0:0:
370,273,37565,2,0,P|307:255|155:325,1,220,0|0,0:0|0:0,0:0:0:0:
73,364,38898,1,2,0:0:0:0:
33,261,39343,6,0,L|21:144,1,110,0|2,0:0|0:0,0:0:0:0:
125,188,40231,2,0,L|133:90,2,82.5,0|0|2,0:0|0:0|0:0,0:0:0:0:
155,234,41120,2,0,P|200:249|274:242,1,110,0|2,0:0|0:0,0:0:0:0:
339,168,42009,1,0,0:0:0:0:
431,227,42454,1,2,0:0:0:0:
437,117,42898,6,0,P|393:74|241:116,1,220,4|0,0:0|0:0,0:0:0:0:
169,176,44231,2,0,P|133:167|101:152,1,55,8|2,0:0|0:0,0:0:0:0:
74,124,44676,2,0,L|58:246,1,110,0|8,0:0|0:0,0:0:0:0:
114,242,45343,2,0,L|130:364,1,110,2|2,0:0|0:0,0:0:0:0:
179,369,46009,1,8,0:0:0:0:
274,315,46454,5,0,0:0:0:0:
381,340,46898,2,0,L|468:330,2,82.5,8|0|2,0:0|0:0|0:0,0:0:0:0:
339,303,47787,2,0,P|328:273|327:233,1,55,8|2,0:0|0:0,0:0:0:0:
356,204,48231,2,0,P|376:150|372:91,1,110,0|8,0:0|0:0,0:0:0:0:
286,31,49120,1,0,0:0:0:0:
206,107,49565,1,8,0:0:0:0:
294,172,50009,6,0,L|418:159,1,110,0|8,0:0|0:0,0:0:0:0:
482,237,50898,1,0,0:0:0:0:
407,318,51343,2,0,P|378:334|351:339,1,55,8|2,0:0|0:0,0:0:0:0:
302,333,51787,2,0,P|248:327|179:344,1,110,0|8,0:0|0:0,0:0:0:0:
144,312,52454,2,0,P|105:323|36:319,1,110,2|2,0:0|0:0,0:0:0:0:
7,272,53120,1,8,0:0:0:0:
85,194,53565,6,0,L|150:202,1,55,0|2,0:0|0:0,0:0:0:0:
185,170,54009,2,0,P|236:179|304:161,1,110,8|0,0:0|0:0,0:0:0:0:
374,94,54898,1,8,0:0:0:0:
455,167,55343,2,0,L|465:224,1,55,0|2,0:0|0:0,0:0:0:0:
422,256,55787,2,0,L|412:313,1,55,8|2,0:0|0:0,0:0:0:0:
366,340,56231,2,0,P|322:349|239:320,1,110,0|8,0:0|0:0,0:0:0:0:
216,299,56898,1,2,0:0:0:0:
174,263,57120,6,0,P|121:248|67:256,2,110,4|8|0,0:0|0:0|0:0,0:0:0:0:
262,197,58454,1,8,0:0:0:0:
362,242,58898,2,0,L|381:305,1,55,0|2,0:0|0:0,0:0:0:0:
428,317,59343,2,0,P|464:316|493:308,1,55,8|2,0:0|0:0,0:0:0:0:
492,257,59787,2,0,L|501:131,1,110,0|8,0:0|0:0,0:0:0:0:
422,68,60676,5,0,0:0:0:0:
374,96,60898,1,2,0:0:0:0:
319,103,61120,2,0,P|260:100|204:67,1,110,8|0,0:0|0:0,0:0:0:0:
123,16,62009,1,8,0:0:0:0:
42,90,62454,2,0,B|38:122|29:153|29:153|69:203|69:203|46:241|48:292,1,220,0|0,0:0|0:0,0:0:0:0:
136,355,63787,1,8,0:0:0:0:
223,288,64231,6,0,P|233:249|231:218,1,55,0|2,0:0|0:0,0:0:0:0:
203,187,64676,2,0,L|115:176,2,82.5,8|0|2,0:0|0:0|0:0,0:0:0:0:
243,149,65565,2,0,P|278:141|311:142,1,55,8|2,0:0|0:0,0:0:0:0:
345,166,66009,1,0,0:0:0:0:
433,230,66454,1,8,0:0:0:0:
509,150,66898,1,0,0:0:0:0:
418,86,67343,2,0,L|360:76,1,55,8|2,0:0|0:0,0:0:0:0:
315,102,67787,6,0,P|260:109|193:89,1,110,0|8,0:0|0:0,0:0:0:0:
162,64,68454,1,2,0:0:0:0:
112,87,68676,2,0,P|99:129|99:161,1,55,0|2,0:0|0:0,0:0:0:0:
144,168,69120,2,0,P|157:210|157:242,1,55,8|2,0:0|0:0,0:0:0:0:
123,263,69565,6,0,B|209:246|246:155|246:155|230:253|316:334|423:297,1,440,0|4,0:0|0:0,0:0:0:0:
256,192,71454,12,0,74898,0:0:0:0:
103,109,85565,6,0,L|97:169,1,55,4|0,0:0|0:0,0:0:0:0:
144,192,86009,2,0,L|150:252,1,55,8|0,0:0|0:0,0:0:0:0:
187,286,86454,1,0,0:0:0:0:
277,224,86898,2,0,P|286:174|284:155,1,55,8|0,0:0|0:0,0:0:0:0:
302,117,87343,2,0,P|355:105|427:127,2,110,0|8|0,0:0|0:0|0:0,0:0:0:0:
195,87,88676,1,8,0:0:0:0:
108,155,89120,6,0,L|96:270,1,110,0|8,0:0|0:0,0:0:0:0:
184,330,90009,1,0,0:0:0:0:
275,269,90454,2,0,P|312:261|338:260,1,55,8|0,0:0|0:0,0:0:0:0:
381,274,90898,2,0,P|408:271|435:264,1,55,0|0,0:0|0:0,0:0:0:0:
469,221,91343,2,0,L|483:140,2,82.5,8|0|0,0:0|0:0|0:0,0:0:0:0:
490,271,92231,1,8,0:0:0:0:
408,344,92676,6,0,P|333:366|234:264,1,220,0|0,0:0|0:0,0:0:0:0:
253,170,94009,1,8,0:0:0:0:
191,82,94454,2,0,P|145:64|43:183,1,220,0|0,0:0|0:0,0:0:0:0:
116,248,95787,1,8,0:0:0:0:
220,212,96231,6,0,B|279:233|279:233|397:207,2,165,0|0|8,0:0|0:0|0:0,0:0:0:0:
286,124,98009,1,0,0:0:0:0:
184,81,98454,1,8,0:0:0:0:
83,125,98898,2,0,L|70:188,1,55,0|0,0:0|0:0,0:0:0:0:
117,209,99343,2,0,L|130:272,1,55,8|0,0:0|0:0,0:0:0:0:
97,308,99787,1,0,0:0:0:0:
46,104,114009,6,0,P|116:76|200:126,1,165,2|0,0:0|0:0,0:0:0:0:
206,166,114898,2,0,L|193:284,1,110,2|8,0:0|0:0,0:0:0:0:
284,338,115787,2,0,P|348:340|391:314,1,110,2|8,0:0|0:0,0:0:0:0:
316,233,116676,1,2,0:0:0:0:
391,153,117120,1,8,0:0:0:0:
314,72,117565,6,0,B|205:93|205:93|141:78,1,165,2|0,0:0|0:0,0:0:0:0:
100,63,118454,2,0,P|63:111|85:225,1,165,2|0,0:0|0:0,0:0:0:0:
119,240,119343,2,0,L|241:228,1,110,2|8,0:0|0:0,0:0:0:0:
320,288,120231,2,0,L|442:300,1,110,2|8,0:0|0:0,0:0:0:0:
482,202,121120,6,0,P|490:167|489:142,1,55,2|0,0:0|0:0,0:0:0:0:
463,99,121565,2,0,P|428:91|403:92,1,55,8|0,0:0|0:0,0:0:0:0:
359,115,122009,1,2,0:0:0:0:
304,123,122231,1,0,0:0:0:0:
250,109,122454,1,8,0:0:0:0:
157,168,122898,5,2,0:0:0:0:
55,124,123343,1,8,0:0:0:0:
45,233,123787,1,2,0:0:0:0:
69,282,124009,1,0,0:0:0:0:
77,336,124231,1,8,0:0:0:0:
180,298,124676,6,0,P|224:294|301:319,1,110,2|8,0:0|0:0,0:0:0:0:
381,254,125565,2,0,L|407:310,2,55,2|0|8,0:0|0:0|0:0,0:0:0:0:
465,183,126454,1,0,0:0:0:0:
370,126,126898,1,8,0:0:0:0:
282,193,127343,1,0,0:0:0:0:
198,121,127787,1,8,0:0:0:0:
288,58,128231,6,0,P|371:57|396:40,2,110,4|8|0,0:0|0:0|0:0,0:0:0:0:
190,110,129565,2,0,L|173:179,1,55,8|0,0:0|0:0,0:0:0:0:
213,204,130009,2,0,L|234:335,2,110,0|8|0,0:0|0:0|0:0,0:0:0:0:
117,259,131343,1,8,0:0:0:0:
37,183,131787,2,0,P|26:143|25:110,1,55,0|0,0:0|0:0,0:0:0:0:
62,89,132231,2,0,L|150:69,2,82.5,8|0|0,0:0|0:0|0:0,0:0:0:0:
9,72,133120,1,8,0:0:0:0:
37,183,133565,6,0,P|104:195|159:182,2,110,0|8|0,0:0|0:0|0:0,0:0:0:0:
82,283,134898,2,0,P|96:315|107:348,1,55,8|0,0:0|0:0,0:0:0:0:
152,358,135343,2,0,L|273:344,1,110,0|8,0:0|0:0,0:0:0:0:
410,267,136231,2,0,L|289:253,1,110,0|8,0:0|0:0,0:0:0:0:
222,176,137120,1,0,0:0:0:0:
302,101,137565,2,0,P|341:100|387:111,2,82.5,8|0|0,0:0|0:0|0:0,0:0:0:0:
259,65,138454,1,8,0:0:0:0:
174,135,138898,6,0,P|186:195|176:249,2,110,0|8|0,0:0|0:0|0:0,0:0:0:0:
259,65,140231,1,8,0:0:0:0:
353,122,140676,1,4,0:0:0:0:
92,294,142009,1,8,0:0:0:0:
54,192,142454,6,0,P|52:130|166:216,1,330,4|8,0:0|0:0,0:0:0:0:
141,264,144009,1,2,0:0:0:0:
166,312,144231,2,0,P|225:331|288:313,1,110,0|8,0:0|0:0,0:0:0:0:
299,275,144898,2,0,P|358:256|421:274,1,110,2|2,0:0|0:0,0:0:0:0:
449,295,145565,1,8,0:0:0:0:
497,196,146009,6,0,L|500:75,2,110,0|8|0,0:0|0:0|0:0,0:0:0:0:
403,137,147343,1,8,0:0:0:0:
308,192,147787,2,0,P|266:198|197:161,1,110,0|8,0:0|0:0,0:0:0:0:
157,72,148676,1,0,0:0:0:0:
73,142,149120,2,0,P|66:176|69:211,1,55,8|2,0:0|0:0,0:0:0:0:
94,243,149565,6,0,L|79:363,1,110,0|8,0:0|0:0,0:0:0:0:
187,324,150454,1,0,0:0:0:0:
289,363,150898,2,0,P|324:362|350:353,1,55,8|2,0:0|0:0,0:0:0:0:
384,320,151343,2,0,B|386:291|406:268|406:268|378:211|378:211|410:173|412:101,1,220,0|0,0:0|0:0,0:0:0:0:
335,38,152676,1,8,0:0:0:0:
244,100,153120,6,0,L|253:162,1,55,0|2,0:0|0:0,0:0:0:0:
289,194,153565,2,0,L|270:314,1,110,8|0,0:0|0:0,0:0:0:0:
171,348,154454,1,8,0:0:0:0:
73,297,154898,2,0,P|46:249|141:122,1,220,0|0,0:0|0:0,0:0:0:0:
219,179,156231,1,8,0:0:0:0:
310,117,156676,6,0,P|324:74|326:49,1,55,4|0,0:0|0:0,0:0:0:0:
348,14,157120,2,0,P|369:71|407:117,1,110,8|0,0:0|0:0,0:0:0:0:
489,171,158009,1,8,0:0:0:0:
396,231,158454,2,0,L|418:349,1,110,0|8,0:0|0:0,0:0:0:0:
312,375,159343,1,0,0:0:0:0:
229,302,159787,1,8,0:0:0:0:
133,356,160231,6,0,P|75:356|20:323,1,110,0|8,0:0|0:0,0:0:0:0:
91,240,161120,1,0,0:0:0:0:
23,152,161565,1,8,0:0:0:0:
104,77,162009,2,0,P|162:109|298:43,1,220,0|0,0:0|0:0,0:0:0:0:
399,24,163343,2,0,P|401:65|412:93,1,55,8|2,0:0|0:0,0:0:0:0:
438,121,163787,6,0,P|446:170|434:232,1,110,0|8,0:0|0:0,0:0:0:0:
328,201,164676,1,0,0:0:0:0:
234,258,165120,2,0,P|236:301|247:329,1,55,8|2,0:0|0:0,0:0:0:0:
282,346,165565,2,0,L|396:330,1,110,0|8,0:0|0:0,0:0:0:0:
434,296,166231,2,0,P|450:242|438:175,1,110,2|2,0:0|0:0,0:0:0:0:
409,146,166898,1,8,0:0:0:0:
304,181,167343,6,0,P|251:187|190:164,1,110,0|8,0:0|0:0,0:0:0:0:
91,143,168231,2,0,P|83:103|83:69,2,55,0|2|8,0:0|0:0|0:0,0:0:0:0:
180,78,169120,1,0,0:0:0:0:
256,192,169231,12,4,170898,0:0:0:0:
