osu file format v14

[General]
AudioFilename: audio.mp3
AudioLeadIn: 0
PreviewTime: 42898
Countdown: 0
SampleSet: Soft
StackLeniency: 0.7
Mode: 0
LetterboxInBreaks: 0
WidescreenStoryboard: 1

[Editor]
Bookmarks: 74838,85505,99727,113949
DistanceSpacing: 2.2
BeatDivisor: 4
GridSize: 16
TimelineZoom: 1

[Metadata]
Title:Umbrella Beach
TitleUnicode:Umbrella Beach
Artist:Owl City
ArtistUnicode:Owl City
Creator:Kyshiro
Version:Insane
Source:
Tags:home ocean eyes
BeatmapID:1069773
BeatmapSetID:502689

[Difficulty]
HPDrainRate:6
CircleSize:4
OverallDifficulty:8.5
ApproachRate:8.6
SliderMultiplier:1.8
SliderTickRate:2

[Events]
//Background and Video events
0,0,"wallhaven-161518.jpg",0,0
//Break Periods
2,75098,84906
2,99987,113350
//Storyboard Layer 0 (Background)
//Storyboard Layer 1 (Fail)
//Storyboard Layer 2 (Pass)
//Storyboard Layer 3 (Foreground)
//Storyboard Sound Samples

[TimingPoints]
232,444.444444444444,4,2,1,85,1,0
14454,-133.333333333333,4,2,0,60,0,0
28676,-117.647058823529,4,2,1,60,0,0
42898,-100,4,2,1,85,0,1
57009,-100,4,2,1,85,0,0
57120,-100,4,2,1,85,0,1
71343,-100,4,2,1,75,0,0
85565,-125,4,2,1,75,0,0
128231,-100,4,2,1,85,0,1
128343,-100,4,2,1,85,0,0
142454,-89.2857142857143,4,2,1,85,0,1
156565,-89.2857142857143,4,2,0,5,0,0
156676,-89.2857142857143,4,2,1,85,0,1
170898,-89.2857142857143,4,2,1,75,0,0

[Colours]
Combo1 : 251,179,189
Combo2 : 168,219,227
Combo3 : 164,156,254

[HitObjects]
13,81,232,6,0,P|76:71|122:87,1,90,0|2,0:0|0:0,0:0:0:0:
134,94,565,2,0,L|153:186,1,90
159,219,898,1,2,0:0:0:0:
83,297,1120,1,0,0:0:0:0:
83,297,1231,2,0,P|130:325|173:325,1,90
199,317,1565,2,0,L|291:348,1,90,8|0,0:0|0:0,0:0:0:0:
390,273,2009,6,0,P|399:228|398:176,1,90,0|2,0:0|0:0,0:0:0:0:
391,150,2343,1,0,0:0:0:0:
391,150,2454,1,8,0:0:0:0:
280,87,2676,1,2,0:0:0:0:
205,187,2898,1,0,0:0:0:0:
205,187,3009,2,0,L|103:180,1,90
78,177,3343,2,0,P|65:129|69:83,1,90,8|2,0:0|0:0,0:0:0:0:
232,38,3787,6,0,P|267:75|311:95,1,90,0|2,0:0|0:0,0:0:0:0:
340,98,4120,2,0,P|384:93|424:73,1,90
447,44,4454,1,2,0:0:0:0:
495,170,4676,1,0,0:0:0:0:
495,170,4787,2,0,L|487:271,1,90
456,277,5120,2,0,L|366:243,1,90,8|2,0:0|0:0,0:0:0:0:
273,126,5565,6,0,P|222:125|181:139,1,90,0|2,0:0|0:0,0:0:0:0:
159,161,5898,1,0,0:0:0:0:
159,161,6009,1,8,0:0:0:0:
241,239,6231,1,2,0:0:0:0:
119,263,6454,1,0,0:0:0:0:
119,263,6565,2,0,L|28:250,1,90
1,221,6898,1,8,0:0:0:0:
85,119,7120,1,2,0:0:0:0:
232,206,7343,6,0,L|252:352,2,135,0|0|2,0:0|0:0|0:0,0:0:0:0:
310,118,8231,1,0,0:0:0:0:
310,118,8343,2,0,P|369:108|414:120,1,90
431,128,8676,1,8,0:0:0:0:
370,229,8898,1,2,0:0:0:0:
370,229,9009,1,0,0:0:0:0:
370,229,9120,6,0,L|383:326,1,90,0|2,0:0|0:0,0:0:0:0:
355,351,9454,2,0,L|256:333,1,90
226,351,9787,1,2,0:0:0:0:
123,283,10009,1,0,0:0:0:0:
123,283,10120,2,0,P|108:231|107:187,1,90
124,157,10454,1,8,0:0:0:0:
234,85,10676,1,2,0:0:0:0:
234,85,10787,1,0,0:0:0:0:
234,85,10898,6,0,P|254:146|250:182,1,90,0|2,0:0|0:0,0:0:0:0:
279,202,11231,2,0,L|389:187,1,90
407,209,11565,1,2,0:0:0:0:
286,315,11787,1,0,0:0:0:0:
286,315,11898,2,0,P|213:311|173:295,1,90
167,288,12231,2,0,P|123:277|78:279,1,90,8|2,0:0|0:0,0:0:0:0:
43,297,12565,5,0,0:0:0:0:
43,297,12676,2,0,P|21:216|32:150,1,135
46,131,13120,1,8,0:0:0:0:
169,200,13343,1,2,0:0:0:0:
289,146,13565,2,0,P|302:88|301:47,1,90,0|2,0:0|0:0,0:0:0:0:
294,16,13898,1,0,0:0:0:0:
294,16,14009,1,8,0:0:0:0:
161,75,14231,1,2,0:0:0:0:
169,200,14454,6,0,P|242:210|305:180,2,135.000005149842,4|0|0,0:0|0:0|3:0,0:0:0:0:
220,81,15787,1,0,0:0:0:0:
423,132,16231,2,0,L|415:270,1,135.000005149842,0|0,3:0|0:0,0:0:0:0:
262,358,17120,2,0,L|255:246,2,101.250003862381,0|0|0,3:0|0:0|0:0,0:0:0:0:
173,313,18009,6,0,P|107:327|24:301,1,135.000005149842,0|0,3:0|0:0,0:0:0:0:
111,197,18676,1,0,0:0:0:0:
111,197,18898,2,0,P|118:124|100:60,1,135.000005149842,0|0,3:0|0:0,0:0:0:0:
266,30,19787,1,0,3:0:0:0:
272,56,20231,1,0,0:0:0:0:
278,82,20676,1,0,0:0:0:0:
284,108,21120,1,0,0:0:0:0:
421,60,21565,6,0,L|409:202,1,135.000005149842,0|0,3:0|0:0,0:0:0:0:
157,77,22454,2,0,P|237:81|288:112,1,135.000005149842,0|0,3:0|0:0,0:0:0:0:
259,291,23343,2,0,B|225:334|181:341|140:313|123:276|123:276|104:237|72:215|16:238,1,270.000010299683,0|0,3:0|3:0,0:0:0:0:
202,216,24454,2,0,L|193:263,2,33.7500012874604
136,135,24898,1,0,0:0:0:0:
231,92,25120,6,0,P|292:126|370:120,2,135.000005149842,0|0|0,3:0|0:0|3:0,0:0:0:0:
320,6,26454,1,0,0:0:0:0:
476,107,26898,1,0,3:0:0:0:
320,182,27343,1,0,0:0:0:0:
367,93,27787,1,0,0:0:0:0:
417,175,28009,2,0,L|412:204,4,16.8750006437302
367,93,28454,1,2,0:0:0:0:
289,152,28676,6,0,P|241:149|196:135,1,76.5000014591217,0|2,0:0|0:0,0:0:0:0:
52,219,29120,2,0,P|89:210|127:208,1,76.5000014591217,0|2,0:0|0:0,0:0:0:0:
216,276,29565,1,0,0:0:0:0:
323,239,29787,1,2,0:0:0:0:
323,239,29898,1,2,0:0:0:0:
323,239,30009,2,0,L|335:323,1,76.5000014591217,0|2,0:0|0:0,0:0:0:0:
432,255,30454,6,0,L|446:100,1,153.000002918243
360,23,31120,1,2,0:0:0:0:
271,98,31343,1,0,0:0:0:0:
165,36,31565,1,2,0:0:0:0:
165,36,31676,1,2,0:0:0:0:
165,36,31787,2,0,P|126:47|88:49,1,76.5000014591217,0|2,0:0|0:0,0:0:0:0:
0,164,32231,6,0,P|45:153|146:209,1,153.000002918243
191,306,32898,1,2,0:0:0:0:
267,114,33120,2,0,L|252:196,1,76.5000014591217,0|2,0:0|0:0,0:0:0:0:
265,218,33454,1,2,0:0:0:0:
265,218,33565,1,0,0:0:0:0:
386,180,33787,1,2,0:0:0:0:
368,61,34009,6,0,P|279:71|214:19,2,153.000002918243,0|0|0,0:0|0:0|0:0,0:0:0:0:
483,155,35120,1,2,0:0:0:0:
483,155,35231,1,2,0:0:0:0:
483,155,35343,2,0,L|470:243,1,76.5000014591217,0|2,0:0|0:0,0:0:0:0:
296,199,35787,6,0,P|347:187|370:187,1,76.5000014591217,0|2,0:0|0:0,0:0:0:0:
223,275,36231,2,0,P|184:273|148:263,1,76.5000014591217,0|2,0:0|0:0,0:0:0:0:
71,174,36676,1,0,0:0:0:0:
176,122,36898,1,2,0:0:0:0:
176,122,37009,1,2,0:0:0:0:
176,122,37120,1,0,0:0:0:0:
74,64,37343,1,2,0:0:0:0:
176,122,37565,6,0,P|217:119|256:105,1,76.5000014591217,0|2,0:0|0:0,0:0:0:0:
402,196,38009,2,0,P|365:184|327:181,1,76.5000014591217,0|2,0:0|0:0,0:0:0:0:
232,246,38454,2,0,L|237:337,1,76.5000014591217,0|2,0:0|0:0,0:0:0:0:
215,354,38787,1,2,0:0:0:0:
215,354,38898,1,0,0:0:0:0:
118,289,39120,1,2,0:0:0:0:
25,340,39343,5,0,0:0:0:0:
340,262,39787,1,0,0:0:0:0:
126,89,40231,1,0,0:0:0:0:
152,212,40454,1,2,0:0:0:0:
152,212,40565,1,2,0:0:0:0:
152,212,40676,1,0,0:0:0:0:
229,134,40898,1,2,0:0:0:0:
41,163,41120,6,0,P|24:242|53:333,1,153.000002918243
147,359,41787,1,2,0:0:0:0:
247,298,42009,2,0,L|338:307,1,76.5000014591217,0|2,0:0|0:0,0:0:0:0:
492,246,42454,2,0,L|401:255,1,76.5000014591217,0|2,0:0|0:0,0:0:0:0:
178,143,42898,6,0,P|266:120|350:172,1,180,4|8,0:0|0:0,0:0:0:0:
259,238,43565,1,2,0:0:0:0:
259,238,43676,1,0,0:0:0:0:
259,238,43787,1,0,0:0:0:0:
162,54,44009,1,2,0:0:0:0:
368,62,44231,1,8,0:0:0:0:
157,174,44454,1,2,0:0:0:0:
267,9,44676,5,0,0:0:0:0:
363,180,44898,1,2,0:0:0:0:
363,180,45009,1,0,0:0:0:0:
363,180,45120,2,0,P|377:246|352:320,2,135,8|0|2,0:0|0:0|0:0,0:0:0:0:
174,216,46009,2,0,B|214:239|214:239|265:236,1,90,8|2,0:0|0:0,0:0:0:0:
205,92,46454,6,0,P|151:88|103:109,1,90,0|2,0:0|0:0,0:0:0:0:
87,121,46787,1,0,0:0:0:0:
87,121,46898,1,8,0:0:0:0:
178,220,47120,1,2,0:0:0:0:
178,220,47231,2,0,L|164:311,1,90
181,344,47565,1,2,0:0:0:0:
297,230,47787,2,0,L|283:141,1,90,8|2,0:0|0:0,0:0:0:0:
452,178,48231,6,0,P|483:254|445:343,1,180,0|8,0:0|0:0,0:0:0:0:
272,265,48898,1,2,0:0:0:0:
272,265,49009,1,0,0:0:0:0:
272,265,49120,2,0,P|343:250|364:251,1,90,0|2,0:0|0:0,0:0:0:0:
179,342,49565,2,0,P|134:340|91:327,1,90,8|2,0:0|0:0,0:0:0:0:
145,138,50009,6,0,L|160:230,1,90,0|2,0:0|0:0,0:0:0:0:
276,144,50454,2,0,L|292:0,2,135,8|0|2,0:0|0:0|0:0,0:0:0:0:
371,221,51343,1,8,0:0:0:0:
443,125,51565,1,2,0:0:0:0:
194,48,51787,6,0,P|135:48|82:68,1,90,0|2,0:0|0:0,0:0:0:0:
75,78,52120,1,0,0:0:0:0:
75,78,52231,1,8,0:0:0:0:
159,145,52454,1,2,0:0:0:0:
159,145,52565,2,0,L|151:238,1,90
167,268,52898,1,2,0:0:0:0:
336,214,53120,2,0,P|291:201|241:202,1,90,8|2,0:0|0:0,0:0:0:0:
81,271,53565,6,0,B|136:309|136:309|268:292,1,180,0|8,0:0|0:0,0:0:0:0:
274,75,54231,1,2,0:0:0:0:
155,93,54454,2,0,P|142:154|151:196,1,90,0|2,0:0|0:0,0:0:0:0:
162,214,54787,1,0,0:0:0:0:
162,214,54898,1,8,0:0:0:0:
280,176,55120,1,2,0:0:0:0:
367,246,55343,6,0,L|461:235,1,90,0|2,0:0|0:0,0:0:0:0:
496,248,55676,1,0,0:0:0:0:
496,248,55787,1,8,0:0:0:0:
405,346,56009,1,2,0:0:0:0:
286,282,56231,1,0,0:0:0:0:
181,356,56454,1,2,0:0:0:0:
159,351,56565,1,2,0:0:0:0:
137,346,56676,1,8,0:0:0:0:
115,341,56787,1,2,0:0:0:0:
92,336,56898,1,2,0:0:0:0:
189,181,57120,6,0,P|269:159|357:208,1,180,4|8,0:0|0:0,0:0:0:0:
267,280,57787,1,2,0:0:0:0:
267,280,57898,1,0,0:0:0:0:
267,280,58009,1,0,0:0:0:0:
386,186,58231,1,2,0:0:0:0:
158,164,58454,1,8,0:0:0:0:
277,70,58676,1,2,0:0:0:0:
160,268,58898,6,0,P|98:277|60:273,1,90,0|2,0:0|0:0,0:0:0:0:
257,177,59343,2,0,L|286:318,2,135,8|0|2,0:0|0:0|0:0,0:0:0:0:
133,162,60231,1,8,0:0:0:0:
365,237,60454,1,2,0:0:0:0:
365,237,60565,1,0,0:0:0:0:
365,237,60676,6,0,P|417:238|459:225,1,90,0|2,0:0|0:0,0:0:0:0:
393,118,61120,1,8,0:0:0:0:
271,162,61343,1,2,0:0:0:0:
271,162,61454,2,0,L|257:262,1,90
234,282,61787,1,2,0:0:0:0:
135,210,62009,2,0,P|121:151|124:114,1,90,8|2,0:0|0:0,0:0:0:0:
271,162,62454,5,0,0:0:0:0:
70,46,62676,1,2,0:0:0:0:
70,280,62898,1,8,0:0:0:0:
138,163,63120,1,2,0:0:0:0:
138,163,63231,1,0,0:0:0:0:
138,163,63343,1,0,0:0:0:0:
2,162,63565,1,2,0:0:0:0:
203,46,63787,1,8,0:0:0:0:
205,279,64009,1,2,0:0:0:0:
89,98,64231,6,0,P|79:44|85:6,1,90,0|2,0:0|0:0,0:0:0:0:
330,37,64676,2,0,B|289:61|289:61|195:44,2,135,8|0|2,0:0|0:0|0:0,0:0:0:0:
407,126,65565,2,0,L|415:224,1,90,8|2,0:0|0:0,0:0:0:0:
299,237,66009,6,0,P|351:224|470:292,1,180,0|8,0:0|0:0,0:0:0:0:
367,344,66676,1,2,0:0:0:0:
367,344,66787,1,0,0:0:0:0:
367,344,66898,1,0,0:0:0:0:
219,273,67120,1,2,0:0:0:0:
320,133,67343,2,0,L|334:239,1,90,8|2,0:0|0:0,0:0:0:0:
176,112,67787,6,0,L|187:22,1,90,0|2,0:0|0:0,0:0:0:0:
218,222,68231,2,0,P|141:223|86:187,2,135,8|0|2,0:0|0:0|0:0,0:0:0:0:
66,96,69120,1,8,0:0:0:0:
4,247,69343,1,2,0:0:0:0:
4,247,69454,1,0,0:0:0:0:
4,247,69565,6,0,L|18:339,1,90,0|2,0:0|0:0,0:0:0:0:
200,208,70009,2,0,L|213:119,1,90,8|2,0:0|0:0,0:0:0:0:
346,169,70454,1,0,0:0:0:0:
96,250,70676,1,2,0:0:0:0:
251,38,70898,1,8,0:0:0:0:
251,301,71120,1,2,0:0:0:0:
96,88,71343,1,4,0:0:0:0:
256,192,71454,12,0,74898,0:0:0:0:
87,105,85565,6,0,L|102:188,1,72,4|0,0:0|0:0,0:0:0:0:
203,242,86009,1,8,0:0:0:0:
301,168,86231,1,0,0:0:0:0:
301,168,86343,2,0,P|313:116|309:79,1,72
304,59,86676,1,0,0:0:0:0:
192,170,86898,2,0,L|204:251,1,72,8|0,0:0|0:0,0:0:0:0:
348,342,87343,5,0,0:0:0:0:
443,277,87565,1,0,0:0:0:0:
335,235,87787,2,0,P|320:187|321:149,1,72,8|0,0:0|0:0,0:0:0:0:
325,131,88120,1,0,0:0:0:0:
325,131,88231,1,0,0:0:0:0:
201,27,88454,1,0,0:0:0:0:
211,53,88565,1,0,0:0:0:0:
215,81,88676,1,8,0:0:0:0:
215,109,88787,1,0,0:0:0:0:
211,137,88898,1,0,0:0:0:0:
113,197,89120,6,0,L|36:190,1,72
204,262,89565,2,0,L|315:251,2,108,8|0|0,0:0|0:0|0:0,0:0:0:0:
277,149,90454,1,8,0:0:0:0:
305,143,90565,1,0,0:0:0:0:
333,145,90676,1,0,0:0:0:0:
360,152,90787,1,0,0:0:0:0:
383,168,90898,6,0,P|408:205|414:249,1,72
481,127,91343,2,0,P|480:63|489:6,2,108,8|0|0,0:0|0:0|0:0,0:0:0:0:
353,69,92231,1,8,0:0:0:0:
325,59,92343,1,0,0:0:0:0:
296,56,92454,1,0,0:0:0:0:
267,59,92565,1,0,0:0:0:0:
240,70,92676,6,0,L|230:154,1,72
123,212,93120,1,8,0:0:0:0:
26,148,93343,1,0,0:0:0:0:
26,148,93454,2,0,P|12:105|11:65,1,72
16,43,93787,1,0,0:0:0:0:
130,141,94009,2,0,L|123:222,1,72,8|0,0:0|0:0,0:0:0:0:
210,295,94454,6,0,P|270:301|347:254,1,144,0|8,0:0|0:0,0:0:0:0:
434,138,95120,1,0,0:0:0:0:
425,165,95231,1,0,0:0:0:0:
423,193,95343,1,0,0:0:0:0:
429,221,95454,1,0,0:0:0:0:
443,245,95565,1,0,0:0:0:0:
324,170,95787,2,0,P|285:163|238:163,1,72,8|0,0:0|0:0,0:0:0:0:
104,253,96231,6,0,L|96:335,1,72
23,194,96676,2,0,L|12:77,2,108,8|0|0,0:0|0:0|0:0,0:0:0:0:
128,136,97565,1,8,0:0:0:0:
154,147,97676,1,0,0:0:0:0:
182,152,97787,1,0,0:0:0:0:
210,149,97898,1,0,0:0:0:0:
236,138,98009,6,0,L|256:56,1,72
362,31,98454,1,8,0:0:0:0:
446,106,98676,1,0,0:0:0:0:
446,106,98787,2,0,P|456:157|451:191,1,72
439,207,99120,1,0,0:0:0:0:
329,200,99343,1,8,0:0:0:0:
320,227,99454,1,0,0:0:0:0:
315,255,99565,1,0,0:0:0:0:
316,283,99676,1,0,0:0:0:0:
320,311,99787,1,0,0:0:0:0:
344,160,114009,6,0,L|476:145,2,108,2|2|0,0:0|0:0|0:0,0:0:0:0:
261,96,114898,2,0,P|214:97|176:83,1,72,2|0,0:0|0:0,0:0:0:0:
103,43,115343,1,8,0:0:0:0:
103,43,115787,6,0,L|91:132,1,72,2|0,0:0|0:0,0:0:0:0:
69,142,116120,1,2,0:0:0:0:
142,216,116343,1,0,0:0:0:0:
142,216,116454,2,0,L|130:305,1,72,2|2,0:0|0:0,0:0:0:0:
221,348,116898,1,0,0:0:0:0:
320,292,117120,1,8,0:0:0:0:
320,292,117565,6,0,P|384:276|435:276,2,108,2|2|0,0:0|0:0|0:0,0:0:0:0:
226,223,118454,2,0,P|246:176|271:147,1,72,2|0,0:0|0:0,0:0:0:0:
329,87,118898,1,8,0:0:0:0:
137,180,119343,6,0,P|86:185|53:182,1,72,2|0,0:0|0:0,0:0:0:0:
36,169,119676,1,2,0:0:0:0:
110,74,119898,1,0,0:0:0:0:
110,74,120009,1,2,0:0:0:0:
215,108,120231,2,0,L|230:192,1,72,2|0,0:0|0:0,0:0:0:0:
326,228,120676,1,8,0:0:0:0:
326,228,121120,6,0,P|352:185|366:121,2,108,2|2|0,0:0|0:0|0:0,0:0:0:0:
231,273,122009,1,2,0:0:0:0:
142,222,122231,1,0,0:0:0:0:
88,311,122454,1,8,0:0:0:0:
88,311,122898,6,0,L|71:238,1,72,2|0,0:0|0:0,0:0:0:0:
62,209,123231,1,2,0:0:0:0:
173,225,123454,1,0,0:0:0:0:
173,225,123565,2,0,L|190:152,1,72,2|2,0:0|0:0,0:0:0:0:
284,92,124009,1,0,0:0:0:0:
369,167,124231,1,8,0:0:0:0:
369,167,124676,6,0,P|396:109|390:51,2,108,2|2|0,0:0|0:0|0:0,0:0:0:0:
278,234,125565,2,0,L|289:326,1,72,2|0,0:0|0:0,0:0:0:0:
377,360,126009,1,8,0:0:0:0:
377,360,126454,5,0,0:0:0:0:
447,287,126676,1,0,0:0:0:0:
447,287,126787,1,0,0:0:0:0:
447,287,126898,1,8,0:0:0:0:
342,263,127120,1,0,0:0:0:0:
342,263,127231,1,0,0:0:0:0:
342,263,127343,2,0,P|331:214|335:183,1,72
379,112,127787,2,0,P|331:99|275:118,1,108,8|0,0:0|0:0,0:0:0:0:
256,138,128231,6,0,L|168:121,1,90,4|0,0:0|0:0,0:0:0:0:
45,179,128676,2,0,P|25:237|29:273,1,90,8|0,0:0|0:0,0:0:0:0:
43,295,129009,1,0,0:0:0:0:
43,295,129120,1,0,0:0:0:0:
152,242,129343,1,0,0:0:0:0:
229,319,129565,2,0,L|321:305,1,90,8|0,0:0|0:0,0:0:0:0:
440,223,130009,6,0,B|398:200|398:200|306:213,1,135
278,220,130454,1,8,0:0:0:0:
175,168,130676,1,0,0:0:0:0:
175,168,130787,2,0,P|162:116|168:70,1,90
181,47,131120,1,0,0:0:0:0:
274,115,131343,1,8,0:0:0:0:
88,184,131565,1,0,0:0:0:0:
222,243,131787,6,0,L|214:345,1,90
11,278,132231,2,0,P|60:263|100:263,1,90,8|0,0:0|0:0,0:0:0:0:
131,274,132565,1,0,0:0:0:0:
131,274,132676,1,0,0:0:0:0:
79,365,132898,1,0,0:0:0:0:
238,355,133120,2,0,L|335:340,1,90,8|0,0:0|0:0,0:0:0:0:
436,252,133565,6,0,L|339:237,1,90
219,100,134009,2,0,P|287:89|354:124,1,135,8|0,0:0|0:0,0:0:0:0:
367,140,134454,1,0,0:0:0:0:
271,200,134676,1,0,0:0:0:0:
129,151,134898,2,0,P|115:91|125:61,1,90,8|0,0:0|0:0,0:0:0:0:
271,200,135343,6,0,L|280:298,1,90
398,225,135787,2,0,L|406:135,1,90,8|0,0:0|0:0,0:0:0:0:
428,110,136120,1,0,0:0:0:0:
428,110,136231,1,0,0:0:0:0:
342,25,136454,1,0,0:0:0:0:
253,101,136676,2,0,P|201:96|166:73,1,90,8|0,0:0|0:0,0:0:0:0:
54,32,137120,6,0,L|39:122,1,90
146,163,137565,2,0,L|168:300,2,135,8|0|0,0:0|0:0|0:0,0:0:0:0:
48,256,138454,1,8,0:0:0:0:
173,330,138676,1,0,0:0:0:0:
256,208,138898,6,0,P|266:150|262:113,1,90
366,47,139343,2,0,P|363:91|373:135,1,90,8|0,0:0|0:0,0:0:0:0:
393,162,139676,1,0,0:0:0:0:
393,162,139787,1,0,0:0:0:0:
501,227,140009,1,0,0:0:0:0:
386,279,140231,2,0,L|289:274,1,90,8|0,0:0|0:0,0:0:0:0:
158,268,140676,5,4,0:0:0:0:
115,66,141565,5,2,0:0:0:0:
187,122,141787,1,0,0:0:0:0:
187,122,141898,1,2,0:0:0:0:
258,66,142120,1,0,0:0:0:0:
258,66,142231,1,2,0:0:0:0:
373,129,142454,6,0,P|410:224|376:327,1,201.600002460938,4|8,0:0|0:0,0:0:0:0:
267,255,143120,1,2,0:0:0:0:
267,255,143231,1,0,0:0:0:0:
267,255,143343,1,0,0:0:0:0:
172,330,143565,1,2,0:0:0:0:
71,263,143787,2,0,P|56:200|63:158,1,100.800001230469,8|2,0:0|0:0,0:0:0:0:
348,180,144231,6,0,B|292:226|292:226|165:206,1,201.600002460938,0|8,0:0|0:0,0:0:0:0:
242,99,144898,1,2,0:0:0:0:
242,99,145009,1,0,0:0:0:0:
242,99,145120,1,0,0:0:0:0:
365,311,145343,1,2,0:0:0:0:
141,211,145565,1,8,0:0:0:0:
381,159,145787,1,2,0:0:0:0:
217,341,146009,6,0,L|110:329,1,100.800001230469,0|2,0:0|0:0,0:0:0:0:
331,272,146454,2,0,L|438:259,1,100.800001230469,8|2,0:0|0:0,0:0:0:0:
464,257,146787,1,0,0:0:0:0:
499,149,147009,1,0,0:0:0:0:
499,149,147120,1,2,0:0:0:0:
382,97,147343,1,8,0:0:0:0:
311,181,147565,1,2,0:0:0:0:
212,121,147787,6,0,P|192:71|199:21,1,100.800001230469,0|2,0:0|0:0,0:0:0:0:
311,181,148231,2,0,P|315:230|296:276,1,100.800001230469,8|2,0:0|0:0,0:0:0:0:
267,293,148565,2,0,L|156:277,1,100.800001230469
134,290,148898,1,2,0:0:0:0:
320,356,149120,2,0,L|431:340,1,100.800001230469,8|2,0:0|0:0,0:0:0:0:
496,151,149565,6,0,P|434:127|322:199,1,201.600002460938,0|8,0:0|0:0,0:0:0:0:
434,241,150231,1,2,0:0:0:0:
434,241,150343,1,0,0:0:0:0:
434,241,150454,1,0,0:0:0:0:
287,85,150676,1,2,0:0:0:0:
222,287,150898,1,8,0:0:0:0:
310,204,151120,1,2,0:0:0:0:
154,128,151343,6,0,P|92:129|48:146,1,100.800001230469,0|2,0:0|0:0,0:0:0:0:
266,86,151787,2,0,P|221:47|128:13,2,151.200001845703,8|0|2,0:0|0:0|0:0,0:0:0:0:
46,173,152676,2,0,P|113:145|162:145,1,100.800001230469,8|2,0:0|0:0,0:0:0:0:
174,157,153009,5,0,0:0:0:0:
174,157,153120,1,0,0:0:0:0:
72,253,153343,1,2,0:0:0:0:
177,248,153565,2,0,L|188:350,1,100.800001230469,8|2,0:0|0:0,0:0:0:0:
209,368,153898,1,0,0:0:0:0:
303,286,154120,1,0,0:0:0:0:
303,286,154231,1,2,0:0:0:0:
399,360,154454,1,8,0:0:0:0:
476,278,154676,1,2,0:0:0:0:
476,278,154787,1,0,0:0:0:0:
476,278,154898,6,0,P|483:221|466:169,1,100.800001230469,0|2,0:0|0:0,0:0:0:0:
335,40,155343,2,0,P|328:97|345:149,1,100.800001230469,8|2,0:0|0:0,0:0:0:0:
430,87,155787,1,0,0:0:0:0:
207,114,156009,1,2,0:0:0:0:
207,114,156120,1,0,0:0:0:0:
330,215,156343,1,0,0:0:0:0:
330,215,156454,1,2,0:0:0:0:
237,347,156676,6,0,P|191:370|126:371,1,100.800001230469,4|2,0:0|0:0,0:0:0:0:
336,296,157120,2,0,P|385:299|430:322,1,100.800001230469,8|2,0:0|0:0,0:0:0:0:
451,344,157454,2,0,L|475:230,1,100.800001230469
495,216,157787,1,2,0:0:0:0:
412,122,158009,1,8,0:0:0:0:
286,217,158231,1,2,0:0:0:0:
286,217,158343,1,0,0:0:0:0:
286,217,158454,6,0,P|206:232|108:149,1,201.600002460938,0|8,0:0|0:0,0:0:0:0:
176,17,159120,1,2,0:0:0:0:
176,17,159231,2,0,L|194:124,1,100.800001230469
216,136,159565,1,2,0:0:0:0:
316,81,159787,1,8,0:0:0:0:
408,157,160009,1,2,0:0:0:0:
303,205,160231,6,0,P|303:258|319:318,1,100.800001230469,0|2,0:0|0:0,0:0:0:0:
219,335,160676,2,0,P|308:333|384:376,2,151.200001845703,8|0|2,0:0|0:0|0:0,0:0:0:0:
96,280,161565,1,8,0:0:0:0:
206,207,161787,1,2,0:0:0:0:
206,207,161898,1,0,0:0:0:0:
206,207,162009,1,0,0:0:0:0:
84,156,162231,5,2,0:0:0:0:
220,335,162454,1,8,0:0:0:0:
304,130,162676,1,2,0:0:0:0:
304,130,162787,1,0,0:0:0:0:
99,284,163009,1,0,0:0:0:0:
99,284,163120,1,2,0:0:0:0:
322,255,163343,1,8,0:0:0:0:
186,80,163565,1,2,0:0:0:0:
82,283,163787,6,0,P|78:343|100:391,1,100.800001230469,0|2,0:0|0:0,0:0:0:0:
334,330,164231,2,0,B|288:308|288:308|171:322,2,151.200001845703,8|0|2,0:0|0:0|0:0,0:0:0:0:
431,239,165120,1,8,0:0:0:0:
293,204,165343,1,2,0:0:0:0:
293,204,165454,1,0,0:0:0:0:
293,204,165565,6,0,P|280:140|295:95,1,100.800001230469,0|2,0:0|0:0,0:0:0:0:
507,139,166009,2,0,B|463:165|463:165|406:158,1,100.800001230469,8|2,0:0|0:0,0:0:0:0:
383,150,166343,1,0,0:0:0:0:
441,65,166565,1,0,0:0:0:0:
441,65,166676,1,2,0:0:0:0:
494,237,166898,2,0,L|482:344,1,100.800001230469,8|2,0:0|0:0,0:0:0:0:
213,310,167343,6,0,P|289:248|387:258,1,201.600002460938,0|8,0:0|0:0,0:0:0:0:
332,369,168009,1,2,0:0:0:0:
332,369,168120,1,0,0:0:0:0:
332,369,168231,1,0,0:0:0:0:
373,161,168454,1,2,0:0:0:0:
171,230,168676,1,8,0:0:0:0:
400,288,168898,1,2,0:0:0:0:
225,325,169120,6,0,B|182:243|133:207|62:219|10:169|49:45|134:32|205:108|205:108|248:14|334:0|409:105|375:169|304:180|266:216|270:267,1,806.40000984375,0|4,0:0|0:0,0:0:0:0:
