osu file format v14

[General]
AudioFilename: audio.mp3
AudioLeadIn: 0
PreviewTime: 42898
Countdown: 0
SampleSet: Soft
StackLeniency: 0.7
Mode: 0
LetterboxInBreaks: 0
WidescreenStoryboard: 1

[Editor]
Bookmarks: 74838,85505,99727,113949
DistanceSpacing: 1.2
BeatDivisor: 4
GridSize: 16
TimelineZoom: 1

[Metadata]
Title:Umbrella Beach
TitleUnicode:Umbrella Beach
Artist:Owl City
ArtistUnicode:Owl City
Creator:Kyshiro
Version:Hard
Source:
Tags:home ocean eyes
BeatmapID:1069772
BeatmapSetID:502689

[Difficulty]
HPDrainRate:5
CircleSize:3.8
OverallDifficulty:6.5
ApproachRate:7.5
SliderMultiplier:1.5
SliderTickRate:2

[Events]
//Background and Video events
0,0,"wallhaven-161518.jpg",0,0
//Break Periods
2,75098,84740
2,99987,113184
//Storyboard Layer 0 (Background)
//Storyboard Layer 1 (Fail)
//Storyboard Layer 2 (Pass)
//Storyboard Layer 3 (Foreground)
//Storyboard Sound Samples

[TimingPoints]
232,444.444444444444,4,2,1,85,1,0
14454,-133.333333333333,4,2,0,60,0,0
28676,-117.647058823529,4,2,1,60,0,0
42898,-100,4,2,1,85,0,1
57009,-100,4,2,1,85,0,0
57120,-100,4,2,1,85,0,1
71343,-100,4,2,1,75,0,0
85565,-125,4,2,1,75,0,0
128231,-100,4,2,1,85,0,1
128343,-100,4,2,1,85,0,0
142454,-100,4,2,1,85,0,1
156565,-100,4,2,0,5,0,0
156676,-100,4,2,1,85,0,1
170898,-100,4,2,1,75,0,0

[Colours]
Combo1 : 251,179,189
Combo2 : 168,219,227
Combo3 : 164,156,254

[HitObjects]
63,157,232,6,0,P|131:150|203:194,1,150,4|8,0:0|0:0,0:0:0:0:
246,266,898,1,2,0:0:0:0:
318,213,1120,2,0,P|333:172|330:129,1,75,0|2,0:0|0:0,0:0:0:0:
415,86,1565,2,0,P|415:123|429:157,1,75,8|2,0:0|0:0,0:0:0:0:
492,234,2009,6,0,L|485:331,1,75,0|2,0:0|0:0,0:0:0:0:
457,336,2343,1,0,0:0:0:0:
457,336,2454,1,8,0:0:0:0:
368,270,2676,1,2,0:0:0:0:
290,333,2898,2,0,P|238:325|212:314,1,75,0|2,0:0|0:0,0:0:0:0:
103,250,3343,2,0,P|138:237|175:233,1,75,8|2,0:0|0:0,0:0:0:0:
71,333,3787,6,0,L|46:175,1,150,0|8,0:0|0:0,0:0:0:0:
102,113,4454,1,2,0:0:0:0:
180,156,4676,2,0,P|225:152|256:137,1,75,0|2,0:0|0:0,0:0:0:0:
318,79,5120,1,8,0:0:0:0:
406,134,5343,1,2,0:0:0:0:
406,134,5454,1,0,0:0:0:0:
406,134,5565,6,0,P|435:202|424:283,1,150,0|8,0:0|0:0,0:0:0:0:
357,333,6231,1,2,0:0:0:0:
304,259,6454,2,0,P|296:207|308:175,1,75,0|2,0:0|0:0,0:0:0:0:
369,127,6898,2,0,P|377:75|365:43,1,75,8|2,0:0|0:0,0:0:0:0:
285,24,7343,6,0,B|243:53|243:53|146:38,1,150,0|8,0:0|0:0,0:0:0:0:
65,78,8009,1,2,0:0:0:0:
65,78,8120,1,0,0:0:0:0:
65,78,8231,2,0,P|54:132|61:165,1,75,0|2,0:0|0:0,0:0:0:0:
123,211,8676,1,8,0:0:0:0:
60,275,8898,1,2,0:0:0:0:
136,322,9120,6,0,P|224:312|279:355,1,150,0|8,0:0|0:0,0:0:0:0:
360,329,9787,1,2,0:0:0:0:
298,263,10009,2,0,P|285:212|290:173,1,75,0|2,0:0|0:0,0:0:0:0:
207,108,10454,2,0,P|206:145|195:180,1,75,8|2,0:0|0:0,0:0:0:0:
126,73,10898,6,0,L|292:57,1,150,0|8,0:0|0:0,0:0:0:0:
350,108,11565,1,2,0:0:0:0:
438,91,11787,2,0,P|471:49|476:20,2,75,0|2|8,0:0|0:0|0:0,0:0:0:0:
357,115,12454,1,2,0:0:0:0:
357,115,12565,1,0,0:0:0:0:
357,115,12676,6,0,P|352:195|381:265,1,150,0|8,0:0|0:0,0:0:0:0:
454,305,13343,1,2,0:0:0:0:
375,348,13565,2,0,L|286:339,1,75,0|2,0:0|0:0,0:0:0:0:
181,273,14009,2,0,L|255:265,1,75,8|2,0:0|0:0,0:0:0:0:
116,342,14454,6,0,P|73:324|17:266,2,112.500004291535,4|0|0,0:0|0:0|3:0,0:0:0:0:
168,169,15787,1,0,0:0:0:0:
328,249,16231,2,0,L|349:373,1,112.500004291535,0|0,3:0|0:0,0:0:0:0:
457,217,17120,2,0,L|472:119,2,84.3750032186509,0|0|0,3:0|0:0|0:0,0:0:0:0:
397,259,18009,6,0,P|354:263|288:232,1,112.500004291535,0|0,3:0|0:0,0:0:0:0:
232,184,18676,2,0,P|189:180|123:211,1,112.500004291535,0|0,0:0|0:0,0:0:0:0:
70,265,19343,1,0,0:0:0:0:
244,310,19787,1,0,3:0:0:0:
286,135,20231,1,0,0:0:0:0:
112,90,20675,1,0,0:0:0:0:
257,223,21120,2,0,P|305:225|332:215,1,56.2500021457673,0|0,0:0|0:0,0:0:0:0:
387,194,21565,6,0,P|452:195|502:231,2,112.500004291535,0|0|0,3:0|0:0|3:0,0:0:0:0:
251,312,22898,1,0,0:0:0:0:
88,234,23343,2,0,B|25:141|25:141|69:33,1,225.000008583069,0|0,3:0|3:0,0:0:0:0:
142,87,24454,1,0,0:0:0:0:
227,62,24676,2,0,P|242:26|247:5,1,56.2500021457673,0|0,0:0|0:0,0:0:0:0:
316,88,25120,6,0,P|307:156|321:210,2,112.500004291535,0|0|0,3:0|0:0|3:0,0:0:0:0:
487,145,26454,1,0,0:0:0:0:
397,301,26898,1,0,3:0:0:0:
238,214,27343,1,0,0:0:0:0:
328,58,27787,1,0,0:0:0:0:
331,237,28231,1,0,0:0:0:0:
146,150,28676,6,0,P|133:90|159:17,2,127.50000243187,0|0|0,0:0|0:0|0:0,0:0:0:0:
221,197,29787,1,2,0:0:0:0:
303,162,30009,2,0,P|322:118|323:92,1,63.7500012159348,0|2,0:0|0:0,0:0:0:0:
235,119,30454,6,0,L|246:253,1,127.50000243187,0|0,0:0|0:0,0:0:0:0:
177,303,31120,2,0,P|125:317|46:284,1,127.50000243187,2|2,0:0|0:0,0:0:0:0:
4,221,31787,2,0,P|36:206|83:205,1,63.7500012159348,0|2,0:0|0:0,0:0:0:0:
141,159,32231,6,0,B|181:187|181:187|280:171,1,127.50000243187,0|0,0:0|0:0,0:0:0:0:
346,193,32898,2,0,P|348:260|388:315,1,127.50000243187,2|2,0:0|0:0,0:0:0:0:
453,256,33565,2,0,L|470:189,1,63.7500012159348,0|2,0:0|0:0,0:0:0:0:
417,121,34009,5,0,0:0:0:0:
263,212,34454,1,0,0:0:0:0:
265,33,34898,1,0,0:0:0:0:
325,107,35120,1,2,0:0:0:0:
325,107,35231,1,2,0:0:0:0:
325,107,35343,2,0,L|335:185,1,63.7500012159348,0|2,0:0|0:0,0:0:0:0:
260,221,35787,6,0,P|211:229|128:199,1,127.50000243187,0|0,0:0|0:0,0:0:0:0:
74,142,36454,1,2,0:0:0:0:
16,209,36676,2,0,P|8:257|13:295,1,63.7500012159348,0|2,0:0|0:0,0:0:0:0:
75,330,37120,2,0,L|143:316,1,63.7500012159348,0|2,0:0|0:0,0:0:0:0:
220,351,37565,6,0,P|300:329|364:341,1,127.50000243187,0|0,0:0|0:0,0:0:0:0:
430,314,38231,1,2,0:0:0:0:
365,251,38454,2,0,P|354:214|352:183,1,63.7500012159348,0|2,0:0|0:0,0:0:0:0:
277,110,38898,2,0,P|273:141|263:171,1,63.7500012159348,0|2,0:0|0:0,0:0:0:0:
188,219,39343,6,0,L|51:209,2,127.50000243187,0|0|0,0:0|0:0|0:0,0:0:0:0:
262,269,40454,1,2,0:0:0:0:
337,221,40676,2,0,P|351:184|354:152,1,63.7500012159348,0|2,0:0|0:0,0:0:0:0:
399,83,41120,2,0,P|419:196|436:224,2,127.50000243187,0|0|0,0:0|0:0|0:0,0:0:0:0:
44,115,42898,6,0,P|101:83|162:260,1,300,4|0,0:0|0:0,0:0:0:0:
148,321,44009,1,2,0:0:0:0:
93,245,44231,2,0,P|102:202|126:165,1,75,8|2,0:0|0:0,0:0:0:0:
203,149,44676,6,0,L|285:158,1,75,0|2,0:0|0:0,0:0:0:0:
365,177,45120,2,0,L|447:168,1,75,8|2,0:0|0:0,0:0:0:0:
468,154,45454,2,0,P|477:108|456:42,1,112.5,0|2,0:0|0:0,0:0:0:0:
365,177,46009,2,0,P|362:214|370:250,1,75,8|2,0:0|0:0,0:0:0:0:
456,329,46454,5,0,0:0:0:0:
378,374,46676,1,2,0:0:0:0:
297,333,46898,2,0,P|243:325|213:336,1,75,8|2,0:0|0:0,0:0:0:0:
200,346,47231,2,0,P|142:353|89:330,1,112.5,0|2,0:0|0:0,0:0:0:0:
71,245,47787,2,0,L|67:163,1,75,8|2,0:0|0:0,0:0:0:0:
154,138,48231,6,0,B|203:165|203:165|308:147,1,150,0|8,0:0|0:0,0:0:0:0:
355,81,48898,1,2,0:0:0:0:
289,19,49120,2,0,P|239:23|200:40,1,75,0|2,0:0|0:0,0:0:0:0:
157,99,49565,2,0,P|107:95|68:78,1,75,8|2,0:0|0:0,0:0:0:0:
20,150,50009,6,0,L|31:235,1,75,0|2,0:0|0:0,0:0:0:0:
18,314,50454,2,0,P|76:318|97:330,1,75,8|2,0:0|0:0,0:0:0:0:
111,345,50787,2,0,L|234:326,1,112.5,0|2,0:0|0:0,0:0:0:0:
276,256,51343,1,8,0:0:0:0:
333,325,51565,1,2,0:0:0:0:
405,271,51787,6,0,P|423:217|397:125,1,150,0|8,0:0|0:0,0:0:0:0:
316,94,52454,1,2,0:0:0:0:
245,149,52676,2,0,P|187:143|163:127,1,75,0|2,0:0|0:0,0:0:0:0:
225,61,53120,1,8,0:0:0:0:
324,101,53343,1,2,0:0:0:0:
324,101,53454,1,0,0:0:0:0:
324,101,53565,6,0,L|332:251,1,150,0|8,0:0|0:0,0:0:0:0:
270,316,54231,1,2,0:0:0:0:
189,275,54454,2,0,P|139:273|99:284,1,75,0|2,0:0|0:0,0:0:0:0:
14,188,54898,2,0,P|50:194|88:191,1,75,8|2,0:0|0:0,0:0:0:0:
168,110,55343,5,0,0:0:0:0:
269,220,55565,1,2,0:0:0:0:
316,77,55787,1,8,0:0:0:0:
179,206,56009,1,2,0:0:0:0:
179,206,56120,1,0,0:0:0:0:
179,206,56231,2,0,P|151:273|154:324,2,112.5,0|0|2,0:0|0:0|0:0,0:0:0:0:
72,86,57120,6,0,P|95:122|104:162,1,75,4|2,0:0|0:0,0:0:0:0:
203,107,57565,2,0,P|213:71|287:15,2,112.5,8|0|2,0:0|0:0|0:0,0:0:0:0:
261,192,58454,2,0,L|247:281,1,75,8|2,0:0|0:0,0:0:0:0:
327,332,58898,6,0,L|416:321,1,75,0|2,0:0|0:0,0:0:0:0:
486,255,59343,2,0,L|361:239,2,112.5,8|0|2,0:0|0:0|0:0,0:0:0:0:
476,165,60231,1,8,0:0:0:0:
390,135,60454,1,2,0:0:0:0:
307,170,60676,6,0,P|282:215|282:252,1,75,0|2,0:0|0:0,0:0:0:0:
306,323,61120,2,0,L|227:337,1,75,8|2,0:0|0:0,0:0:0:0:
209,349,61454,2,0,L|97:330,1,112.5,0|2,0:0|0:0,0:0:0:0:
15,294,62009,1,8,0:0:0:0:
86,239,62231,1,2,0:0:0:0:
11,189,62454,6,0,P|-4:127|28:41,1,150,0|8,0:0|0:0,0:0:0:0:
118,24,63120,1,2,0:0:0:0:
118,24,63231,1,0,0:0:0:0:
118,24,63343,1,0,0:0:0:0:
171,96,63565,1,2,0:0:0:0:
260,93,63787,2,0,P|277:57|280:15,1,75,8|2,0:0|0:0,0:0:0:0:
171,96,64231,6,0,P|175:133|191:166,1,75,0|2,0:0|0:0,0:0:0:0:
269,212,64676,2,0,L|357:206,1,75,8|2,0:0|0:0,0:0:0:0:
360,220,65009,2,0,P|344:282|300:316,1,112.5,0|2,0:0|0:0,0:0:0:0:
218,311,65565,1,8,0:0:0:0:
159,248,65787,1,2,0:0:0:0:
159,248,65898,1,0,0:0:0:0:
159,248,66009,6,0,P|102:268|7:238,1,150,0|8,0:0|0:0,0:0:0:0:
18,155,66676,2,0,P|75:135|170:165,1,150,2|2,0:0|0:0,0:0:0:0:
237,202,67343,2,0,P|289:205|325:190,1,75,8|2,0:0|0:0,0:0:0:0:
374,134,67787,6,0,L|386:55,1,75,0|2,0:0|0:0,0:0:0:0:
451,190,68231,2,0,L|470:318,2,112.5,8|0|2,0:0|0:0|0:0,0:0:0:0:
362,247,69120,2,0,P|348:302|346:331,1,75,8|2,0:0|0:0,0:0:0:0:
261,370,69565,5,0,0:0:0:0:
142,278,69787,1,2,0:0:0:0:
281,223,70009,1,8,0:0:0:0:
171,363,70231,1,2,0:0:0:0:
171,363,70343,1,0,0:0:0:0:
171,363,70454,2,0,L|44:344,2,112.5,0|0|2,0:0|0:0|0:0,0:0:0:0:
319,303,71343,1,4,0:0:0:0:
256,192,71454,12,0,74898,0:0:0:0:
128,181,85565,6,0,P|116:148|119:107,1,60,4|0,0:0|0:0,0:0:0:0:
217,130,86009,2,0,L|197:270,1,120,8|0,0:0|0:0,0:0:0:0:
266,310,86676,1,0,0:0:0:0:
348,274,86898,2,0,P|363:231|366:205,1,60,8|0,0:0|0:0,0:0:0:0:
396,132,87343,6,0,P|451:113|512:112,2,120,0|8|0,0:0|0:0|0:0,0:0:0:0:
324,76,88454,1,0,0:0:0:0:
257,136,88676,2,0,P|213:137|178:131,1,60,8|0,0:0|0:0,0:0:0:0:
107,127,89120,6,0,P|81:89|103:12,1,120,0|8,0:0|0:0,0:0:0:0:
154,69,89787,2,0,L|150:205,1,120,0|0,0:0|0:0,0:0:0:0:
84,250,90454,1,8,0:0:0:0:
153,307,90676,1,0,0:0:0:0:
220,247,90898,6,0,P|262:243|301:254,1,60,0|0,0:0|0:0,0:0:0:0:
363,212,91343,2,0,P|365:177|354:115,2,90,8|0|0,0:0|0:0|0:0,0:0:0:0:
278,163,92231,2,0,P|250:139|229:129,1,60,8|0,0:0|0:0,0:0:0:0:
151,83,92676,6,0,P|112:90|31:70,2,120,0|8|0,0:0|0:0|0:0,0:0:0:0:
226,33,93787,1,0,0:0:0:0:
307,69,94009,2,0,L|324:136,1,60,8|0,0:0|0:0,0:0:0:0:
411,132,94454,6,0,P|393:196|396:266,1,120,0|8,0:0|0:0,0:0:0:0:
446,321,95120,1,0,0:0:0:0:
359,347,95343,2,0,L|294:353,1,60,0|0,0:0|0:0,0:0:0:0:
230,294,95787,2,0,L|165:288,1,60,8|0,0:0|0:0,0:0:0:0:
105,226,96231,6,0,P|162:211|211:169,1,120,0|8,0:0|0:0,0:0:0:0:
264,101,96898,2,0,P|309:139|367:154,1,120,0|0,0:0|0:0,0:0:0:0:
449,116,97565,2,0,L|457:48,1,60,8|0,0:0|0:0,0:0:0:0:
372,23,98009,6,0,L|304:15,1,60,0|0,0:0|0:0,0:0:0:0:
233,59,98454,2,0,P|172:80|132:82,2,90,8|0|0,0:0|0:0|0:0,0:0:0:0:
314,97,99343,2,0,L|323:167,1,60,8|0,0:0|0:0,0:0:0:0:
263,225,99787,1,0,0:0:0:0:
28,99,114009,6,0,P|68:80|173:165,1,180,2|0,0:0|0:0,0:0:0:0:
154,235,114898,2,0,P|212:298|256:304,1,120,2|8,0:0|0:0,0:0:0:0:
263,125,115787,2,0,P|268:78|287:34,2,90,2|0|0,0:0|0:0|0:0,0:0:0:0:
352,117,116676,2,0,P|415:98|479:99,1,120,2|8,0:0|0:0,0:0:0:0:
388,258,117565,6,0,B|332:279|332:279|191:245,1,180,2|0,0:0|0:0,0:0:0:0:
145,193,118454,2,0,P|121:141|130:64,1,120,2|8,0:0|0:0,0:0:0:0:
297,29,119343,2,0,L|284:139,2,90,2|0|0,0:0|0:0|0:0,0:0:0:0:
368,82,120231,2,0,L|384:223,1,120,2|8,0:0|0:0,0:0:0:0:
239,312,121120,6,0,P|196:308|130:253,1,120,2|8,0:0|0:0,0:0:0:0:
189,190,121787,1,0,0:0:0:0:
117,135,122009,2,0,L|111:64,1,60,2|0,0:0|0:0,0:0:0:0:
182,19,122454,1,8,0:0:0:0:
295,158,122898,2,0,L|278:294,1,120,2|8,0:0|0:0,0:0:0:0:
354,328,123565,1,0,0:0:0:0:
433,285,123787,2,0,P|458:244|459:156,1,120,2|8,0:0|0:0,0:0:0:0:
312,75,124676,6,0,L|225:83,1,60,2|0,0:0|0:0,0:0:0:0:
191,146,125120,2,0,L|104:138,1,60,8|0,0:0|0:0,0:0:0:0:
53,95,125565,2,0,P|31:169|40:231,1,120,2|8,0:0|0:0,0:0:0:0:
186,307,126454,2,0,L|306:290,2,120,0|8|0,0:0|0:0|0:0,0:0:0:0:
219,129,127787,1,8,0:0:0:0:
441,163,128231,6,0,P|464:226|453:308,2,150,4|8|0,0:0|0:0|0:0,0:0:0:0:
358,201,129343,1,0,0:0:0:0:
280,155,129565,2,0,P|263:110|262:69,1,75,8|0,0:0|0:0,0:0:0:0:
198,18,130009,6,0,P|174:82|134:132,1,112.5,0|0,0:0|0:0,0:0:0:0:
107,136,130454,2,0,L|-4:122,2,112.5,8|0|0,0:0|0:0|0:0,0:0:0:0:
175,195,131343,1,8,0:0:0:0:
259,165,131565,1,0,0:0:0:0:
332,216,131787,6,0,P|356:275|344:368,2,150,0|8|0,0:0|0:0|0:0,0:0:0:0:
358,129,132898,1,0,0:0:0:0:
436,173,133120,1,8,0:0:0:0:
486,98,133343,1,0,0:0:0:0:
407,54,133565,6,0,P|348:75|295:69,1,112.5,0|0,0:0|0:0,0:0:0:0:
258,50,134009,2,0,P|206:44|143:60,2,112.5,8|0|0,0:0|0:0|0:0,0:0:0:0:
258,140,134898,2,0,L|247:229,1,75,8|0,0:0|0:0,0:0:0:0:
181,274,135343,6,0,L|93:268,1,75,0|0,0:0|0:0,0:0:0:0:
251,335,135787,2,0,L|368:324,2,112.5,8|0|0,0:0|0:0|0:0,0:0:0:0:
167,370,136676,1,8,0:0:0:0:
88,325,136898,1,0,0:0:0:0:
103,236,137120,6,0,P|107:157|76:90,2,150,0|8|0,0:0|0:0|0:0,0:0:0:0:
157,307,138231,1,0,0:0:0:0:
230,254,138454,2,0,P|273:250|309:258,1,75,8|0,0:0|0:0,0:0:0:0:
389,229,138898,6,0,L|398:144,1,75,0|0,0:0|0:0,0:0:0:0:
327,96,139343,2,0,P|273:89|216:58,2,112.5,8|0|0,0:0|0:0|0:0,0:0:0:0:
411,64,140231,1,8,0:0:0:0:
480,122,140454,1,0,0:0:0:0:
396,154,140676,1,4,0:0:0:0:
71,224,142454,6,0,P|39:138|161:191,1,300,4|0,0:0|0:0,0:0:0:0:
161,271,143565,1,2,0:0:0:0:
161,271,143676,1,0,0:0:0:0:
161,271,143787,2,0,P|211:291|255:289,1,75,8|2,0:0|0:0,0:0:0:0:
314,256,144231,6,0,P|335:219|345:165,1,75,0|2,0:0|0:0,0:0:0:0:
355,98,144676,2,0,L|268:113,1,75,8|2,0:0|0:0,0:0:0:0:
260,131,145009,2,0,P|204:143|146:118,1,112.5,0|2,0:0|0:0,0:0:0:0:
79,72,145565,1,8,0:0:0:0:
160,34,145787,1,2,0:0:0:0:
153,124,146009,6,0,P|150:192|116:268,1,150,0|8,0:0|0:0,0:0:0:0:
34,303,146676,1,2,0:0:0:0:
4,217,146898,2,0,L|-2:136,2,75,0|2|8,0:0|0:0|0:0,0:0:0:0:
34,303,147565,1,2,0:0:0:0:
117,266,147787,6,0,P|183:268|215:277,1,75,0|2,0:0|0:0,0:0:0:0:
253,335,148231,2,0,L|336:320,1,75,8|2,0:0|0:0,0:0:0:0:
351,314,148565,2,0,P|375:268|359:203,1,112.5,0|2,0:0|0:0,0:0:0:0:
290,157,149120,2,0,P|288:108|307:70,1,75,8|2,0:0|0:0,0:0:0:0:
376,132,149565,6,0,P|308:214|258:238,1,150,0|8,0:0|0:0,0:0:0:0:
186,201,150231,1,2,0:0:0:0:
186,201,150343,1,0,0:0:0:0:
186,201,150454,1,0,0:0:0:0:
103,243,150676,1,2,0:0:0:0:
66,160,150898,2,0,P|66:122|55:86,1,75,8|2,0:0|0:0,0:0:0:0:
115,19,151343,6,0,B|164:46|164:46|277:26,1,150,0|8,0:0|0:0,0:0:0:0:
345,14,152009,2,0,P|397:13|485:68,1,150,2|2,0:0|0:0,0:0:0:0:
410,119,152676,2,0,L|420:197,1,75,8|2,0:0|0:0,0:0:0:0:
482,257,153120,6,0,L|472:335,1,75,0|2,0:0|0:0,0:0:0:0:
388,365,153565,2,0,P|345:356|317:336,1,75,8|2,0:0|0:0,0:0:0:0:
304,318,153898,2,0,L|191:362,1,112.5,0|2,0:0|0:0,0:0:0:0:
139,291,154454,1,8,0:0:0:0:
85,363,154676,1,2,0:0:0:0:
12,310,154898,6,0,P|-2:252|6:219,1,75,0|2,0:0|0:0,0:0:0:0:
10,147,155343,2,0,L|100:139,1,75,8|2,0:0|0:0,0:0:0:0:
178,74,155787,1,0,0:0:0:0:
291,159,156009,1,2,0:0:0:0:
291,159,156120,1,0,0:0:0:0:
291,159,156231,1,8,0:0:0:0:
312,32,156454,1,2,0:0:0:0:
195,156,156676,6,0,P|195:199|212:244,1,75,4|2,0:0|0:0,0:0:0:0:
117,252,157120,2,0,P|135:320|135:367,2,112.5,8|0|2,0:0|0:0|0:0,0:0:0:0:
61,181,158009,2,0,P|45:140|43:96,1,75,8|2,0:0|0:0,0:0:0:0:
114,55,158454,6,0,P|177:50|259:95,1,150,0|8,0:0|0:0,0:0:0:0:
283,180,159120,1,2,0:0:0:0:
361,124,159343,2,0,P|379:85|380:46,1,75,0|2,0:0|0:0,0:0:0:0:
283,180,159787,2,0,P|286:217|302:250,1,75,8|2,0:0|0:0,0:0:0:0:
367,312,160231,6,0,L|449:304,1,75,0|2,0:0|0:0,0:0:0:0:
301,370,160676,2,0,L|223:362,1,75,8|2,0:0|0:0,0:0:0:0:
198,357,161009,2,0,P|185:305|206:242,1,112.5,0|2,0:0|0:0,0:0:0:0:
291,244,161565,2,0,L|377:258,1,75,8|2,0:0|0:0,0:0:0:0:
326,139,162009,6,0,P|274:159|184:115,1,150,0|8,0:0|0:0,0:0:0:0:
181,34,162676,1,2,0:0:0:0:
265,0,162898,2,0,P|272:44|262:80,1,75,0|2,0:0|0:0,0:0:0:0:
190,124,163343,2,0,L|95:111,1,75,8|2,0:0|0:0,0:0:0:0:
48,173,163787,6,0,P|38:222|47:262,1,75,0|2,0:0|0:0,0:0:0:0:
119,291,164231,2,0,L|247:281,2,112.5,8|0|2,0:0|0:0|0:0,0:0:0:0:
135,202,165120,1,8,0:0:0:0:
220,172,165343,1,2,0:0:0:0:
220,172,165454,1,0,0:0:0:0:
220,172,165565,6,0,P|276:189|313:185,1,75,0|2,0:0|0:0,0:0:0:0:
369,143,166009,2,0,P|433:124|470:128,1,75,8|2,0:0|0:0,0:0:0:0:
463,137,166343,2,0,L|451:263,1,112.5,0|2,0:0|0:0,0:0:0:0:
381,353,166898,2,0,L|375:278,1,75,8|2,0:0|0:0,0:0:0:0:
316,219,167343,6,0,P|251:214|167:263,1,150,0|8,0:0|0:0,0:0:0:0:
101,203,168009,1,2,0:0:0:0:
101,203,168120,1,0,0:0:0:0:
101,203,168231,1,0,0:0:0:0:
32,261,168454,1,2,0:0:0:0:
87,331,168676,2,0,P|138:343|172:340,1,75,8|2,0:0|0:0,0:0:0:0:
240,288,169120,6,0,B|253:242|296:205|357:222|429:144|385:66|307:59|277:100|277:100|275:50|203:13|124:57|144:161|205:179|207:229,1,600,0|4,0:0|0:0,0:0:0:0:
