osu file format v14

[General]
AudioFilename: audio.mp3
AudioLeadIn: 0
PreviewTime: 53961
Countdown: 0
SampleSet: Soft
StackLeniency: 0.6
Mode: 0
LetterboxInBreaks: 0
WidescreenStoryboard: 1

[Editor]
DistanceSpacing: 1.5
BeatDivisor: 3
GridSize: 4
TimelineZoom: 1

[Metadata]
Title:The Christmas Song (Nightcore Ver.)
TitleUnicode:The Christmas Song (Nightcore Ver.)
Artist:Owl City
ArtistUnicode:Owl City
Creator:Nickelony
Version:Hard
Source:
Tags:holiday xmas snow lights winter santa nightcore speed pitch beatofike
BeatmapID:550242
BeatmapSetID:237772

[Difficulty]
HPDrainRate:7
CircleSize:4
OverallDifficulty:7
ApproachRate:7.5
SliderMultiplier:1.2
SliderTickRate:1

[Events]
//Background and Video events
0,0,"wallpaper.jpg",0,0
//Break Periods
//Storyboard Layer 0 (Background)
//Storyboard Layer 1 (Fail)
//Storyboard Layer 2 (Pass)
//Storyboard Layer 3 (Foreground)
//Storyboard Sound Samples

[TimingPoints]
136,321.027287319422,3,2,1,40,1,0
17471,-133.333333333333,3,2,1,40,0,0
21323,-100,3,2,1,40,0,0
36733,-133.333333333333,3,2,1,40,0,0
37696,-100,3,2,1,10,0,0
38659,-100,3,2,1,40,0,0
42351,-200,3,2,1,40,0,0
44116,-100,3,2,1,40,0,0
46363,-133.333333333333,3,2,1,40,0,0
50055,-200,3,2,1,40,0,0
51821,-133.333333333333,3,2,1,40,0,0
53105,-100,3,2,1,40,0,0
54068,-83.3333333333333,3,2,1,50,0,1
69477,-83.3333333333333,3,2,1,40,0,0

[Colours]
Combo1 : 255,255,128
Combo2 : 0,215,105
Combo3 : 255,128,192
Combo4 : 128,255,255
Combo5 : 255,128,64
Combo6 : 192,192,192
SliderBorder : 63,63,63

[HitObjects]
256,264,3988,5,2,0:0:0:0:
320,160,4951,1,2,0:0:0:0:
256,56,5272,1,0,0:0:0:0:
192,160,5593,1,0,0:0:0:0:
376,56,5914,5,2,0:0:0:0:
192,160,6877,1,2,0:0:0:0:
256,264,7198,1,0,0:0:0:0:
136,264,7519,1,2,0:0:0:0:
320,160,7840,6,0,P|348:108|348:40,1,120,2|2,0:0|0:0,0:0:0:0:
232,76,8482,1,0,0:0:0:0:
128,136,8803,2,0,L|140:264,1,120,2|2,0:0|0:0,0:0:0:0:
256,288,9445,1,0,0:0:0:0:
364,340,9766,6,0,B|396:276|364:224|332:168|364:100,1,240,2|0,0:0|0:0,0:0:0:0:
256,44,10729,2,0,P|248:124|112:180,1,240,2|0,0:0|0:0,0:0:0:0:
80,68,11692,6,0,P|112:180|76:300,1,240,2|0,0:0|0:0,0:0:0:0:
192,332,12656,2,0,P|228:256|380:240,1,240,2|0,0:0|0:0,0:0:0:0:
312,340,13619,5,2,0:0:0:0:
192,332,13940,1,2,0:0:0:0:
136,224,14261,1,0,0:0:0:0:
256,232,14582,1,2,0:0:0:0:
324,132,14903,1,2,0:0:0:0:
272,24,15224,1,0,0:0:0:0:
204,124,15545,6,0,L|84:132,1,120,2|2,0:0|0:0,0:0:0:0:
8,224,16187,1,0,0:0:0:0:
64,332,16508,2,0,L|184:340,1,120,2|2,0:0|0:0,0:0:0:0:
256,244,17150,1,0,0:0:0:0:
324,340,17471,6,0,P|396:336|448:244,1,180.000006866455,2|0,0:0|0:0,0:0:0:0:
396,176,18434,2,0,P|324:180|272:272,1,180.000006866455,2|0,0:0|0:0,0:0:0:0:
212,332,19397,6,0,B|235:268|235:268|197:162,1,180.000006866455,2|0,0:0|0:0,0:0:0:0:
116,124,20360,2,0,L|291:162,1,180.000006866455,2|0,0:0|0:0,0:0:0:0:
388,92,21323,5,2,0:0:0:0:
400,212,21644,1,2,0:0:0:0:
304,280,21965,2,0,L|180:288,2,120,2|2|0,0:0|0:0|0:0,0:0:0:0:
412,336,22928,1,2,0:0:0:0:
436,168,23249,6,0,P|388:92|256:120,1,240,2|0,0:0|0:0,0:0:0:0:
76,184,24213,2,0,P|124:260|256:232,1,240,2|0,0:0|0:0,0:0:0:0:
340,148,25176,6,0,L|442:210,2,120,2|2|0,0:0|0:0|0:0,0:0:0:0:
360,28,26139,1,2,0:0:0:0:
256,88,26460,2,2,B|244:148|244:148|256:208,1,120
256,324,27102,5,2,0:0:0:0:
156,260,27423,1,2,0:0:0:0:
56,196,27744,2,0,L|48:72,2,120,0|2|2,0:0|0:0|0:0,0:0:0:0:
156,260,28707,1,0,0:0:0:0:
168,140,29028,6,0,P|216:64|348:92,1,240,2|0,0:0|0:0,0:0:0:0:
464,72,29991,2,0,L|436:200,1,120,2|2,0:0|0:0,0:0:0:0:
472,304,30633,1,0,0:0:0:0:
356,276,30954,6,0,P|308:256|172:368,1,240,2|0,0:0|0:0,0:0:0:0:
112,252,31917,2,0,P|20:183|32:68,1,240,2|0,0:0|0:0,0:0:0:0:
132,132,32880,6,0,L|252:124,2,120,2|2|0,0:0|0:0|0:0,0:0:0:0:
184,24,33843,2,0,L|432:44,1,240,2|0,0:0|0:0,0:0:0:0:
464,156,34806,6,0,P|405:244|323:177,1,240,2|0,0:0|0:0,0:0:0:0:
216,232,35770,2,0,L|180:352,2,120,2|2|0,0:0|0:0|0:0,0:0:0:0:
172,112,36733,6,0,P|256:24|340:112,1,270.000010299683,2|0,0:0|0:0,0:0:0:0:
256,192,38659,6,0,P|172:112|64:144,1,240,4|0,0:0|0:0,0:0:0:0:
144,220,39622,2,0,B|136:280|136:280|104:332,1,120,8|0,0:0|0:0,0:0:0:0:
28,240,40264,1,0,0:0:0:0:
64,124,40585,6,0,L|180:96,1,120
256,192,41227,1,0,0:0:0:0:
336,284,41548,2,0,P|426:228|363:142,1,240,8|0,0:0|0:0,0:0:0:0:
256,88,42511,6,0,B|152:96|152:96|88:56,1,180,0|8,0:0|0:0,0:0:0:0:
44,292,44116,5,0,0:0:0:0:
8,180,44437,2,0,P|68:180|122:205,1,120
240,224,45079,1,0,0:0:0:0:
304,328,45400,2,0,L|424:336,2,120,8|0|0,0:0|0:0|0:0,0:0:0:0:
240,224,46363,6,0,L|56:240,1,180.000006866455,4|0,0:0|0:0,0:0:0:0:
40,124,47327,2,0,L|224:108,1,180.000006866455,8|0,0:0|0:0,0:0:0:0:
328,64,48290,6,0,P|328:132|400:220,1,180.000006866455
384,332,49253,2,0,P|468:304|508:224,1,180.000006866455,8|0,0:0|0:0,0:0:0:0:
394,217,50216,6,0,L|216:248,1,180,0|8,0:0|0:0,0:0:0:0:
88,124,51821,21,0,0:0:0:0:
88,124,52142,2,0,L|80:28,2,90.0000034332277
204,148,53105,6,0,B|200:220|200:220|216:268,2,120,8|0|0,0:0|0:0|0:0,0:0:0:0:
344,124,54068,6,0,L|440:104,1,95.9999970703126,4|0,0:1|0:0,0:0:0:0:
448,56,54389,2,0,P|432:188|344:236,1,239.999992675781,2|2,0:0|0:0,0:0:0:0:
308,208,55031,2,0,B|312:300|312:300|300:352,2,143.999995605469,2|2|0,0:3|0:0|0:0,0:0:0:0:
256,72,55994,5,2,0:0:0:0:
116,40,56315,2,0,B|104:116|148:176|148:176|60:216,1,239.999992675781,2|2,0:0|0:0,0:0:0:0:
12,216,56957,2,0,P|12:268|56:348,2,143.999995605469,2|2|2,0:3|0:0|0:0,0:0:0:0:
152,244,57920,5,2,0:0:0:0:
256,344,58241,2,0,P|336:344|400:212,1,239.999992675781,2|2,0:0|0:0,0:0:0:0:
376,176,58883,2,0,L|512:228,2,143.999995605469,2|2|0,0:3|0:0|0:0,0:0:0:0:
256,96,59847,5,0,0:0:0:0:
148,192,60168,1,0,0:0:0:0:
120,52,60489,1,0,0:0:0:0:
256,96,60810,2,0,B|252:152|252:152|260:180|260:180|256:240,2,143.999995605469,2|0|0,0:3|0:0|0:0,0:0:0:0:
384,32,61773,6,0,L|480:44,1,95.9999970703126,2|0,0:0|0:0,0:0:0:0:
480,92,62094,2,0,B|500:160|459:206|418:255|438:328,1,240,2|0,0:0|0:0,0:0:0:0:
460,364,62736,2,0,B|372:348|372:348|316:356,1,143.999995605469,2|2,0:3|0:0,0:0:0:0:
176,336,63378,1,0,0:0:0:0:
256,216,63699,5,2,0:0:0:0:
112,200,64020,2,0,P|136:128|280:72,1,239.999992675781,2|2,0:0|0:0,0:0:0:0:
292,24,64662,2,0,L|256:164,2,143.999995605469,2|2|2,0:3|0:0|0:0,0:0:0:0:
396,124,65625,5,2,0:0:0:0:
352,260,65946,2,0,P|228:292|140:232,1,239.999992675781,2|2,0:0|0:0,0:0:0:0:
92,232,66588,2,0,B|108:164|108:164|92:92,2,143.999995605469,2|2|0,0:3|0:0|0:0,0:0:0:0:
192,336,67551,5,2,0:0:0:0:
352,192,67872,1,2,0:0:0:0:
192,48,68193,1,2,0:0:0:0:
256,256,68514,5,2,0:0:0:0:
400,96,68835,1,2,0:0:0:0:
192,160,69156,1,4,0:0:0:0:
352,304,69477,1,4,0:0:0:0:
