osu file format v14

[General]
AudioFilename: Owl City - Shooting Star (Acoustic).mp3
AudioLeadIn: 0
PreviewTime: 126726
Countdown: 0
SampleSet: Soft
StackLeniency: 0.7
Mode: 0
LetterboxInBreaks: 0
WidescreenStoryboard: 0

[Editor]
Bookmarks: 10641,204728,221424
DistanceSpacing: 0.7
BeatDivisor: 4
GridSize: 4
TimelineZoom: 1.2

[Metadata]
Title:Shooting Star (Acoustic)
TitleUnicode:Shooting Star (Acoustic)
Artist:Owl City
ArtistUnicode:Owl City
Creator:HelloSCV
Version:Normal
Source:
Tags:The Midsummer Station EP Adam Young HootOwlStar
BeatmapID:620755
BeatmapSetID:272975

[Difficulty]
HPDrainRate:4
CircleSize:3
OverallDifficulty:4
ApproachRate:5
SliderMultiplier:1.3
SliderTickRate:2

[Events]
//Background and Video events
0,0,"BG.jpg",0,0
//Break Periods
2,179883,184744
2,204926,219439
//Storyboard Layer 0 (Background)
//Storyboard Layer 1 (Fail)
//Storyboard Layer 2 (Pass)
//Storyboard Layer 3 (Foreground)
//Storyboard Sound Samples

[TimingPoints]
2292,521.739130434783,4,2,1,40,1,0
2292,-100,4,2,1,40,0,0
44031,-100,4,2,1,50,0,0
45074,-100,4,2,2,40,0,0
45205,-100,4,2,1,50,0,0
46118,-100,4,2,2,40,0,0
46248,-100,4,2,1,50,0,0
46639,-100,4,2,2,40,0,0
46770,-100,4,2,1,50,0,0
48205,-100,4,2,2,40,0,0
48335,-100,4,2,1,50,0,0
48726,-100,4,2,2,40,0,0
48857,-100,4,2,1,50,0,0
53422,-100,4,2,2,40,0,0
53552,-100,4,2,1,50,0,0
57596,-100,4,2,2,40,0,0
57726,-100,4,2,1,50,0,0
60726,-100,4,2,2,40,0,0
60857,-100,4,2,1,50,0,0
61248,-100,4,2,2,40,0,0
61378,-100,4,2,1,50,0,0
62813,-100,4,2,2,40,0,0
62944,-100,4,2,1,50,0,0
63335,-100,4,2,2,40,0,0
63465,-100,4,2,1,50,0,0
64900,-100,4,2,2,40,0,0
65031,-100,4,2,1,50,0,0
65422,-100,4,2,2,40,0,0
65552,-100,4,2,1,50,0,0
70118,-100,4,2,3,40,0,0
70248,-100,4,2,1,50,0,0
74292,-100,4,2,3,40,0,0
74422,-100,4,2,1,50,0,0
77422,-100,4,2,1,70,0,1
78465,-100,4,2,4,60,0,1
78596,-100,4,2,1,70,0,1
80552,-100,4,2,4,60,0,1
80683,-100,4,2,1,70,0,1
82639,-100,4,2,4,60,0,1
82770,-100,4,2,1,70,0,1
86813,-100,4,2,4,60,0,1
86944,-100,4,2,1,70,0,1
90987,-100,4,2,4,60,0,1
91118,-100,4,2,1,70,0,1
91770,-100,4,3,2,60,0,1
91900,-100,4,2,1,70,0,1
94118,-100,4,2,1,50,0,0
127509,-100,4,2,1,70,0,1
128552,-100,4,2,4,60,0,1
128683,-100,4,2,1,70,0,1
129596,-100,4,3,2,60,0,1
129726,-100,4,2,1,70,0,1
130118,-100,4,3,2,60,0,1
130248,-100,4,2,1,70,0,1
131683,-100,4,3,2,60,0,1
131813,-100,4,2,1,70,0,1
132726,-100,4,2,4,60,0,1
132857,-100,4,2,1,70,0,1
136900,-100,4,2,4,60,0,1
137031,-100,4,2,1,70,0,1
137683,-100,4,3,2,60,0,1
137813,-100,4,2,1,70,0,1
141074,-100,4,2,4,60,0,1
141205,-100,4,2,1,70,0,1
141857,-100,4,3,2,60,0,1
141987,-100,4,2,1,70,0,1
145248,-100,4,2,4,60,0,1
145378,-100,4,2,1,70,0,1
146292,-100,4,3,2,60,0,1
146422,-100,4,2,1,70,0,1
146813,-100,4,3,2,60,0,1
146944,-100,4,2,1,70,0,1
148378,-100,4,3,2,60,0,1
148509,-100,4,2,1,70,0,1
149422,-100,4,2,4,60,0,1
149552,-100,4,2,1,70,0,1
153596,-100,4,2,4,60,0,1
153726,-100,4,2,1,70,0,1
154378,-100,4,3,2,60,0,1
154509,-100,4,2,1,70,0,1
157770,-100,4,2,4,60,0,1
157900,-100,4,2,1,70,0,1
158552,-100,4,3,2,60,0,1
158683,-100,4,2,1,70,0,1
160900,-100,4,2,1,60,0,0
161944,-100,4,2,4,50,0,0
162074,-100,4,2,1,60,0,0
164031,-100,4,2,4,50,0,0
164161,-100,4,2,1,60,0,0
166118,-100,4,2,4,50,0,0
166248,-100,4,2,1,60,0,0
170292,-100,4,2,4,50,0,0
170422,-100,4,2,1,60,0,0
171074,-100,4,3,2,50,0,0
171205,-100,4,2,1,60,0,0
174465,-100,4,2,4,50,0,0
174596,-100,4,2,1,60,0,0
175248,-100,4,3,2,50,0,0
175378,-100,4,2,1,60,0,0
189074,-100,4,2,3,50,0,0
189205,-100,4,2,1,60,0,0
197161,-100,4,3,2,50,0,0
197292,-100,4,2,1,60,0,0
221422,-100,4,2,2,40,0,0
221552,-100,4,2,1,50,0,0
221944,-100,4,2,2,40,0,0
222074,-100,4,2,1,50,0,0
223509,-100,4,2,2,40,0,0
223639,-100,4,2,1,50,0,0
224031,-100,4,2,2,40,0,0
224161,-100,4,2,1,50,0,0
225596,-100,4,2,2,40,0,0
225726,-100,4,2,1,50,0,0
226118,-100,4,2,2,40,0,0
226248,-100,4,2,1,50,0,0
230813,-100,4,2,3,40,0,0
230944,-100,4,2,1,50,0,0
234987,-100,4,2,3,40,0,0
235118,-100,4,2,1,50,0,0
238118,-100,4,2,1,70,0,1
239161,-100,4,2,4,60,0,1
239292,-100,4,2,1,70,0,1
241248,-100,4,2,4,60,0,1
241378,-100,4,2,1,70,0,1
243335,-100,4,2,4,60,0,1
243465,-100,4,2,1,70,0,1
247509,-100,4,2,4,60,0,1
247639,-100,4,2,1,70,0,1
248292,-100,4,3,2,60,0,1
248422,-100,4,2,1,70,0,1
251683,-100,4,2,4,60,0,1
251813,-100,4,2,1,70,0,1
252465,-100,4,3,2,60,0,1
252596,-100,4,2,1,70,0,1
254813,-100,4,2,1,70,0,0
255074,-100,4,2,1,30,0,0
258987,-100,4,2,1,5,0,0

[Colours]
Combo1 : 128,255,128
Combo2 : 121,188,255
Combo3 : 192,192,192

[HitObjects]
180,304,10639,5,0,0:0:0:0:
220,328,10900,2,0,L|324:320,1,97.5,2|0,0:0|0:0,0:0:0:0:
392,256,11683,2,0,P|413:299|412:347,2,97.5,2|0|2,0:0|0:0|0:0,0:0:0:0:
352,232,12726,2,0,P|312:188|348:64,1,195,0|0,0:0|0:0,0:0:0:0:
384,48,13770,2,0,L|481:44,2,97.5,2|2|2,0:0|0:0|0:0,0:0:0:0:
280,128,15074,6,0,L|182:124,1,97.5,2|0,0:0|0:0,0:0:0:0:
96,172,15857,2,0,P|75:215|75:263,2,97.5,2|0|2,0:0|0:0|0:0,0:0:0:0:
136,148,16900,1,0,0:0:0:0:
224,244,17422,1,0,0:0:0:0:
268,256,17683,1,0,0:0:0:0:
312,248,17944,2,0,L|407:228,2,97.5,2|2|2,0:0|0:0|0:0,0:0:0:0:
220,340,19248,6,0,L|124:320,1,97.5,2|0,0:0|0:0,0:0:0:0:
180,240,20031,2,0,P|191:193|184:145,2,97.5,2|0|2,0:0|0:0|0:0,0:0:0:0:
156,280,21074,1,0,0:0:0:0:
280,244,21596,1,0,0:0:0:0:
324,260,21857,1,0,0:0:0:0:
364,276,22118,2,0,L|461:269,2,97.5,2|2|2,0:0|0:0|0:0,0:0:0:0:
340,312,23161,6,0,L|275:316,1,65,0|2,0:0|0:0,0:0:0:0:
160,256,23944,1,0,0:0:0:0:
136,216,24205,2,0,L|143:118,2,97.5,2|0|2,0:0|0:0|0:0,0:0:0:0:
260,172,25509,1,2,0:0:0:0:
372,236,26031,1,2,0:0:0:0:
408,264,26292,2,0,P|455:272|501:257,2,97.5,2|2|2,0:0|0:0|0:0,0:0:0:0:
372,236,27335,5,0,0:0:0:0:
328,228,27596,2,0,L|231:241,1,97.5,2|0,0:0|0:0,0:0:0:0:
192,152,28378,2,0,L|288:138,2,97.5,2|0|2,0:0|0:0|0:0,0:0:0:0:
147,164,29422,2,0,P|123:256|170:339,1,195,0|0,0:0|0:0,0:0:0:0:
216,328,30465,2,0,P|262:315|309:328,2,97.5,2|2|2,0:0|0:0|0:0,0:0:0:0:
92,284,31770,5,0,0:0:0:0:
116,248,32031,2,0,L|108:184,1,65,2|0,0:0|0:0,0:0:0:0:
84,144,32552,2,0,L|96:47,2,97.5,2|0|2,0:0|0:0|0:0,0:0:0:0:
60,184,33596,1,0,0:0:0:0:
192,176,34118,1,0,0:0:0:0:
220,140,34378,1,0,0:0:0:0:
248,104,34639,2,0,L|345:100,2,97.5,2|2|2,0:0|0:0|0:0,0:0:0:0:
312,216,35944,6,0,L|324:317,1,97.5,2|0,0:0|0:0,0:0:0:0:
416,284,36726,2,0,P|419:332|400:375,2,97.5,2|0|2,0:0|0:0|0:0,0:0:0:0:
404,240,37770,1,0,0:0:0:0:
340,132,38292,1,0,0:0:0:0:
376,104,38552,1,0,0:0:0:0:
416,80,38813,2,0,L|512:96,2,97.5,2|2|2,0:0|0:0|0:0,0:0:0:0:
380,52,39857,6,0,L|315:41,1,65,0|2,0:0|0:0,0:0:0:0:
196,92,40639,1,0,0:0:0:0:
216,132,40900,2,0,L|205:228,2,97.5,2|0|2,0:0|0:0|0:0,0:0:0:0:
124,40,42205,1,2,0:0:0:0:
16,108,42726,1,2,0:0:0:0:
44,144,42987,2,0,L|54:240,2,97.5,2|2|2,0:0|0:0|0:0,0:0:0:0:
84,120,44031,6,0,P|145:104|202:132,1,130,2|2,0:3|0:3,0:0:0:0:
232,168,44813,2,0,P|293:183|350:155,1,130
376,116,45596,1,2,0:3:0:0:
388,72,45857,2,0,L|428:216,2,130,0|0|0,0:0|0:0|0:0,0:0:0:0:
260,104,47422,2,0,L|184:108,1,65,0|2,0:0|0:3,0:0:0:0:
160,136,47944,2,0,P|103:105|39:109,2,130,0|0|0,0:0|0:0|0:0,0:0:0:0:
216,252,49509,1,0,0:0:0:0:
256,272,49770,2,0,P|288:270|318:258,1,65,2|0,0:3|0:0,0:0:0:0:
356,232,50292,6,0,P|417:216|474:245,1,130,2|2,0:3|0:3,0:0:0:0:
400,352,51335,1,2,0:3:0:0:
272,344,51857,2,0,L|207:350,1,65,2|0,0:3|0:0,0:0:0:0:
176,316,52378,2,0,L|46:328,1,130,2|2,0:3|0:3,0:0:0:0:
6,305,53161,2,0,P|-11:242|10:182,1,130
44,152,53944,2,0,P|60:89|39:29,2,130,2|2|2,0:3|0:3|0:3,0:0:0:0:
144,236,55509,1,2,0:3:0:0:
276,224,56031,1,2,0:3:0:0:
364,128,56552,6,0,P|398:182|401:246,1,130,2|2,0:3|0:3,0:0:0:0:
368,280,57335,2,0,P|304:272|249:305,1,130
232,348,58118,1,2,0:3:0:0:
104,328,58639,1,2,0:3:0:0:
52,208,59161,1,2,0:3:0:0:
124,100,59683,1,2,0:3:0:0:
164,120,59944,2,0,L|228:112,1,65,0|2,0:0|0:3,0:0:0:0:
272,108,60465,6,0,P|331:129|361:185,2,130,0|0|0,0:0|0:0|0:0,0:0:0:0:
168,188,62031,2,0,L|104:180,1,65,0|2,0:0|0:3,0:0:0:0:
56,180,62552,2,0,P|54:243|7:295,2,130,0|0|0,0:0|0:0|0:0,0:0:0:0:
96,56,64118,2,0,L|160:45,1,65,0|2,0:0|0:3,0:0:0:0:
200,68,64639,6,0,P|259:44|322:56,2,130
172,196,66205,2,0,L|180:280,2,65,0|2|0,0:0|0:3|0:0,0:0:0:0:
200,160,66987,1,2,0:3:0:0:
328,156,67509,1,2,0:3:0:0:
388,272,68031,1,0,1:0:0:0:
268,220,68552,1,2,0:3:0:0:
272,88,69074,6,0,P|333:68|392:91,1,130,2|2,0:3|0:3,0:0:0:0:
418,129,69857,2,0,P|405:191|354:230,1,130,0|0,0:0|0:0,0:0:0:0:
309,234,70639,2,0,P|261:191|252:128,1,130,2|2,0:3|0:3,0:0:0:0:
168,28,71683,1,2,0:3:0:0:
88,136,72205,2,0,L|16:140,2,65,0|0|2,1:0|0:0|0:3,0:0:0:0:
204,192,73248,6,0,P|224:228|208:316,1,130,2|2,0:3|0:3,0:0:0:0:
188,352,74031,2,0,P|224:332|312:348,1,130,0|0,0:0|0:0,0:0:0:0:
344,372,74813,2,0,P|324:336|340:248,1,130,2|2,0:3|0:3,0:0:0:0:
424,156,75857,1,2,0:3:0:0:
464,280,76378,1,0,1:0:0:0:
337,251,76900,1,2,0:3:0:0:
296,128,77422,5,12,0:3:0:0:
384,32,77944,1,0,0:0:0:0:
356,68,78205,2,0,L|216:72,1,130
200,108,78987,1,0,0:0:0:0:
144,224,79509,1,8,0:3:0:0:
228,324,80031,1,8,0:3:0:0:
268,300,80292,2,0,P|331:290|389:325,1,130,0|0,0:0|0:0,0:0:0:0:
404,364,81074,1,0,0:0:0:0:
496,272,81596,5,8,0:3:0:0:
388,200,82118,1,0,0:0:0:0:
412,164,82378,2,0,L|396:32,1,130
360,8,83161,1,0,0:0:0:0:
280,112,83683,1,8,0:3:0:0:
152,128,84205,1,8,0:3:0:0:
40,64,84726,2,0,L|21:126,2,65,8|0|0,0:0|0:0|0:0,0:0:0:0:
152,128,85770,6,0,L|180:254,1,130,8|0,0:3|0:0,0:0:0:0:
144,280,86552,2,0,L|268:319,1,130,0|0,0:0|0:0,0:0:0:0:
280,364,87335,2,0,L|375:276,1,130,0|8,0:0|0:3,0:0:0:0:
468,188,88378,1,8,0:3:0:0:
348,144,88900,2,0,L|323:83,2,65,8|0|0,0:0|0:0|0:0,0:0:0:0:
220,156,89944,6,0,P|186:168|138:258,1,130,8|0,0:3|0:0,0:0:0:0:
112,280,90726,2,0,P|118:244|64:157,1,130,0|0,0:0|0:0,0:0:0:0:
56,124,91509,2,0,P|83:147|185:143,1,130,0|8,0:0|0:3,0:0:0:0:
292,96,92552,1,8,0:3:0:0:
420,68,93074,1,8,0:0:0:0:
480,184,93596,2,0,L|472:260,1,65,0|8,0:0|0:3,0:0:0:0:
444,284,94118,5,12,0:3:0:0:
400,268,94378,2,0,L|296:284,1,97.5,2|0,0:0|0:0,0:0:0:0:
220,232,95161,2,0,L|123:217,2,97.5,2|0|2,0:0|0:0|0:0,0:0:0:0:
260,208,96205,2,0,P|239:148|267:91,1,130
304,64,96987,1,0,0:0:0:0:
348,68,97248,2,0,L|444:82,2,97.5,2|2|2,0:0|0:0|0:0,0:0:0:0:
224,104,98552,5,0,0:0:0:0:
180,116,98813,2,0,L|115:106,1,65,2|0,0:0|0:0,0:0:0:0:
72,104,99335,2,0,P|88:149|89:198,2,97.5,2|0|2,0:0|0:0|0:0,0:0:0:0:
40,72,100378,1,0,0:0:0:0:
160,24,100900,1,0,0:0:0:0:
216,140,101422,2,0,L|208:237,2,97.5,2|2|2,0:0|0:0|0:0,0:0:0:0:
256,116,102465,1,0,0:0:0:0:
296,140,102726,6,0,P|343:148|391:137,1,97.5,2|0,0:0|0:0,0:0:0:0:
460,68,103509,2,0,P|483:110|484:158,2,97.5,2|0|2,0:0|0:0|0:0,0:0:0:0:
420,48,104552,1,0,0:0:0:0:
292,32,105074,1,0,0:0:0:0:
236,148,105596,2,0,L|140:166,2,97.5,2|2|2,0:0|0:0|0:0,0:0:0:0:
276,168,106639,6,0,L|340:178,1,65,0|2,0:0|0:0,0:0:0:0:
468,204,107422,1,0,0:0:0:0:
428,228,107683,2,0,P|407:271|408:319,2,97.5,2|0|2,0:0|0:0|0:0,0:0:0:0:
304,272,108987,1,2,0:0:0:0:
248,156,109509,1,2,0:0:0:0:
228,116,109770,2,0,L|242:19,2,97.5,2|2|2,0:0|0:0|0:0,0:0:0:0:
248,156,110813,5,0,0:0:0:0:
227,196,111074,2,0,P|188:225|140:230,1,97.5,2|0,0:0|0:0,0:0:0:0:
68,164,111857,2,0,L|54:67,2,97.5,2|0|2,1:2|0:0|0:0,0:0:0:0:
108,184,112900,2,0,P|140:228|68:336,1,195
116,360,113944,2,0,L|220:352,2,97.5,2|2|2,1:2|0:0|0:0,0:0:0:0:
208,268,115248,5,0,0:0:0:0:
220,224,115509,2,0,L|206:160,1,65,2|0,0:0|0:0,0:0:0:0:
196,116,116031,2,0,L|292:144,2,97.5,2|0|2,1:2|0:0|0:0,0:0:0:0:
184,72,117074,1,0,0:0:0:0:
76,144,117596,1,0,0:0:0:0:
88,188,117857,1,0,0:0:0:0:
100,232,118118,2,0,L|87:328,2,97.5,2|2|2,1:2|0:0|0:0,0:0:0:0:
208,156,119422,5,2,0:0:0:0:
312,232,119944,1,0,0:0:0:0:
352,256,120205,2,0,P|398:268|448:260,2,97.5,2|0|2,1:2|0:0|0:0,0:0:0:0:
404,136,121509,1,0,0:0:0:0:
384,96,121770,2,0,L|388:32,1,65
344,44,122292,2,0,L|246:37,2,97.5,2|2|2,1:2|0:0|0:0,0:0:0:0:
296,164,123596,5,2,0:0:0:0:
336,288,124118,1,0,0:0:0:0:
380,300,124378,2,0,P|421:325|445:366,2,97.5,2|0|2,1:2|0:0|0:0,0:0:0:0:
252,308,125683,1,2,0:0:0:0:
132,256,126205,1,2,0:0:0:0:
148,216,126465,1,0,1:0:0:0:
144,172,126726,2,0,L|132:104,1,65,2|0,0:0|0:0,0:0:0:0:
152,68,127248,1,8,0:3:0:0:
192,44,127509,6,0,P|248:32|312:68,1,130,12|0,0:3|0:0,0:0:0:0:
336,100,128292,2,0,P|392:112|456:76,1,130
472,36,129074,1,0,0:0:0:0:
496,76,129335,2,0,L|504:208,2,130,8|0|0,0:3|0:0|0:0,0:0:0:0:
384,12,130900,1,0,0:0:0:0:
340,28,131161,1,0,0:0:0:0:
296,36,131422,6,0,L|166:21,1,130,8|0,0:3|0:0,0:0:0:0:
92,128,132465,2,0,L|221:142,1,130
252,176,133248,2,0,L|316:169,1,65,0|8,0:0|0:3,0:0:0:0:
364,164,133770,2,0,P|399:216|390:279,1,130,8|8,0:3|0:3,0:0:0:0:
280,348,134813,1,8,0:0:0:0:
168,284,135335,1,0,0:0:0:0:
48,336,135857,6,0,L|29:207,1,130,8|0,0:3|0:0,0:0:0:0:
32,160,136639,2,0,P|75:112|140:104,1,130
180,124,137422,2,0,B|244:132|244:132|302:102,1,130,0|8,0:0|0:3,0:0:0:0:
412,32,138465,1,8,0:3:0:0:
380,160,138987,1,8,0:0:0:0:
468,256,139509,1,0,0:0:0:0:
340,244,140031,6,0,P|276:253|226:293,1,130,8|0,0:3|0:0,0:0:0:0:
208,336,140813,2,0,L|196:188,1,130
184,164,141596,2,0,B|124:140|124:140|60:155,1,130,0|8,0:0|0:3,0:0:0:0:
32,284,142639,1,8,0:3:0:0:
136,360,143161,1,8,0:0:0:0:
176,336,143422,2,0,L|240:332,1,65
276,304,143944,1,8,0:3:0:0:
316,280,144205,6,0,L|445:273,1,130,8|0,0:3|0:0,0:0:0:0:
492,268,144987,2,0,P|448:220|440:156,1,130
454,114,145770,1,0,0:0:0:0:
439,70,146031,2,0,P|383:37|319:45,2,130,8|0|0,0:3|0:0|0:0,0:0:0:0:
356,172,147596,2,0,L|336:240,1,65
312,272,148118,6,0,P|272:292|192:264,1,130,8|0,0:3|0:0,0:0:0:0:
160,140,149161,2,0,P|103:67|13:88,1,195
0,132,150205,1,8,0:3:0:0:
0,176,150465,2,0,L|24:312,1,130,8|8,0:3|0:3,0:0:0:0:
144,252,151509,1,8,0:0:0:0:
256,320,152031,1,0,0:0:0:0:
364,248,152552,6,0,P|420:248|480:296,1,130,8|0,0:3|0:0,0:0:0:0:
492,336,153335,2,0,L|492:200,1,130
464,172,154118,2,0,B|444:132|444:132|451:45,1,130,0|8,0:0|0:3,0:0:0:0:
324,20,155161,1,8,0:3:0:0:
212,84,155683,1,8,0:0:0:0:
88,48,156205,1,0,0:0:0:0:
44,168,156726,6,0,L|61:296,1,130,8|0,0:3|0:0,0:0:0:0:
92,328,157509,2,0,P|154:340|213:314,1,130
248,284,158292,2,0,B|313:278|313:278|370:306,1,130,0|8,0:0|0:3,0:0:0:0:
484,368,159335,1,8,0:3:0:0:
432,248,159857,1,8,0:0:0:0:
500,140,160378,2,0,L|512:72,1,65,0|8,0:0|0:3,0:0:0:0:
500,32,160900,5,12,0:3:0:0:
372,28,161422,1,0,0:0:0:0:
332,52,161683,2,0,L|200:40,1,130
156,36,162465,1,0,0:0:0:0:
76,140,162987,1,8,0:3:0:0:
128,260,163509,1,8,0:3:0:0:
164,232,163770,2,0,L|296:220,1,130
340,216,164552,1,0,0:0:0:0:
420,320,165074,5,8,0:3:0:0:
432,192,165596,1,0,0:0:0:0:
407,151,165857,2,0,P|350:124|288:138,1,130
256,172,166639,1,0,0:0:0:0:
244,300,167161,1,8,0:3:0:0:
160,200,167683,1,8,0:3:0:0:
168,72,168205,2,0,L|204:16,2,65,8|0|0,0:0|0:0|0:0,0:0:0:0:
52,128,169248,6,0,L|69:256,1,130,8|0,0:3|0:0,0:0:0:0:
76,300,170031,2,0,B|136:276|136:276|199:291,1,130
244,304,170813,2,0,P|306:293|342:240,1,130,0|8,0:0|0:3,0:0:0:0:
340,112,171857,1,8,0:3:0:0:
228,176,172378,1,8,0:0:0:0:
342,240,172900,1,0,0:0:0:0:
452,172,173422,6,0,L|432:24,1,130,8|0,0:3|0:0,0:0:0:0:
400,72,174205,2,0,P|341:96|279:78,1,130
244,48,174987,2,0,L|115:64,1,130,0|8,0:0|0:3,0:0:0:0:
52,180,176031,1,8,0:3:0:0:
120,288,176552,1,8,0:0:0:0:
248,304,177074,2,0,L|316:288,2,65,0|8|8,0:0|0:3|0:3,0:0:0:0:
200,184,178118,5,0,0:0:0:0:
276,80,178639,1,0,0:0:0:0:
372,168,179161,2,0,L|435:182,1,65,0|8,0:0|0:3,0:0:0:0:
480,196,179683,1,8,0:3:0:0:
192,116,185944,5,12,0:3:0:0:
244,236,186465,1,0,0:0:0:0:
288,240,186726,1,0,0:0:0:0:
332,248,186987,2,0,B|369:247|389:258|432:256,2,97.5,0|0|8,1:0|0:0|0:3,0:0:0:0:
284,128,188292,1,0,0:0:0:0:
167,184,188813,2,0,P|152:245|181:302,2,130,8|0|0,0:3|0:0|0:0,0:0:0:0:
200,152,190118,5,8,0:3:0:0:
168,28,190639,1,0,0:0:0:0:
128,48,190900,1,0,0:0:0:0:
88,68,191161,2,0,L|36:152,2,97.5,0|0|8,1:0|0:0|0:3,0:0:0:0:
212,28,192465,2,0,P|273:44|306:98,1,130,0|8,0:0|0:3,0:0:0:0:
324,140,193248,2,0,P|369:155|416:146,2,97.5,0|0|0,1:0|0:0|1:0,0:0:0:0:
306,98,194292,5,8,0:3:0:0:
192,156,194813,1,0,0:0:0:0:
204,200,195074,1,0,0:0:0:0:
216,244,195335,2,0,L|205:340,2,97.5,0|0|8,1:0|0:0|0:3,0:0:0:0:
340,212,196639,2,0,L|329:115,2,97.5,0|0|0,0:0|0:0|1:0,0:0:0:0:
468,244,197944,2,0,L|461:179,1,65,0|0,0:0|0:0,0:0:0:0:
439,139,198465,6,0,L|445:74,2,65,8|0|0,0:3|0:0|0:0,0:0:0:0:
312,112,199509,2,0,P|264:113|220:140,2,97.5,0|0|8,1:0|0:0|0:3,0:0:0:0:
331,152,200552,2,0,P|319:214|350:270,1,130,8|0,0:3|0:0,0:0:0:0:
472,312,201596,1,0,1:0:0:0:
508,188,202118,1,0,0:0:0:0:
448,72,202639,6,0,P|388:53|328:74,1,130,8|0,0:3|0:0,0:0:0:0:
293,105,203422,2,0,L|225:101,1,65,8|0,0:3|1:0,0:0:0:0:
197,69,203944,2,0,L|221:197,1,130,0|0,0:0|1:0,0:0:0:0:
233,241,204726,1,12,0:3:0:0:
136,296,220639,6,0,L|176:232,1,65
196,204,221161,2,0,L|180:72,2,130
272,308,222726,2,0,L|336:311,1,65,0|2,0:0|0:3,0:0:0:0:
384,312,223248,2,0,B|419:300|448:312|448:312|477:327|510:319,2,130,0|0|0,0:0|0:0|0:0,0:0:0:0:
288,224,224813,2,0,P|280:192|279:160,1,65,0|2,0:0|0:3,0:0:0:0:
280,116,225335,6,0,P|230:74|167:68,2,130,0|0|0,0:0|0:0|0:0,0:0:0:0:
184,204,226900,1,0,0:0:0:0:
196,248,227161,2,0,L|180:336,1,65,2|0,0:3|0:0,0:0:0:0:
176,356,227683,2,0,P|236:335|299:347,1,130,2|2,0:3|0:3,0:0:0:0:
428,332,228726,1,0,1:0:0:0:
452,204,229248,1,2,0:3:0:0:
404,84,229770,6,0,B|344:108|344:108|278:99,1,130,2|2,0:3|0:3,0:0:0:0:
236,92,230552,2,0,P|186:131|181:194,1,130
184,240,231335,2,0,L|32:212,1,130,2|2,0:3|0:3,0:0:0:0:
32,88,232378,1,2,0:3:0:0:
148,24,232900,1,0,1:0:0:0:
272,68,233422,1,2,0:3:0:0:
324,188,233944,6,0,L|295:314,1,130,2|2,0:3|0:3,0:0:0:0:
284,360,234726,2,0,B|348:344|348:344|409:362,1,130
456,368,235509,2,0,P|439:306|464:248,1,130,2|2,0:3|0:3,0:0:0:0:
488,120,236552,1,2,0:3:0:0:
392,32,237074,1,0,1:0:0:0:
272,84,237596,2,0,L|192:68,1,65,0|8,0:0|0:3,0:0:0:0:
164,64,238118,5,12,0:3:0:0:
84,168,238639,1,0,0:0:0:0:
108,204,238900,2,0,B|128:264|128:264|106:327,1,130
84,368,239683,1,0,0:0:0:0:
208,324,240205,1,8,0:3:0:0:
332,364,240726,1,8,0:3:0:0:
368,336,240987,2,0,L|386:207,1,130
424,180,241770,1,0,0:0:0:0:
472,60,242292,5,8,0:3:0:0:
352,108,242813,1,0,0:0:0:0:
320,76,243074,2,0,P|259:55|197:72,1,130
168,108,243857,1,0,0:0:0:0:
260,200,244378,1,8,0:3:0:0:
388,188,244900,1,8,0:3:0:0:
464,84,245422,2,0,L|472:4,2,65,8|0|0,0:0|0:0|0:0,0:0:0:0:
388,188,246465,6,0,P|384:228|428:304,1,130,8|0,0:3|0:0,0:0:0:0:
456,340,247248,2,0,P|423:316|335:316,1,130,0|0,0:0|0:0,0:0:0:0:
300,340,248031,2,0,P|236:347|180:316,1,130,0|8,0:0|0:3,0:0:0:0:
144,192,249074,1,8,0:3:0:0:
244,108,249596,2,0,L|256:28,2,65,8|0|0,0:0|0:0|0:0,0:0:0:0:
160,208,250639,6,0,P|102:235|39:224,1,130,8|0,0:3|0:0,0:0:0:0:
5,192,251422,2,0,L|21:328,1,130
60,343,252205,2,0,B|124:363|124:363|185:351,1,130,0|8,0:0|0:3,0:0:0:0:
308,308,253248,1,8,0:3:0:0:
348,184,253770,1,8,0:0:0:0:
472,228,254292,2,0,L|484:300,1,65,0|8,0:0|0:3,0:0:0:0:
492,336,254813,5,12,0:3:0:0:
256,192,255074,12,0,258987,0:0:0:0:
