osu file format v14

[General]
AudioFilename: audio.mp3
AudioLeadIn: 0
PreviewTime: 42821
Countdown: 0
SampleSet: Soft
StackLeniency: 0.3
Mode: 0
LetterboxInBreaks: 0
EpilepsyWarning: 1
WidescreenStoryboard: 1

[Editor]
Bookmarks: 11487,54154,59487,62154
DistanceSpacing: 1.8
BeatDivisor: 4
GridSize: 4
TimelineZoom: 1

[Metadata]
Title:My Everything
TitleUnicode:My Everything
Artist:Owl City
ArtistUnicode:Owl City
Creator:KittyAdventure
Version:Hallelujah!
Source:
Tags:Adam Young Mobile Orchestra Republic Electropop synthpop EDM gokugohan12468 HootOwlStar BoatKrab Exile- Down cut short version
BeatmapID:951289
BeatmapSetID:442327

[Difficulty]
HPDrainRate:5
CircleSize:4
OverallDifficulty:6
ApproachRate:7
SliderMultiplier:1.8
SliderTickRate:2

[Events]
//Background and Video events
0,0,"BG.jpg",0,0
//Break Periods
//Storyboard Layer 0 (Background)
//Storyboard Layer 1 (Fail)
//Storyboard Layer 2 (Pass)
//Storyboard Layer 3 (Foreground)
//Storyboard Sound Samples

[TimingPoints]
821,666.666666666667,4,2,1,40,1,0
32821,-100,4,2,1,50,0,0
40821,-133.333333333333,4,2,1,50,0,0
41987,-100,4,2,1,50,0,0
43487,-100,4,2,2,60,0,1
64821,-100,4,2,1,25,0,0
68487,-100,4,2,1,15,0,0

[Colours]
Combo1 : 252,212,150
Combo2 : 0,255,255
Combo3 : 18,124,255
Combo4 : 0,128,192
Combo5 : 0,64,128
Combo6 : 51,86,114
Combo7 : 58,94,71

[HitObjects]
476,64,11487,6,0,P|420:44|352:96,1,135,2|0,0:0|0:0,0:0:0:0:
424,124,12154,2,0,L|424:232,1,90,8|0,0:0|0:0,0:0:0:0:
424,214,13487,1,8,0:0:0:0:
276,284,13821,2,0,P|248:292|196:284,1,45,2|0,0:0|0:0,0:0:0:0:
160,332,14154,6,0,P|152:284|172:236,1,90,2|0,0:0|0:0,0:0:0:0:
220,188,14654,1,0,0:0:0:0:
300,172,14821,2,0,B|368:172|368:172|412:184,1,90,8|0,0:0|0:0,0:0:0:0:
389,177,15821,1,0,0:0:0:0:
249,238,16154,2,0,L|249:342,1,90,8|0,0:0|0:0,0:0:0:0:
181,190,16821,6,0,P|253:154|325:206,1,135,2|0,0:0|0:0,0:0:0:0:
371,129,17487,2,0,P|363:73|375:33,1,90,8|0,0:0|0:0,0:0:0:0:
374,211,18154,2,0,P|314:191|294:159,1,90
240,120,18654,1,0,0:0:0:0:
240,120,18821,2,0,L|112:120,1,90,8|0,0:0|0:0,0:0:0:0:
16,28,19487,6,0,B|-4:88|16:132|16:132|8:160|8:160|24:188|12:240,1,180,2|8,0:0|0:0,0:0:0:0:
100,344,20487,1,0,0:0:0:0:
484,44,21487,1,8,0:0:0:0:
324,20,21821,1,0,0:0:0:0:
196,120,22154,54,0,L|184:232,1,90,2|0,0:0|0:0,0:0:0:0:
124,260,22654,1,0,0:0:0:0:
124,260,22821,2,0,P|156:284|232:272,1,90,8|0,0:0|0:0,0:0:0:0:
204,286,24154,1,8,0:0:0:0:
356,232,24487,2,0,L|360:176,1,45
440,192,24821,6,0,L|432:100,1,90,2|0,0:0|0:0,0:0:0:0:
468,24,25321,1,0,0:0:0:0:
468,24,25487,2,0,L|372:32,1,90,8|0,0:0|0:0,0:0:0:0:
56,28,26487,1,0,0:0:0:0:
4,180,26821,1,8,0:0:0:0:
164,216,27154,1,0,0:0:0:0:
208,60,27487,6,0,B|316:52|316:52|284:80,1,135,2|0,0:0|0:0,0:0:0:0:
295,69,28154,2,0,P|344:76|384:116,1,90,8|0,0:0|0:0,0:0:0:0:
456,240,28821,2,0,L|460:352,1,90,2|0,0:0|0:0,0:0:0:0:
376,360,29321,1,0,0:0:0:0:
376,360,29487,2,0,L|379:270,1,90,8|0,0:0|0:0,0:0:0:0:
248,176,30154,6,0,P|192:152|180:240,1,135,2|0,0:0|0:0,0:0:0:0:
156,288,30821,2,0,P|108:272|80:232,1,90,8|0,0:0|0:0,0:0:0:0:
496,32,32154,1,8,0:0:0:0:
496,32,32821,54,0,L|488:176,1,135,2|0,0:0|0:0,0:0:0:0:
432,224,33487,2,0,P|372:228|328:208,1,90,8|0,0:0|0:0,0:0:0:0:
184,200,34154,2,0,B|188:252|188:252|180:300,1,90,2|0,0:0|0:0,0:0:0:0:
120,140,34821,1,8,0:0:0:0:
120,140,34987,2,0,P|180:116|228:128,1,90
260,60,35487,6,0,P|299:81|343:81,1,90,2|0,0:0|0:0,0:0:0:0:
416,48,35987,1,0,0:0:0:0:
416,48,36154,1,8,0:0:0:0:
512,180,36487,2,0,B|488:232|508:272|508:272|528:312|496:376,1,180
432,308,37321,1,0,0:0:0:0:
432,308,37487,2,0,P|416:248|420:200,1,90,8|0,0:0|0:0,0:0:0:0:
288,120,38154,5,2,0:0:0:0:
272,200,38321,1,0,0:0:0:0:
200,236,38487,1,0,0:0:0:0:
200,236,38654,2,0,L|144:236,1,45,0|8,0:0|0:0,0:0:0:0:
24,148,39154,1,0,0:0:0:0:
168,96,39487,2,0,P|224:108|268:92,1,90,2|0,0:0|0:0,0:0:0:0:
320,148,39987,1,0,0:0:0:0:
320,148,40154,2,0,L|320:248,1,90,8|0,0:0|0:0,0:0:0:0:
228,320,40821,6,0,B|192:332|192:332|148:324|148:324|124:340|80:332,1,135.000005149842,2|8,0:0|0:0,0:0:0:0:
0,240,41821,1,2,0:0:0:0:
20,160,41987,1,0,0:0:0:0:
100,140,42154,1,2,0:0:0:0:
168,184,42321,2,0,P|196:180|228:188,1,45,8|2,0:0|0:0,0:0:0:0:
256,32,42821,53,8,0:0:0:0:
444,136,43154,1,2,0:0:0:0:
464,220,43321,1,2,0:0:0:0:
396,288,43487,54,0,P|352:296|268:248,1,135,6|0,0:0|0:0,0:0:0:0:
204,300,44154,2,0,P|192:252|212:204,1,90,8|0,0:0|0:0,0:0:0:0:
308,76,44821,1,2,0:0:0:0:
152,32,45154,2,0,L|108:28,1,45
44,80,45487,2,0,P|24:124|32:180,1,90,8|0,0:0|0:0,0:0:0:0:
188,192,46154,6,0,P|200:240|244:280,1,90,2|0,0:0|0:0,0:0:0:0:
316,276,46654,1,0,0:0:0:0:
316,276,46821,2,0,P|344:241|354:198,1,90,8|0,0:0|0:0,0:0:0:0:
456,80,47487,1,2,0:0:0:0:
348,20,47821,1,0,0:0:0:0:
236,72,48154,2,0,L|136:72,1,90,8|0,0:0|0:0,0:0:0:0:
64,32,48654,1,0,0:0:0:0:
64,32,48821,6,0,L|64:132,1,90,6|0,0:0|0:0,0:0:0:0:
20,192,49321,1,0,0:0:0:0:
20,192,49487,2,0,P|76:204|128:176,1,90,8|0,0:0|0:0,0:0:0:0:
252,124,50154,1,2,0:0:0:0:
224,284,50487,2,0,L|224:352,1,45
304,296,50821,2,0,P|296:240|256:200,1,90,8|0,0:0|0:0,0:0:0:0:
160,100,51487,70,0,P|232:116|304:92,1,135,2|0,0:0|0:0,0:0:0:0:
360,140,52154,2,0,P|352:192|364:236,1,90,8|0,0:0|0:0,0:0:0:0:
348,308,52654,1,0,0:0:0:0:
280,352,52821,1,2,0:0:0:0:
224,296,52987,2,0,L|172:296,1,45,8|2,0:0|0:0,0:0:0:0:
36,288,53487,2,0,L|36:180,1,90,8|0,0:0|0:0,0:0:0:0:
116,140,53987,1,0,0:0:0:0:
116,140,54154,6,0,P|123:95|68:32,1,135,6|0,0:0|0:0,0:0:0:0:
36,108,54821,2,0,L|36:204,1,90,8|0,0:0|0:0,0:0:0:0:
156,308,55487,1,2,0:0:0:0:
272,196,55821,1,0,0:0:0:0:
396,300,56154,2,0,B|452:300|452:300|488:284,1,90,8|0,0:0|0:0,0:0:0:0:
440,216,56654,1,0,0:0:0:0:
440,216,56821,6,0,B|352:216|352:216|296:240,1,135,6|0,0:0|0:0,0:0:0:0:
236,200,57487,2,0,B|236:144|236:144|224:96,1,90,8|0,0:0|0:0,0:0:0:0:
88,192,58154,1,2,0:0:0:0:
172,328,58487,1,0,0:0:0:0:
308,240,58821,2,0,P|352:248|412:224,1,90,8|0,0:0|0:0,0:0:0:0:
248,180,59321,1,0,0:0:0:0:
248,180,59487,70,0,P|224:232|256:312,1,135,6|0,0:0|0:0,0:0:0:0:
172,344,60154,2,0,B|112:344|112:344|72:356,1,90,8|0,0:0|0:0,0:0:0:0:
0,212,60821,1,2,0:0:0:0:
120,104,61154,1,0,0:0:0:0:
280,116,61487,2,0,P|344:140|400:124,1,90,8|0,0:0|0:0,0:0:0:0:
444,84,61987,1,0,0:0:0:0:
444,84,62154,6,0,L|444:236,1,135,6|0,0:0|0:0,0:0:0:0:
376,264,62821,2,0,B|336:252|336:252|280:264,1,90,8|0,0:0|0:0,0:0:0:0:
144,336,63487,1,2,0:0:0:0:
80,284,63654,2,0,P|76:256|88:220,1,45,8|2,0:0|0:0,0:0:0:0:
176,108,64154,2,0,P|224:116|272:96,1,90,8|0,0:0|0:0,0:0:0:0:
332,60,64654,1,0,0:0:0:0:
332,60,64821,21,2,0:0:0:0:
440,204,65154,1,0,0:0:0:0:
440,204,65321,2,0,L|431:248,1,45,0|8,0:0|0:0,0:0:0:0:
220,360,65821,1,0,0:0:0:0:
220,360,66821,1,8,0:0:0:0:
84,248,67154,2,0,L|72:184,1,45
168,192,67487,6,0,L|160:304,1,90,2|0,0:0|0:0,0:0:0:0:
252,316,67987,1,0,0:0:0:0:
252,316,68154,2,0,L|245:226,1,90,8|0,0:0|0:0,0:0:0:0:
