osu file format v14

[General]
AudioFilename: Owl City - Galaxies (Gens) [Music].mp3
AudioLeadIn: 0
PreviewTime: 47962
Countdown: 0
SampleSet: None
StackLeniency: 0.7
Mode: 0
LetterboxInBreaks: 0
WidescreenStoryboard: 0

[Editor]
Bookmarks: 32087,48087,64087,80087,96087,112587,128087,144087,172087,180087,196087
DistanceSpacing: 0.8
BeatDivisor: 4
GridSize: 4
TimelineZoom: 1

[Metadata]
Title:Galaxies
TitleUnicode:Galaxies
Artist:Owl City
ArtistUnicode:Owl City
Creator:Gens
Version:Hard
Source:
Tags:
BeatmapID:1774454
BeatmapSetID:848580

[Difficulty]
HPDrainRate:6
CircleSize:4
OverallDifficulty:7
ApproachRate:8
SliderMultiplier:2.7
SliderTickRate:1

[Events]
//Background and Video events
0,0,"Owl City - Galaxies (Gens) [Background].png",0,0
//Break Periods
2,80412,95462
2,128412,143212
2,172412,178462
//Storyboard Layer 0 (Background)
//Storyboard Layer 1 (Fail)
//Storyboard Layer 2 (Pass)
//Storyboard Layer 3 (Foreground)
//Storyboard Sound Samples

[TimingPoints]
16212,500,4,1,0,70,1,0
48212,-100,4,1,0,75,0,0
64212,-100,4,1,0,75,0,1
64213,-100,4,1,0,75,0,0
80212,-100,4,1,0,70,0,1
80213,-100,4,1,0,70,0,0
112212,-100,4,1,0,75,0,0
128212,-100,4,1,0,75,0,1
128213,-100,4,1,0,75,0,0
143962,-100,4,1,0,70,0,0
164212,-100,4,1,0,50,0,0
168212,-100,4,1,0,70,0,0
180212,-100,4,1,0,75,0,0
196212,-100,4,1,0,75,0,1
196213,-100,4,1,0,75,0,0

[HitObjects]
8,51,32212,6,0,B|128:3|80:99|200:51,1,202.5,4|8,0:0|0:0,0:0:0:0:
200,51,32962,1,0,0:0:0:0:
336,32,33212,2,0,P|440:42|357:107,1,270,2|2,0:0|0:0,0:0:0:0:
200,333,34212,6,0,B|80:285|128:381|8:333,2,202.5,4|8|0,0:0|0:0|0:0,0:0:0:0:
328,276,35212,2,0,P|411:340|306:351,2,270,2|6|0,0:0|0:0|0:0,0:0:0:0:
192,244,36462,6,2,B|92:200|196:56|96:12,1,270
8,120,37212,1,4,0:0:0:0:
120,200,37462,1,0,0:0:0:0:
244,136,37712,1,0,0:0:0:0:
368,72,37962,2,0,P|534:133|444:287,1,405,12|0,0:0|0:0,0:0:0:0:
444,288,39212,1,0,0:0:0:0:
444,288,39712,1,0,0:0:0:0:
140,364,40212,6,0,P|60:306|43:208,2,202.5,4|8|0,0:0|0:0|0:0,0:0:0:0:
176,232,41212,2,0,B|232:200|256:127|256:127|280:200|336:232,1,270,2|2,0:0|0:0,0:0:0:0:
72,104,42212,5,4,0:0:0:0:
256,8,42587,1,8,0:0:0:0:
440,104,42962,1,0,0:0:0:0:
336,192,43212,2,0,B|280:160|256:87|256:87|232:160|176:192,2,270,2|6|0,0:0|0:0|0:0,0:0:0:0:
440,104,44462,5,0,0:0:0:0:
444,240,44712,1,4,0:0:0:0:
324,304,44962,1,0,0:0:0:0:
188,304,45212,2,0,P|132:272|108:208,1,135,12|0,0:0|0:0,0:0:0:0:
68,76,45712,1,0,0:0:0:0:
196,20,45962,2,0,B|412:28|276:236|492:244,1,405,6|0,0:0|0:0,0:0:0:0:
256,192,46962,8,4,48212,0:0:0:0:
460,160,48712,6,8,P|419:41|294:53,2,270,2|6|8,0:0|0:0|0:0,0:0:0:0:
380,272,49962,5,0,0:0:0:0:
255,316,50212,2,0,P|189:306|132:272,1,135,6|0,0:0|0:0,0:0:0:0:
52,160,50712,2,8,P|92:41|217:53,2,270,8|6|8,0:0|0:0|0:0,0:0:0:0:
132,272,51962,5,0,0:0:0:0:
256,316,52212,2,0,P|322:306|379:272,1,135,6|0,0:0|0:0,0:0:0:0:
460,160,52712,2,8,P|419:41|294:53,2,270,8|6|8,0:0|0:0|0:0,0:0:0:0:
380,272,53962,5,0,0:0:0:0:
255,316,54212,1,4,0:0:0:0:
156,96,54712,2,0,P|256:20|356:96,3,270,10|6|8|4,0:0|0:0|0:0|0:0,0:0:0:0:
48,48,56712,5,10,0:0:0:0:
512,0,57212,2,0,B|384:56|480:144|352:200,1,270,6|8,0:0|0:0,0:0:0:0:
216,176,57962,5,0,0:0:0:0:
88,228,58212,2,0,P|52:284|72:344,1,135,4|0,0:0|0:0,0:0:0:0:
212,336,58712,2,0,B|388:272|292:400|468:336,2,270,10|6|8,0:0|0:0|0:0,0:0:0:0:
160,208,59962,5,0,0:0:0:0:
295,183,60212,2,0,P|361:187|403:137,1,135,6|0,0:0|0:0,0:0:0:0:
300,48,60712,2,0,B|124:112|220:-16|44:48,1,270,8|6,0:0|0:0,0:0:0:0:
72,184,61462,1,0,0:0:0:0:
196,244,61712,1,4,0:0:0:0:
224,381,61962,1,0,0:0:0:0:
256,192,62212,12,2,63212,0:0:0:0:
56,48,63587,5,0,0:0:0:0:
56,48,63962,2,0,B|224:44|144:116|312:112,1,270,4|0,0:0|0:0,0:0:0:0:
56,336,64962,2,0,B|224:340|144:268|312:272,1,270,2|0,0:0|0:0,0:0:0:0:
24,192,65962,5,0,0:0:0:0:
160,192,66212,1,4,0:0:0:0:
256,96,66462,1,2,0:0:0:0:
383,144,66712,2,0,P|470:218|367:269,1,270,6|2,0:0|0:0,0:0:0:0:
256,192,67462,2,0,L|200:136,1,67.5,0|8,0:0|0:0,0:0:0:0:
28,44,67962,6,0,P|0:170|94:258,2,270,6|0|2,0:0|0:0|0:0,0:0:0:0:
304,36,69462,2,0,B|447:26|179:323|432:332,1,405,12|0,0:0|0:0,0:0:0:0:
432,332,70712,5,0,0:0:0:0:
160,300,71212,2,0,P|104:184|184:83,1,270,8|0,0:0|0:0,0:0:0:0:
448,32,72212,5,6,0:0:0:0:
336,72,72462,2,0,L|264:88,1,67.5,0|2,0:0|0:0,0:0:0:0:
456,336,72962,2,0,B|288:340|368:268|200:272,1,270,2|8,0:0|0:0,0:0:0:0:
488,192,73962,5,0,0:0:0:0:
352,192,74212,1,4,0:0:0:0:
256,96,74462,1,2,0:0:0:0:
128,144,74712,2,0,P|41:218|144:269,1,270,6|2,0:0|0:0,0:0:0:0:
256,192,75462,2,0,L|312:136,1,67.5,0|8,0:0|0:0,0:0:0:0:
484,44,75962,6,0,P|511:170|417:258,2,270,6|0|2,0:0|0:0|0:0,0:0:0:0:
208,36,77462,2,0,B|64:26|333:323|80:332,1,405,12|0,0:0|0:0,0:0:0:0:
80,332,78712,5,0,0:0:0:0:
352,332,79212,1,2,0:0:0:0:
286,212,79462,2,0,L|256:152,1,67.5,0|2,0:0|0:0,0:0:0:0:
256,152,79962,1,0,0:0:0:0:
256,152,80212,1,4,0:0:0:0:
471,128,96212,6,0,P|443:35|350:6,2,202.5,4|8|0,0:0|0:0|0:0,0:0:0:0:
356,200,97212,2,0,L|111:314,1,270,2|2,0:0|0:0,0:0:0:0:
356,200,98212,5,4,0:0:0:0:
230,38,98587,1,8,0:0:0:0:
40,116,98962,1,0,0:0:0:0:
112,232,99212,2,0,L|356:346,2,270,2|6|0,0:0|0:0|0:0,0:0:0:0:
168,104,100462,6,0,B|280:136|312:64|256:24|200:64|232:136|344:104,1,270,4|0,0:0|0:0,0:0:0:0:
472,56,101212,1,8,0:0:0:0:
440,192,101462,1,0,0:0:0:0:
408,328,101712,1,0,0:0:0:0:
272,343,101962,2,0,P|109:243|143:56,1,405,6|8,0:0|0:0,0:0:0:0:
16,151,103212,2,2,P|36:283|125:382,1,270,2|0,0:0|0:0,0:0:0:0:
392,192,104212,6,0,L|494:15,2,202.5,4|8|0,0:0|0:0|0:0,0:0:0:0:
332,316,105212,2,0,B|300:371|300:371|175:299|175:299|143:354,1,270,2|2,0:0|0:0,0:0:0:0:
120,192,106212,6,0,L|18:368,2,202.5,4|8|0,0:0|0:0|0:0,0:0:0:0:
180,68,107212,2,0,B|212:12|212:12|392:116|392:116,2,270,2|6|0,0:0|0:0|0:0,0:0:0:0:
120,192,108462,5,0,0:0:0:0:
256,224,108712,1,4,0:0:0:0:
392,192,108962,1,0,0:0:0:0:
316,76,109212,2,0,P|256:49|196:76,2,135,8|0|0,0:0|0:0|0:0,0:0:0:0:
408,180,109962,2,0,P|256:292|104:180,1,405,6|0,0:0|0:0,0:0:0:0:
256,192,110962,12,4,112212,0:0:0:0:
356,376,112712,6,0,P|481:353|509:229,2,270,2|6|8,0:0|0:0|0:0,0:0:0:0:
224,336,113962,5,0,0:0:0:0:
320,240,114212,2,0,L|416:144,1,135,6|0,0:0|0:0,0:0:0:0:
424,8,114712,2,0,L|232:200,2,270,8|6|8,0:0|0:0|0:0,0:0:0:0:
392,140,115962,5,0,0:0:0:0:
256,76,116212,1,6,0:0:0:0:
120,140,116462,1,0,0:0:0:0:
88,8,116712,2,0,L|280:200,2,270,8|6|8,0:0|0:0|0:0,0:0:0:0:
60,144,117962,5,0,0:0:0:0:
32,280,118212,1,4,0:0:0:0:
479,280,118712,2,0,P|478:148|382:58,2,270,10|6|8,0:0|0:0|0:0,0:0:0:0:
256,128,120212,5,4,0:0:0:0:
380,328,120712,2,0,P|256:374|132:328,2,270,10|6|8,0:0|0:0|0:0,0:0:0:0:
392,192,121962,5,0,0:0:0:0:
256,192,122212,2,0,B|120:192,1,135,4|0,0:0|0:0,0:0:0:0:
132,56,122712,2,0,P|256:10|380:56,2,270,8|6|8,0:0|0:0|0:0,0:0:0:0:
120,192,123962,5,0,0:0:0:0:
256,192,124212,2,0,B|392:192,1,135,6|0,0:0|0:0,0:0:0:0:
380,328,124712,2,0,P|256:374|132:328,1,270,8|6,0:0|0:0,0:0:0:0:
256,268,125462,1,0,0:0:0:0:
380,208,125712,1,4,0:0:0:0:
504,148,125962,1,0,0:0:0:0:
256,192,126212,12,4,128212,0:0:0:0:
64,72,143962,5,8,0:0:0:0:
64,72,144212,2,0,B|180:120|140:24|256:72,1,202.5,4|0,0:0|0:0,0:0:0:0:
460,64,144962,2,0,P|420:168|276:192,1,270,2|2,0:0|0:0,0:0:0:0:
156,120,145712,5,8,0:0:0:0:
52,212,145962,2,0,P|92:316|236:340,1,270,4|2,0:0|0:0,0:0:0:0:
432,280,146837,1,8,0:0:0:0:
324,104,147212,2,0,L|188:104,2,135,2|0|2,0:0|0:0|0:0,0:0:0:0:
156,320,148212,5,4,0:0:0:0:
356,320,148587,1,8,0:0:0:0:
480,159,148962,2,0,P|424:43|296:31,1,270,2|0,0:0|0:0,0:0:0:0:
256,164,149712,5,8,0:0:0:0:
215,31,149962,2,0,P|87:43|32:159,1,270,4|8,0:0|0:0,0:0:0:0:
224,232,150837,1,0,0:0:0:0:
32,304,151212,2,0,L|168:304,2,135,2|0|2,0:0|0:0|0:0,0:0:0:0:
296,371,152212,5,4,0:0:0:0:
125,252,152587,1,0,0:0:0:0:
312,168,152962,2,0,P|278:48|154:57,1,270,2|0,0:0|0:0,0:0:0:0:
120,192,153712,2,0,P|128:257|179:299,1,135
324,300,154212,6,0,P|374:257|383:192,1,135,12|0,0:0|0:0,0:0:0:0:
248,168,154712,1,0,0:0:0:0:
376,120,154962,2,0,P|263:42|167:117,1,270,2|0,0:0|0:0,0:0:0:0:
166,180,155587,2,0,P|212:243|328:243,1,202.5,4|0,0:0|0:0,0:0:0:0:
376,119,156212,6,0,P|417:30|511:0,2,202.5,4|8|0,0:0|0:0|0:0,0:0:0:0:
256,192,157212,2,0,P|214:281|120:312,1,202.5,2|0,0:0|0:0,0:0:0:0:
164,379,157962,2,0,P|40:344|17:218,1,270,4|0,0:0|0:0,0:0:0:0:
128,136,158712,2,0,B|256:200|256:72|384:136,2,270,8|6|8,0:0|0:0|0:0,0:0:0:0:
256,232,159962,5,0,0:0:0:0:
136,296,160212,1,4,0:0:0:0:
256,360,160462,1,0,0:0:0:0:
376,296,160712,1,8,0:0:0:0:
360,160,160962,2,2,P|256:88|152:160,1,270
103,96,161962,2,0,P|121:281|306:292,1,405,4|8,0:0|0:0,0:0:0:0:
396,192,162962,1,0,0:0:0:0:
384,56,163212,5,2,0:0:0:0:
256,8,163462,1,0,0:0:0:0:
128,56,163712,1,4,0:0:0:0:
216,284,164212,5,2,0:0:0:0:
103,358,164462,1,0,0:0:0:0:
65,229,164712,1,4,0:0:0:0:
296,100,165212,5,2,0:0:0:0:
409,26,165462,1,0,0:0:0:0:
447,155,165712,1,4,0:0:0:0:
216,100,166212,5,2,0:0:0:0:
103,26,166462,1,0,0:0:0:0:
65,155,166712,1,4,0:0:0:0:
296,284,167212,5,2,0:0:0:0:
409,358,167462,1,0,0:0:0:0:
447,229,167712,1,4,0:0:0:0:
256,192,168212,6,0,L|256:57,2,135,4|0|8,0:0|0:0|0:0,0:0:0:0:
368,288,168962,2,2,P|256:352|144:288,1,270
380,152,169962,2,0,B|312:64|52:332|28:152,1,405,4|8,0:0|0:0,0:0:0:0:
0,28,170962,1,0,0:0:0:0:
128,56,171212,5,2,0:0:0:0:
256,8,171462,1,0,0:0:0:0:
384,56,171712,1,4,0:0:0:0:
256,192,172212,1,4,0:0:0:0:
256,192,179212,12,4,180212,0:0:0:0:
460,224,180712,6,8,P|419:343|294:331,2,270,2|6|8,0:0|0:0|0:0,0:0:0:0:
380,112,181962,5,0,0:0:0:0:
255,68,182212,2,0,P|189:78|132:112,1,135,6|0,0:0|0:0,0:0:0:0:
52,224,182712,2,8,P|92:343|217:331,2,270,8|6|8,0:0|0:0|0:0,0:0:0:0:
132,112,183962,5,0,0:0:0:0:
256,68,184212,2,0,P|322:78|379:112,1,135,6|0,0:0|0:0,0:0:0:0:
460,224,184712,2,8,P|419:343|294:331,2,270,8|6|8,0:0|0:0|0:0,0:0:0:0:
380,112,185962,5,0,0:0:0:0:
255,68,186212,1,4,0:0:0:0:
156,288,186712,2,0,P|256:364|356:288,3,270,10|6|8|4,0:0|0:0|0:0|0:0,0:0:0:0:
380,56,188712,6,0,P|256:10|132:56,2,270,10|6|8,0:0|0:0|0:0,0:0:0:0:
392,192,189962,5,0,0:0:0:0:
256,192,190212,2,0,B|120:192,1,135,4|0,0:0|0:0,0:0:0:0:
132,328,190712,2,0,P|256:374|380:328,2,270,8|6|8,0:0|0:0|0:0,0:0:0:0:
120,192,191962,5,0,0:0:0:0:
256,192,192212,2,0,B|392:192,1,135,6|0,0:0|0:0,0:0:0:0:
380,56,192712,2,0,P|256:10|132:56,1,270,0|4,0:0|0:0,0:0:0:0:
256,192,193462,12,4,196212,0:0:0:0:
