osu file format v14

[General]
AudioFilename: audio.mp3
AudioLeadIn: 0
PreviewTime: 268555
Countdown: 0
SampleSet: Soft
StackLeniency: 0.7
Mode: 0
LetterboxInBreaks: 0
WidescreenStoryboard: 1

[Editor]
DistanceSpacing: 0.8
BeatDivisor: 8
GridSize: 8
TimelineZoom: 2.7

[Metadata]
Title:Fireflies (Said The Sky Remix)
TitleUnicode:Fireflies (Said The Sky Remix)
Artist:Owl City
ArtistUnicode:Owl City
Creator:DuckRadio
Version:Dreaming
Source:
Tags:chill sersh4nt english pop
BeatmapID:1795177
BeatmapSetID:859047

[Difficulty]
HPDrainRate:6
CircleSize:4
OverallDifficulty:9
ApproachRate:9.2
SliderMultiplier:2
SliderTickRate:1

[Events]
//Background and Video events
0,0,"Kj5cd8B.png",0,0
//Break Periods
2,3674,6333
2,10531,12761
//Storyboard Layer 0 (Background)
//Storyboard Layer 1 (Fail)
//Storyboard Layer 2 (Pass)
//Storyboard Layer 3 (Foreground)
//Storyboard Sound Samples

[TimingPoints]
46,857.142857142857,4,2,5,30,1,0
13331,-200,4,2,3,30,0,0
13653,-200,4,2,1,5,0,0
13760,-83.3333333333333,4,2,5,40,0,0
17188,-133.333333333333,4,2,5,40,0,0
18474,-100,4,2,5,50,0,0
19546,-100,4,2,5,55,0,0
20617,-83.3333333333333,4,2,5,60,0,0
21903,923.076923076923,4,2,5,40,1,0
22133,902.93453724605,4,2,5,40,1,0
22358,902.93453724605,4,2,5,65,1,0
22358,-133.333333333333,4,2,5,65,0,0
23261,923.076923076923,4,2,5,50,1,0
23722,1000,4,2,5,40,1,0
23722,-100,4,2,5,40,0,0
24222,1000,4,2,5,30,1,0
24222,-100,4,2,5,30,0,0
24347,-100,4,2,5,30,0,0
30472,923.076923076923,4,2,5,5,1,0
30472,-100,4,2,5,5,0,0
31395,965.018094089264,4,2,5,5,1,0
31395,-100,4,2,5,20,0,0
31877,-100,4,2,5,20,0,0
32118,-100,4,2,5,30,0,0
32842,-100,4,2,5,35,0,0
33325,-100,4,2,5,40,0,0
33807,-100,4,2,5,50,0,0
34290,-100,4,2,5,60,0,0
34772,-100,4,2,5,5,0,0
34893,666.666666666667,4,2,5,60,1,0
34893,-66.6666666666667,4,2,5,60,0,0
45226,-133.333333333333,4,2,3,60,0,0
45476,-100,4,2,1,5,0,0
45559,-66.6666666666667,4,2,2,70,0,0
56226,-60.6060606060606,4,2,1,70,0,0
57809,-100,4,2,1,5,0,0
57892,-60.6060606060606,4,2,1,70,0,0
58142,-100,4,2,1,5,0,0
58226,-60.6060606060606,4,2,1,70,0,0
59142,-100,4,2,1,5,0,0
59226,-60.6060606060606,4,2,1,70,0,0
60476,-100,4,2,1,5,0,0
60559,-60.6060606060606,4,2,1,70,0,0
60809,-100,4,2,1,5,0,0
60892,-60.6060606060606,4,2,1,70,0,0
62476,-100,4,2,1,5,0,0
62559,-60.6060606060606,4,2,1,70,0,0
63476,-100,4,2,1,5,0,0
63559,-60.6060606060606,4,2,1,70,0,0
65393,-60.6060606060606,4,2,2,70,0,0
66059,-60.6060606060606,4,3,1,50,0,0
66226,-60.6060606060606,4,2,1,70,0,0
66559,-60.6060606060606,4,3,1,50,0,0
66726,-60.6060606060606,4,2,1,70,0,0
68476,-100,4,2,1,5,0,0
68559,-60.6060606060606,4,2,1,70,0,0
70476,-100,4,2,1,5,0,0
70559,-60.6060606060606,4,2,1,70,0,0
70809,-100,4,2,1,5,0,0
70892,-60.6060606060606,4,2,1,70,0,0
76059,-60.6060606060606,4,2,2,70,0,0
76893,-60.6060606060606,4,2,1,70,0,0
77226,-83.3333333333333,4,2,1,70,0,0
77476,-83.3333333333333,4,2,1,5,0,0
77559,-100,4,2,5,60,0,0
89476,-100,4,2,5,5,0,0
89559,-100,4,2,5,60,0,0
93476,-100,4,2,5,5,0,0
93559,-100,4,2,5,60,0,0
96226,-100,4,2,5,40,0,0
96892,-100,4,2,5,50,0,0
97559,-100,4,2,1,60,0,0
97726,-100,4,3,1,40,0,0
98226,-250,4,2,1,70,0,0
98893,-250,4,2,1,90,0,1
99226,-80,4,2,1,90,0,1
99476,-100,4,2,1,5,0,1
99559,-80,4,2,1,90,0,1
99976,-100,4,2,1,5,0,1
100059,-80,4,2,1,90,0,1
100476,-100,4,2,1,5,0,1
100559,-80,4,2,1,90,0,1
101809,-100,4,2,1,5,0,1
101892,-80,4,2,1,90,0,1
103142,-100,4,2,1,5,0,1
103226,-80,4,2,1,90,0,1
104809,-100,4,2,1,5,0,1
104892,-80,4,2,1,90,0,1
105809,-100,4,2,1,5,0,1
105892,-80,4,2,1,90,0,1
107142,-100,4,2,1,5,0,1
107226,-80,4,2,1,90,0,1
108059,-80,4,2,1,60,0,1
108726,-80,4,3,1,60,0,1
108893,-80,4,2,1,90,0,1
109226,-80,4,3,1,60,0,1
109393,-80,4,2,1,90,0,1
110142,-100,4,2,1,5,0,1
110226,-80,4,2,1,90,0,1
111142,-100,4,2,1,5,0,1
111226,-80,4,2,1,90,0,1
112476,-100,4,2,1,5,0,1
112559,-80,4,2,1,90,0,1
113809,-100,4,2,1,5,0,1
113892,-80,4,2,1,90,0,1
115476,-100,4,2,1,5,0,1
115559,-80,4,2,1,90,0,1
116476,-100,4,2,1,5,0,1
116559,-80,4,2,1,90,0,1
117559,-80,4,2,1,90,0,1
117809,-100,4,2,1,5,0,1
117892,-80,4,2,1,90,0,1
118726,-80,4,2,1,60,0,1
119559,-71.4285714285714,4,2,1,90,0,1
120226,-100,4,2,5,70,0,0
122226,-100,4,2,1,55,0,0
122393,-100,4,2,5,70,0,0
122892,-76.9230769230769,4,2,1,80,0,0
124142,-100,4,2,1,5,0,0
124226,-76.9230769230769,4,2,1,80,0,0
126142,-76.9230769230769,4,2,1,5,0,0
126226,-76.9230769230769,4,2,1,80,0,0
130559,-76.9230769230769,4,2,3,60,0,0
130809,-100,4,2,1,5,0,0
130892,-76.9230769230769,4,2,1,80,0,0
135809,-100,4,2,1,5,0,0
135892,-76.9230769230769,4,2,1,80,0,0
141559,-100,4,2,5,55,0,0
161559,-250,4,2,1,70,0,0
162726,-250,4,2,1,5,0,0
162892,-250,4,2,1,30,0,0
172226,-250,4,2,1,45,0,0
172892,-250,4,2,1,60,0,0
173226,-250,4,2,3,60,0,0
173559,-125,4,2,4,70,0,0
173893,-125,4,2,1,70,0,0
174226,-125,4,2,2,70,0,0
174559,-125,4,2,3,70,0,0
174892,-125,4,2,4,70,0,0
175226,-125,4,2,1,70,0,0
175559,-125,4,2,2,70,0,0
175893,-125,4,2,4,70,0,0
176227,-125,4,2,1,70,0,0
176893,-125,4,2,2,70,0,0
177226,-125,4,2,4,70,0,0
177560,-125,4,2,3,70,0,0
178059,-125,4,2,4,70,0,0
178226,-125,4,2,2,70,0,0
178559,-125,4,2,3,70,0,0
179226,-125,4,2,4,70,0,0
179559,-125,4,2,2,70,0,0
180226,-125,4,2,3,70,0,0
180726,-125,4,2,4,70,0,0
180893,-125,4,2,2,70,0,0
181226,-125,4,2,4,70,0,0
182226,-125,4,2,2,70,0,0
182892,-125,4,2,1,70,0,0
183559,-125,4,2,2,70,0,0
183892,-250,4,2,1,70,0,0
184226,-66.6666666666667,4,2,1,70,0,0
185142,-100,4,2,1,5,0,0
185226,-66.6666666666667,4,2,1,70,0,0
185476,-100,4,2,1,5,0,0
185559,-66.6666666666667,4,2,1,70,0,0
189142,-100,4,2,1,5,0,0
189226,-66.6666666666667,4,2,1,70,0,0
189476,-100,4,2,1,5,0,0
189559,-66.6666666666667,4,2,1,70,0,0
190476,-100,4,2,1,5,0,0
190559,-66.6666666666667,4,2,1,70,0,0
190809,-100,4,2,1,5,0,0
190892,-66.6666666666667,4,2,1,70,0,0
194059,-66.6666666666667,4,3,1,50,0,0
194226,-66.6666666666667,4,2,1,70,0,0
194476,-100,4,2,1,5,0,0
194559,-66.6666666666667,4,3,1,50,0,0
194809,-100,4,2,1,5,0,0
194892,-66.6666666666667,4,2,1,70,0,0
197142,-100,4,2,1,5,0,0
197226,-66.6666666666667,4,2,1,70,0,0
197476,-100,4,2,1,5,0,0
197559,-66.6666666666667,4,2,1,70,0,0
199809,-100,4,2,1,5,0,0
199892,-66.6666666666667,4,2,1,70,0,0
200142,-100,4,2,1,5,0,0
200226,-66.6666666666667,4,2,1,70,0,0
201142,-100,4,2,1,5,0,0
201226,-66.6666666666667,4,2,1,70,0,0
201476,-100,4,2,1,5,0,0
201559,-66.6666666666667,4,2,1,90,0,0
204226,-66.6666666666667,4,2,1,70,0,0
205392,-66.6666666666667,4,2,1,60,0,0
205559,-66.6666666666667,4,2,1,70,0,0
205809,-100,4,2,1,5,0,0
205892,-66.6666666666667,4,2,1,70,0,0
207142,-100,4,2,1,5,0,0
207223,-66.6666666666667,4,2,1,70,0,0
207476,-100,4,2,1,5,0,0
207559,-66.6666666666667,4,2,1,70,0,0
208476,-100,4,2,1,5,0,0
208559,-66.6666666666667,4,2,1,70,0,0
209809,-100,4,2,1,5,0,0
209892,-66.6666666666667,4,2,1,70,0,0
210142,-100,4,2,1,5,0,0
210226,-66.6666666666667,4,2,1,70,0,0
212809,-100,4,2,1,5,0,0
212892,-66.6666666666667,4,2,1,70,0,0
214726,-66.6666666666667,4,2,1,55,0,0
215393,-66.6666666666667,4,3,1,60,0,0
215559,-66.6666666666667,4,2,1,70,0,0
215893,-66.6666666666667,4,3,1,60,0,0
216059,-66.6666666666667,4,2,1,70,0,0
217142,-100,4,2,1,5,0,0
217226,-66.6666666666667,4,2,1,70,0,0
217476,-100,4,2,1,5,0,0
217559,-66.6666666666667,4,2,1,70,0,0
219476,-100,4,2,1,5,0,0
219559,-66.6666666666667,4,2,1,70,0,0
222476,-100,4,2,1,5,0,0
222559,-66.6666666666667,4,2,1,70,0,0
224226,-100,4,2,1,70,0,0
225393,-100,4,2,1,55,0,0
226226,-66.6666666666667,4,2,1,70,0,0
226892,-100,4,2,6,50,0,0
240226,-100,4,2,6,50,0,0
242892,-66.6666666666667,4,2,6,50,0,0
244226,-100,4,2,6,50,0,0
245559,-1000,4,2,6,50,0,0
248059,-100,4,2,1,5,0,0
248226,-100,4,2,5,40,0,0
248893,-100,4,2,1,40,0,0
249559,-100,4,2,5,40,0,0
250226,-100,4,2,1,40,0,0
250893,-100,4,2,5,40,0,0
251560,-100,4,2,1,40,0,0
252226,-100,4,2,5,40,0,0
252893,-100,4,2,1,40,0,0
253559,-100,4,2,5,40,0,0
254226,-100,4,2,1,40,0,0
254893,-100,4,2,5,40,0,0
255560,-100,4,2,1,40,0,0
256226,-100,4,2,5,40,0,0
256893,-100,4,2,1,40,0,0
257559,-133.333333333333,4,2,5,40,0,0
258226,-133.333333333333,4,2,1,40,0,0
258893,-100,4,2,5,40,0,0
259560,-100,4,2,1,40,0,0
260226,-100,4,2,5,40,0,0
260893,-100,4,2,1,40,0,0
261559,-100,4,2,5,40,0,0
262226,-100,4,2,1,40,0,0
262893,-100,4,2,5,40,0,0
263560,-100,4,2,1,40,0,0
264226,-100,4,2,5,40,0,0
264893,-100,4,2,1,40,0,0
265559,-100,4,2,5,40,0,0
266226,-100,4,2,1,40,0,0
266893,-100,4,2,5,40,0,0
267559,-100,4,2,5,50,0,0
268226,-100,4,2,1,60,0,0
268393,-100,4,3,1,40,0,0
268892,-250,4,2,1,60,0,0
269559,-50,4,2,1,90,0,1
279809,-50,4,2,1,5,0,1
279892,-50,4,2,1,90,0,1
290893,-100,4,2,5,25,0,0
291559,-100,4,2,1,25,0,0
292226,-100,4,2,5,25,0,0
292893,-100,4,2,1,25,0,0
293560,-100,4,2,5,25,0,0
294226,-100,4,2,1,25,0,0
294893,-100,4,2,5,25,0,0
295559,-100,4,2,1,25,0,0
296226,-100,4,2,5,25,0,0
296893,-100,4,2,1,25,0,0
297560,-100,4,2,5,25,0,0
298226,-100,4,2,1,25,0,0
298893,-100,4,2,5,25,0,0
299559,-100,4,2,1,25,0,0
300226,-100,4,2,5,25,0,0
300893,-100,4,2,1,25,0,0
301559,-100,4,2,5,25,0,0
301560,-100,4,2,5,25,0,0
302226,-100,4,2,1,25,0,0
302893,-100,4,2,5,25,0,0
303559,-100,4,2,1,25,0,0
304226,-100,4,2,5,25,0,0
306226,-100,4,2,1,25,0,0
306892,-133.333333333333,4,2,5,25,0,0
306893,-100,4,2,5,25,0,0
307559,-100,4,2,1,25,0,0
308226,-133.333333333333,4,2,5,25,0,0
308893,-133.333333333333,4,2,1,25,0,0
309560,-133.333333333333,4,2,5,25,0,0
310226,-133.333333333333,4,2,1,25,0,0
310726,-133.333333333333,4,2,5,25,0,0
311559,-133.333333333333,4,2,1,20,0,0
312226,-133.333333333333,4,2,1,5,0,0

[Colours]
Combo1 : 208,99,220
Combo2 : 232,157,121
Combo3 : 100,124,238
Combo4 : 203,135,218
Combo5 : 70,87,255

[HitObjects]
112,112,46,6,0,L|121:215,1,100,2|0,0:2|0:0,0:0:0:0:
120,211,1117,1,0,0:0:0:0:
41,330,1546,1,0,0:0:0:0:
41,330,1760,2,0,B|148:315,1,100,2|0,0:2|0:0,0:0:0:0:
228,384,2403,1,0,0:0:0:0:
262,225,2617,1,0,0:0:0:0:
292,318,2831,2,0,P|332:270|379:255,1,100
365,256,3474,1,2,0:2:0:0:
456,192,6903,6,0,P|416:208|344:184,1,100,2|0,0:2|0:0,0:0:0:0:
361,197,7974,1,0,0:0:0:0:
301,71,8403,1,0,0:0:0:0:
301,71,8617,2,0,L|291:182,1,100,2|0,0:2|0:0,0:0:0:0:
320,270,9260,1,0,0:0:0:0:
126,210,9474,5,0,0:0:0:0:
203,184,9689,1,0,0:0:0:0:
172,278,9903,1,0,0:0:0:0:
199,273,10117,1,0,0:0:0:0:
194,356,10331,1,2,0:2:0:0:
144,40,13331,6,0,L|150:84,1,37.5,2|0,0:2|0:0,0:0:0:0:
101,166,13760,6,0,L|29:158,1,59.9999981689454,2|0,0:2|0:0,0:0:0:0:
119,252,14188,1,0,0:0:0:0:
131,250,14403,2,0,L|203:242,1,59.9999981689454
175,325,14831,2,0,L|167:395,1,59.9999981689454
131,250,15260,1,0,0:0:0:0:
263,291,15474,6,0,P|335:275|369:241,1,119.999996337891,2|0,0:2|0:0,0:0:0:0:
338,142,16117,1,0,0:0:0:0:
366,244,16331,1,0,0:0:0:0:
438,151,16546,1,0,0:0:0:0:
438,151,16760,2,0,L|511:147,1,59.9999981689454
323,69,17188,6,0,P|281:89|276:185,1,149.999995422363,2|0,0:2|0:0,0:0:0:0:
274,182,18259,1,0,0:0:0:0:
253,295,18474,2,0,L|247:366,1,50
197,197,18903,2,0,P|163:185|100:211,1,100
19,149,19546,2,0,L|22:219,1,50
21,198,19974,1,0,0:0:0:0:
90,365,20189,2,0,L|93:303,1,50
268,374,20617,6,0,P|253:333|219:304,1,59.9999981689454,2|0,0:2|0:0,0:0:0:0:
168,257,21045,1,0,0:0:0:0:
168,257,21260,1,0,0:0:0:0:
167,355,21474,1,0,0:0:0:0:
272,211,21688,2,0,L|337:208,1,59.9999981689454
136,176,22133,1,0,0:0:0:0:
136,176,22358,2,0,L|81:177,1,37.5000014305115,2|0,0:2|0:0,0:0:0:0:
180,21,22810,5,0,0:0:0:0:
201,130,23035,1,0,0:0:0:0:
291,0,23261,5,0,0:0:0:0:
311,144,23491,1,0,0:0:0:0:
373,58,23722,5,0,0:0:0:0:
415,124,23972,1,0,0:0:0:0:
445,82,24222,1,4,0:1:0:0:
256,192,24347,12,0,30472,0:0:0:0:
256,192,31395,12,0,34772,0:0:0:0:
48,227,34893,5,2,0:2:0:0:
51,207,35059,1,0,0:0:0:0:
117,149,35226,2,0,L|129:244,1,75.0000028610231,2|0,0:2|0:0,0:0:0:0:
208,230,35559,1,0,0:0:0:0:
289,171,35726,2,0,L|281:266,1,75.0000028610231,2|0,0:2|0:0,0:0:0:0:
377,154,36060,1,0,0:0:0:0:
377,154,36227,6,0,P|417:154|465:122,1,75.0000028610231
397,76,36560,1,0,0:0:0:0:
440,230,36727,1,0,0:0:0:0:
377,154,36894,1,0,0:0:0:0:
364,268,37060,2,0,L|354:357,1,75.0000028610231
283,276,37394,1,0,0:0:0:0:
196,313,37560,5,2,0:2:0:0:
198,331,37727,1,2,0:2:0:0:
135,253,37894,2,0,L|47:245,1,75.0000028610231
138,170,38227,2,0,L|226:162,1,75.0000028610231
281,98,38560,1,2,0:2:0:0:
284,79,38727,1,2,0:2:0:0:
346,151,38893,5,0,0:0:0:0:
349,170,39060,1,0,0:0:0:0:
425,106,39227,1,0,0:0:0:0:
437,222,39393,1,0,0:0:0:0:
349,170,39560,2,0,P|301:162|253:178,1,75.0000028610231,2|0,0:2|0:0,0:0:0:0:
193,247,39893,1,0,0:0:0:0:
182,114,40060,1,0,0:0:0:0:
114,188,40226,5,2,0:2:0:0:
136,185,40392,1,0,0:0:0:0:
32,115,40559,2,0,L|35:204,1,75.0000028610231,2|0,0:2|0:0,0:0:0:0:
84,279,40892,1,0,0:0:0:0:
247,254,41059,2,0,P|210:246|174:253,1,75.0000028610231,2|0,0:2|0:0,0:0:0:0:
210,331,41392,1,0,0:0:0:0:
200,172,41560,6,0,L|195:85,1,75.0000028610231
146,23,41892,1,0,0:0:0:0:
125,127,42059,1,0,0:0:0:0:
0,61,42226,2,0,L|83:65,1,75.0000028610231
224,24,42559,2,0,L|141:28,1,75.0000028610231
301,113,42893,5,2,0:2:0:0:
303,94,43060,1,2,0:2:0:0:
466,115,43227,2,0,P|418:139|370:131,1,75.0000028610231
359,31,43560,1,0,0:0:0:0:
301,113,43726,2,0,P|269:73|269:25,1,75.0000028610231
328,200,44059,5,0,0:0:0:0:
238,258,44227,2,0,P|198:250|148:208,1,75.0000028610231
138,137,44560,1,0,0:0:0:0:
292,331,44727,2,0,P|253:344|189:332,1,75.0000028610231
113,274,45060,1,0,0:0:0:0:
304,176,45226,6,0,L|311:246,1,56.2500021457673,2|0,0:2|0:0,0:0:0:0:
367,325,45559,5,2,0:2:0:0:
369,300,45726,1,0,0:0:0:0:
419,163,45892,2,0,L|426:251,1,75.0000028610231
286,368,46226,2,0,L|291:277,1,75.0000028610231,8|0,0:2|0:0,0:0:0:0:
215,173,46559,2,0,L|220:264,1,75.0000028610231
135,366,46893,5,2,0:2:0:0:
132,384,47060,1,0,0:0:0:0:
6,300,47227,2,0,L|102:284,1,75.0000028610231
240,165,47560,2,0,L|144:149,1,75.0000028610231,8|0,0:2|0:0,0:0:0:0:
85,58,47893,1,0,0:0:0:0:
65,182,48060,1,0,0:0:0:0:
210,21,48226,5,2,0:2:0:0:
217,5,48392,1,0,0:0:0:0:
265,194,48560,2,0,L|257:106,1,75.0000028610231
369,110,48893,2,0,L|377:22,1,75.0000028610231,8|0,0:2|0:0,0:0:0:0:
436,194,49227,1,0,0:0:0:0:
443,210,49392,1,0,0:0:0:0:
319,342,49559,5,2,0:2:0:0:
326,326,49727,1,0,0:0:0:0:
494,347,49893,2,0,P|446:363|398:347,1,75.0000028610231
157,303,50226,2,0,P|205:319|253:303,1,75.0000028610231,8|0,0:2|0:0,0:0:0:0:
91,132,50559,1,0,0:0:0:0:
78,269,50726,1,0,0:0:0:0:
218,127,50892,6,0,P|202:160|202:200,1,75.0000028610231,2|0,0:2|0:0,0:0:0:0:
275,298,51226,1,0,0:0:0:0:
307,83,51392,2,0,P|285:53|250:33,1,75.0000028610231,0|8,0:0|0:2,0:0:0:0:
308,190,51726,1,0,0:0:0:0:
308,190,51892,2,0,P|344:186|379:166,1,75.0000028610231
424,22,52226,6,0,L|433:110,1,75.0000028610231,2|0,0:2|0:0,0:0:0:0:
316,27,52559,1,0,0:0:0:0:
308,190,52726,1,0,0:0:0:0:
185,47,52892,2,0,L|176:132,1,75.0000028610231,8|0,0:2|0:0,0:0:0:0:
106,202,53226,2,0,L|97:117,1,75.0000028610231
95,292,53559,5,2,0:2:0:0:
93,310,53726,1,0,0:0:0:0:
179,350,53892,2,0,P|221:343|255:306,1,75.0000028610231
349,190,54226,1,8,0:2:0:0:
367,317,54392,1,0,0:0:0:0:
444,217,54559,1,0,0:0:0:0:
446,235,54726,1,0,0:0:0:0:
465,45,54892,6,0,P|425:51|388:89,1,75.0000028610231,2|0,0:2|0:0,0:0:0:0:
354,150,55226,1,0,0:0:0:0:
301,37,55392,1,0,0:0:0:0:
227,201,55559,2,0,L|216:100,1,75.0000028610231,8|0,0:2|0:0,0:0:0:0:
135,317,55892,2,0,P|175:317|223:269,1,75.0000028610231
339,178,56226,6,0,P|373:154|449:156,1,82.5000007867813,2|0,0:2|0:0,0:0:0:0:
330,373,56559,1,0,0:0:0:0:
308,270,56726,1,0,0:0:0:0:
512,319,56892,2,0,L|398:311,1,82.5000007867813,2|0,0:2|0:0,0:0:0:0:
339,178,57226,1,0,0:0:0:0:
336,208,57392,1,0,0:0:0:0:
264,120,57559,6,0,B|201:90|128:128,1,123.750001180172,2|0,0:2|0:0,0:0:0:0:
72,161,57892,2,0,B|140:148|201:203,1,123.750001180172
243,293,58226,1,2,0:2:0:0:
264,120,58392,1,0,0:0:0:0:
151,349,58559,1,0,0:0:0:0:
127,261,58726,1,0,0:0:0:0:
38,317,58892,6,0,P|20:260|52:182,1,123.750001180172,2|0,0:2|0:0,0:0:0:0:
48,189,59226,1,0,0:0:0:0:
163,134,59392,1,0,0:0:0:0:
0,43,59559,2,0,P|15:79|78:119,1,82.5000007867813,2|0,0:2|0:0,0:0:0:0:
169,35,59892,1,0,0:0:0:0:
175,59,60059,1,0,0:0:0:0:
273,8,60226,6,0,L|289:168,1,123.750001180172,2|0,0:2|0:0,0:0:0:0:
310,243,60559,2,0,L|322:119,1,123.750001180172
420,241,60892,2,0,L|431:351,1,82.5000007867813,2|0,0:2|0:0,0:0:0:0:
411,145,61226,1,0,0:0:0:0:
352,332,61392,1,0,0:0:0:0:
309,201,61559,5,2,0:2:0:0:
308,227,61726,1,0,0:0:0:0:
176,120,61892,2,0,P|230:134|260:175,1,82.5000007867813
166,361,62226,2,0,L|170:227,1,123.750001180172,2|0,0:2|0:0,0:0:0:0:
170,221,62559,1,0,0:0:0:0:
82,271,62726,1,0,0:0:0:0:
117,139,62892,6,0,P|160:122|213:131,1,82.5000007867813,2|0,0:2|0:0,0:0:0:0:
287,47,63226,2,0,P|292:127|337:181,1,123.750001180172
448,193,63559,1,2,0:2:0:0:
418,54,63726,1,0,0:0:0:0:
392,247,63892,1,0,0:0:0:0:
389,142,64059,1,0,0:0:0:0:
317,264,64226,5,2,0:2:0:0:
314,281,64393,1,0,0:0:0:0:
244,373,64559,2,0,L|236:285,1,82.5000007867813
169,121,64892,1,2,0:2:0:0:
67,289,65059,2,0,L|146:266,1,82.5000007867813
119,4,65392,5,8,0:2:0:0:
125,27,65476,1,8,0:2:0:0:
130,46,65559,1,10,0:2:0:0:
219,181,65726,1,8,0:2:0:0:
57,187,65893,2,0,L|97:176,1,41.2500003933907
267,49,66059,2,0,L|227:60,1,41.2500003933907,8|0,2:3|2:0,0:0:0:0:
232,312,66226,1,2,0:2:0:0:
219,181,66392,1,0,0:0:0:0:
324,348,66559,1,8,2:3:0:0:
301,135,66726,1,0,0:0:0:0:
391,300,66892,6,0,P|439:314|491:290,1,82.5000007867813,2|0,0:2|0:0,0:0:0:0:
440,204,67226,1,0,0:0:0:0:
436,185,67392,1,0,0:0:0:0:
301,356,67559,2,0,L|295:252,1,82.5000007867813,2|0,0:2|0:0,0:0:0:0:
353,112,67892,2,0,L|359:216,1,82.5000007867813
279,22,68226,6,0,L|271:151,1,123.750001180172,2|0,0:2|0:0,0:0:0:0:
232,208,68559,2,0,L|221:75,1,123.750001180172
153,7,68892,1,2,0:2:0:0:
32,154,69059,1,0,0:0:0:0:
148,28,69226,1,0,0:0:0:0:
139,158,69392,1,0,0:0:0:0:
247,54,69559,5,2,0:2:0:0:
230,48,69726,1,0,0:0:0:0:
145,240,69892,2,0,L|138:145,1,82.5000007867813
397,346,70226,2,0,L|266:332,1,123.750001180172,2|0,0:2|0:0,0:0:0:0:
205,300,70559,2,0,L|336:286,1,123.750001180172
455,216,70892,6,0,L|362:207,1,82.5000007867813,2|0,0:2|0:0,0:0:0:0:
320,126,71226,1,0,0:0:0:0:
317,100,71393,1,0,0:0:0:0:
93,229,71559,2,0,L|186:220,1,82.5000007867813,2|0,0:2|0:0,0:0:0:0:
227,144,71892,1,0,0:0:0:0:
267,286,72059,1,0,0:0:0:0:
393,110,72226,6,0,L|490:100,1,82.5000007867813,2|0,0:2|0:0,0:0:0:0:
305,51,72559,1,0,0:0:0:0:
319,166,72726,1,0,0:0:0:0:
211,91,72892,2,0,L|127:82,1,82.5000007867813,2|0,0:2|0:0,0:0:0:0:
1,24,73226,2,0,L|95:11,1,82.5000007867813
47,203,73559,6,0,L|34:97,1,82.5000007867813,2|0,0:2|0:0,0:0:0:0:
160,259,73892,1,0,0:0:0:0:
163,238,74059,1,0,0:0:0:0:
0,379,74226,2,0,L|116:358,1,82.5000007867813,2|0,0:2|0:0,0:0:0:0:
226,293,74559,1,0,0:0:0:0:
216,377,74726,1,0,0:0:0:0:
342,253,74892,5,2,0:2:0:0:
344,233,75059,1,0,0:0:0:0:
430,364,75226,2,0,L|419:259,1,82.5000007867813
257,138,75559,1,2,0:2:0:0:
265,300,75726,2,0,L|276:195,1,82.5000007867813
261,58,76059,5,8,0:2:0:0:
261,58,76142,1,8,0:2:0:0:
261,58,76226,2,0,L|327:47,1,41.2500003933907,10|0,0:2|0:0,0:0:0:0:
176,137,76392,2,0,L|110:126,1,41.2500003933907,8|0,0:2|0:0,0:0:0:0:
306,183,76559,2,0,L|393:170,1,82.5000007867813
462,295,76892,1,2,0:2:0:0:
499,148,77059,1,0,0:0:0:0:
512,360,77226,2,0,P|470:376|424:368,1,89.9999972534181
313,230,77559,6,0,B|344:273|399:277|399:277|349:295|334:349,1,200,2|8,0:2|0:2,0:0:0:0:
335,345,78892,2,0,P|273:358|164:282,1,200,2|8,0:2|0:2,0:0:0:0:
165,285,80226,6,0,B|131:209|189:161|149:80,1,200,2|8,0:2|0:2,0:0:0:0:
152,88,82226,1,8,0:2:0:0:
72,156,82892,6,0,P|123:188|254:127,1,200,2|8,0:2|0:2,0:0:0:0:
286,57,84226,2,0,L|298:266,1,200,2|8,0:2|0:2,0:0:0:0:
440,327,85559,6,0,P|472:313|398:294,1,200,2|8,0:2|0:2,0:0:0:0:
312,328,86892,2,0,P|265:350|121:287,1,200,2|8,0:2|0:2,0:0:0:0:
191,151,88226,6,0,P|157:192|105:203,1,100,2|0,0:2|0:0,0:0:0:0:
28,162,88726,1,0,0:0:0:0:
87,26,88892,2,0,L|92:93,1,50,8|0,0:2|0:0,0:0:0:0:
180,57,89226,2,0,P|232:65|264:96,1,75
261,93,89559,5,2,0:2:0:0:
374,140,89726,2,0,P|381:92|366:40,1,100
481,9,90226,2,0,P|466:59|473:116,1,100,8|0,0:2|0:0,0:0:0:0:
440,190,90892,6,0,P|399:208|327:192,1,100,2|0,0:2|0:0,0:0:0:0:
264,104,91392,1,0,0:0:0:0:
305,279,91559,2,0,P|278:262|260:234,1,50,2|0,0:2|0:0,0:0:0:0:
264,104,91892,2,0,P|262:135|247:165,1,50
221,326,92226,6,0,P|189:294|181:222,1,100,2|0,0:2|0:0,0:0:0:0:
183,120,92726,1,0,0:0:0:0:
108,201,92892,2,0,P|99:234|104:265,1,50,8|0,0:2|0:0,0:0:0:0:
25,155,93226,2,0,P|36:111|26:63,1,75
26,69,93559,5,2,0:2:0:0:
112,8,93892,1,0,0:0:0:0:
107,167,94226,5,8,0:2:0:0:
123,16,94559,1,0,0:0:0:0:
178,116,94893,5,2,0:2:0:0:
138,18,95225,1,0,0:0:0:0:
270,82,95559,5,8,0:2:0:0:
154,16,95892,1,0,0:0:0:0:
326,16,96226,5,2,0:2:0:0:
344,45,96392,1,0,0:0:0:0:
352,79,96559,1,0,0:0:0:0:
349,114,96726,1,0,0:0:0:0:
290,183,96892,5,10,0:2:0:0:
403,178,97058,1,0,0:0:0:0:
280,196,97225,1,0,0:0:0:0:
414,190,97392,1,0,0:0:0:0:
265,88,97559,5,0,0:0:0:0:
210,322,97726,1,8,2:3:0:0:
210,322,97809,1,8,2:3:0:0:
210,322,97892,1,8,2:3:0:0:
118,42,98059,1,8,2:3:0:0:
118,42,98142,1,8,2:3:0:0:
118,42,98226,2,0,L|124:106,1,60,8|0,0:2|0:0,0:0:0:0:
199,253,98893,5,2,0:2:0:0:
143,187,99059,1,0,0:0:0:0:
238,88,99226,2,0,P|251:138|240:182,1,93.75
118,42,99559,1,2,0:2:0:0:
40,233,99726,2,0,P|84:263|117:267,1,62.5
168,239,100059,1,0,0:0:0:0:
300,154,100226,6,0,L|291:247,1,93.75,2|0,0:2|0:0,0:0:0:0:
290,266,100559,1,0,0:0:0:0:
362,369,100726,1,0,0:0:0:0:
414,137,100893,1,2,0:2:0:0:
474,289,101059,2,0,L|461:207,1,62.5
500,147,101392,1,0,0:0:0:0:
359,63,101559,6,0,P|313:45|246:60,1,93.75,2|0,0:2|0:0,0:0:0:0:
252,59,101892,1,0,0:0:0:0:
238,200,102059,1,0,0:0:0:0:
132,2,102226,1,2,0:2:0:0:
52,112,102392,2,0,P|47:174|54:196,1,62.5
106,220,102726,1,0,0:0:0:0:
197,343,102892,6,0,L|208:228,1,93.75,2|0,0:2|0:0,0:0:0:0:
208,232,103226,1,0,0:0:0:0:
299,346,103392,1,0,0:0:0:0:
489,250,103559,2,0,L|404:240,1,62.5,2|0,0:2|0:0,0:0:0:0:
375,317,103892,1,0,0:0:0:0:
387,148,104059,1,0,0:0:0:0:
291,346,104226,5,2,0:2:0:0:
302,258,104393,1,0,0:0:0:0:
126,298,104559,2,0,P|170:311|217:306,1,93.75
242,189,104892,1,2,0:2:0:0:
347,93,105059,2,0,P|382:92|419:122,1,62.5
472,141,105392,1,0,0:0:0:0:
473,328,105559,6,0,L|460:229,1,93.75,2|0,0:2|0:0,0:0:0:0:
458,217,105892,1,0,0:0:0:0:
387,353,106059,1,0,0:0:0:0:
270,200,106226,2,0,P|222:192|193:205,1,62.5,2|0,0:2|0:0,0:0:0:0:
160,253,106559,1,0,0:0:0:0:
247,94,106726,1,0,0:0:0:0:
338,257,106892,6,0,P|362:209|354:152,1,93.75,2|0,0:2|0:0,0:0:0:0:
351,157,107226,1,0,0:0:0:0:
398,334,107392,1,0,0:0:0:0:
236,203,107560,2,0,P|212:251|216:285,1,62.5,2|0,0:2|0:0,0:0:0:0:
242,330,107892,1,0,0:0:0:0:
80,184,108059,5,8,0:2:0:0:
64,185,108142,1,8,0:2:0:0:
49,186,108226,2,0,L|-7:191,1,31.25,10|0,0:2|0:0,0:0:0:0:
212,259,108392,2,0,L|263:255,1,31.25,8|0,0:2|0:0,0:0:0:0:
154,115,108559,1,0,0:0:0:0:
125,301,108726,1,8,2:3:0:0:
280,183,108893,2,0,P|297:138|295:112,1,62.5,2|0,0:2|0:0,0:0:0:0:
252,57,109226,1,8,2:3:0:0:
354,228,109392,1,0,0:0:0:0:
212,126,109559,5,2,0:2:0:0:
204,221,109726,1,0,0:0:0:0:
126,83,109892,2,0,P|116:128|136:184,1,93.75
231,8,110226,1,2,0:2:0:0:
351,139,110392,2,0,L|268:131,1,62.5
212,126,110726,1,0,0:0:0:0:
391,57,110893,6,0,L|494:44,1,93.75,2|0,0:2|0:0,0:0:0:0:
503,43,111226,1,0,0:0:0:0:
391,178,111392,1,0,0:0:0:0:
291,0,111559,1,2,0:2:0:0:
222,155,111726,2,0,L|208:71,1,62.5
143,54,112059,1,0,0:0:0:0:
120,283,112226,6,0,P|161:294|216:271,1,93.75,2|0,0:2|0:0,0:0:0:0:
221,270,112559,1,0,0:0:0:0:
288,175,112725,1,0,0:0:0:0:
349,370,112892,1,2,0:2:0:0:
451,227,113059,2,0,L|446:314,1,62.5
475,359,113392,1,0,0:0:0:0:
358,126,113559,6,0,L|367:221,1,93.75,2|0,0:2|0:0,0:0:0:0:
369,237,113892,1,0,0:0:0:0:
266,92,114059,1,0,0:0:0:0:
92,189,114226,2,0,P|140:183|168:166,1,62.5,2|0,0:2|0:0,0:0:0:0:
20,151,114559,1,0,0:0:0:0:
78,349,114726,1,0,0:0:0:0:
22,262,114892,5,2,0:2:0:0:
78,349,115059,1,0,0:0:0:0:
153,271,115226,2,0,P|183:259|257:282,1,93.75
361,382,115559,1,2,0:2:0:0:
438,204,115726,2,0,L|446:292,1,62.5
479,334,116059,1,0,0:0:0:0:
350,129,116226,6,0,P|318:113|255:122,1,93.75,2|0,0:2|0:0,0:0:0:0:
246,131,116559,1,0,0:0:0:0:
115,2,116726,1,0,0:0:0:0:
88,212,116892,2,0,P|120:244|161:251,1,62.5,2|0,0:2|0:0,0:0:0:0:
74,131,117226,1,0,0:0:0:0:
39,302,117392,1,0,0:0:0:0:
158,173,117559,6,0,P|182:165|251:184,1,93.75,2|0,0:2|0:0,0:0:0:0:
262,200,117892,1,0,0:0:0:0:
335,271,118059,1,0,0:0:0:0:
420,199,118226,2,0,L|428:280,1,62.5
428,281,118559,1,0,0:0:0:0:
480,96,118726,5,8,0:2:0:0:
480,96,118809,1,8,0:2:0:0:
480,96,118892,2,0,L|433:91,1,31.25,8|0,0:2|0:0,0:0:0:0:
284,143,119059,2,0,L|331:138,1,31.25,8|0,0:2|0:0,0:0:0:0:
182,73,119226,1,0,0:0:0:0:
177,170,119393,1,0,0:0:0:0:
33,105,119559,2,0,P|66:105|124:125,1,69.9999978637696
132,275,119892,1,0,0:0:0:0:
177,170,120059,1,0,0:0:0:0:
261,326,120226,6,0,L|255:276,1,50
332,205,120559,1,2,0:2:0:0:
373,270,120726,1,0,0:0:0:0:
460,205,120892,2,0,L|396:199,1,50,0|2,0:0|0:2,0:0:0:0:
361,127,121226,2,0,L|425:121,1,50
332,205,121559,5,2,0:2:0:0:
308,202,121726,1,2,0:2:0:0:
277,319,121892,2,0,L|272:248,1,50
182,216,122226,1,8,0:2:0:0:
141,286,122392,1,0,0:0:0:0:
69,192,122559,2,0,L|76:241,1,50
29,120,122892,6,0,P|52:111|111:120,1,64.9999970245363,2|0,0:2|0:0,0:0:0:0:
161,175,123226,1,0,0:0:0:0:
180,72,123392,1,0,0:0:0:0:
221,289,123559,2,0,L|226:205,1,64.9999970245363,2|0,0:2|0:0,0:0:0:0:
289,119,123893,2,0,L|301:227,1,97.4999955368044
370,291,124226,5,2,0:2:0:0:
399,190,124392,1,0,0:0:0:0:
506,266,124560,2,0,L|430:257,1,64.9999970245363
334,380,124892,2,0,L|323:292,1,64.9999970245363,2|0,0:2|0:0,0:0:0:0:
270,202,125226,1,0,0:0:0:0:
226,339,125392,1,0,0:0:0:0:
54,333,125559,6,0,L|143:321,1,64.9999970245363,2|0,0:2|0:0,0:0:0:0:
198,255,125893,2,0,L|95:242,1,97.4999955368044
75,104,126226,2,0,L|90:191,1,64.9999970245363,2|0,0:2|0:0,0:0:0:0:
152,68,126559,1,0,0:0:0:0:
155,47,126726,1,0,0:0:0:0:
240,157,126892,6,0,P|276:163|320:144,1,64.9999970245363,2|0,0:2|0:0,0:0:0:0:
403,71,127226,1,0,0:0:0:0:
434,194,127392,1,0,0:0:0:0:
277,10,127559,2,0,L|290:104,1,64.9999970245363,2|0,0:2|0:0,0:0:0:0:
281,247,127892,1,0,0:0:0:0:
309,158,128059,1,0,0:0:0:0:
178,236,128226,6,0,P|147:247|94:236,1,64.9999970245363,2|0,0:2|0:0,0:0:0:0:
11,172,128559,1,0,0:0:0:0:
7,196,128726,1,0,0:0:0:0:
157,89,128892,2,0,L|147:171,1,64.9999970245363,2|0,0:2|0:0,0:0:0:0:
229,267,129226,2,0,L|222:203,1,64.9999970245363
88,58,129559,6,0,P|55:51|3:75,1,64.9999970245363,2|0,0:2|0:0,0:0:0:0:
157,89,129892,1,0,0:0:0:0:
230,24,130059,1,0,0:0:0:0:
298,143,130226,1,2,0:2:0:0:
301,123,130393,1,0,0:0:0:0:
496,129,130559,2,0,L|384:113,1,97.4999955368044,2|0,0:2|0:0,0:0:0:0:
284,221,130892,6,0,L|372:213,1,64.9999970245363,2|0,0:2|0:0,0:0:0:0:
215,101,131226,1,0,0:0:0:0:
166,244,131392,1,0,0:0:0:0:
0,135,131559,2,0,L|67:139,1,64.9999970245363,2|0,0:2|0:0,0:0:0:0:
166,244,131892,2,0,L|97:239,1,64.9999970245363
345,222,132226,6,0,P|361:262|348:311,1,64.9999970245363,2|0,0:2|0:0,0:0:0:0:
284,384,132559,2,0,P|268:344|281:295,1,64.9999970245363
324,77,132892,1,2,0:2:0:0:
345,222,133059,1,0,0:0:0:0:
240,142,133226,1,0,0:0:0:0:
238,163,133392,1,0,0:0:0:0:
136,264,133559,6,0,P|100:271|60:256,1,64.9999970245363,2|0,0:2|0:0,0:0:0:0:
32,173,133892,1,0,0:0:0:0:
27,154,134059,1,0,0:0:0:0:
91,0,134226,2,0,L|95:84,1,64.9999970245363,2|0,0:2|0:0,0:0:0:0:
165,145,134559,2,0,L|170:59,1,64.9999970245363
283,222,134892,6,0,P|243:206|227:174,1,64.9999970245363,2|0,0:2|0:0,0:0:0:0:
79,260,135226,2,0,P|113:234|120:199,1,64.9999970245363
246,384,135559,2,0,P|214:352|206:280,1,97.4999955368044,2|0,0:2|0:0,0:0:0:0:
223,218,135892,1,0,0:0:0:0:
104,344,136059,1,0,0:0:0:0:
299,234,136226,6,0,L|390:229,1,64.9999970245363,2|0,0:2|0:0,0:0:0:0:
446,141,136559,1,0,0:0:0:0:
473,285,136726,1,0,0:0:0:0:
357,72,136892,2,0,L|347:167,1,64.9999970245363,2|0,0:2|0:0,0:0:0:0:
262,91,137226,2,0,L|259:27,1,64.9999970245363
170,194,137559,5,2,0:2:0:0:
9,120,137726,2,0,L|97:112,1,64.9999970245363
142,62,138059,1,0,0:0:0:0:
66,219,138226,2,0,P|66:267|90:307,1,64.9999970245363,2|0,0:2|0:0,0:0:0:0:
149,370,138559,1,0,0:0:0:0:
169,243,138726,1,0,0:0:0:0:
258,317,138892,6,0,L|322:309,1,64.9999970245363,2|0,0:2|0:0,0:0:0:0:
485,362,139226,2,0,L|421:354,1,64.9999970245363
310,203,139559,1,2,0:2:0:0:
373,54,139726,2,0,L|369:144,1,64.9999970245363
389,200,140059,1,0,0:0:0:0:
278,0,140226,6,0,L|274:84,1,64.9999970245363,2|0,0:2|0:0,0:0:0:0:
232,190,140559,1,0,0:0:0:0:
191,49,140726,1,0,0:0:0:0:
76,237,140892,2,0,P|28:237|-12:213,1,64.9999970245363,2|0,0:2|0:0,0:0:0:0:
51,325,141226,2,0,P|99:325|139:349,1,64.9999970245363
188,373,141559,6,0,P|228:381|360:281,1,200,2|0,0:2|0:0,0:0:0:0:
214,208,142892,2,0,P|190:259|271:224,1,200,2|0,0:2|0:0,0:0:0:0:
153,131,144226,2,0,B|245:98|265:148|350:125,1,200,2|0,0:2|0:0,0:0:0:0:
350,124,146226,5,0,0:0:0:0:
397,47,146893,6,0,P|437:119|365:215,1,200,2|0,0:2|0:0,0:0:0:0:
233,300,148226,2,0,B|318:267|354:321|441:284,1,200,2|0,0:2|0:0,0:0:0:0:
176,206,149559,6,0,P|136:278|176:390,1,200,2|0,0:2|0:0,0:0:0:0:
279,330,150892,2,0,P|205:300|275:260,1,200,2|0,0:2|0:0,0:0:0:0:
384,256,152226,6,0,P|416:216|384:64,1,200,2|0,0:2|0:0,0:0:0:0:
137,174,153559,2,0,B|222:141|258:195|345:158,1,200,2|0,0:2|0:0,0:0:0:0:
129,364,154892,6,0,P|169:340|194:278,1,100,2|0,0:2|0:0,0:0:0:0:
192,293,155392,1,0,0:0:0:0:
74,194,155559,2,0,P|72:221|149:287,1,100,2|0,0:2|0:0,0:0:0:0:
252,176,156226,2,0,B|206:148|153:174|153:174|134:124|76:109,1,200,2|0,0:2|0:0,0:0:0:0:
144,24,157559,6,0,P|224:72|320:8,1,200,2|0,0:2|0:0,0:0:0:0:
402,71,158892,2,0,B|435:156|381:192|418:279,1,200,2|0,0:2|0:0,0:0:0:0:
462,362,160226,2,0,P|382:314|286:378,1,200,2|0,0:2|0:0,0:0:0:0:
216,336,161559,6,0,P|224:280|179:214,1,140
104,200,162892,5,2,0:2:0:0:
84,203,163059,1,0,0:0:0:0:
14,153,163226,1,0,0:0:0:0:
109,106,163392,5,2,0:2:0:0:
129,109,163559,1,0,0:0:0:0:
148,36,163726,1,0,0:0:0:0:
237,87,163892,5,2,0:2:0:0:
232,55,164059,1,0,0:0:0:0:
309,138,164226,5,0,0:0:0:0:
336,63,164392,1,2,0:2:0:0:
403,126,164559,1,0,0:0:0:0:
408,102,164726,1,0,0:0:0:0:
485,174,164892,5,2,0:2:0:0:
480,144,165059,1,0,0:0:0:0:
425,257,165226,1,0,0:0:0:0:
406,179,165392,1,0,0:0:0:0:
318,330,165559,5,2,0:2:0:0:
337,327,165726,1,0,0:2:0:0:
277,194,165893,1,0,0:0:0:0:
274,212,166059,5,2,0:2:0:0:
190,198,166226,1,0,0:0:0:0:
200,293,166392,1,0,0:0:0:0:
109,271,166559,5,2,0:2:0:0:
102,253,166726,1,0,0:0:0:0:
94,234,166893,1,0,0:0:0:0:
26,318,167059,5,2,0:2:0:0:
97,348,167226,1,0,0:0:0:0:
103,373,167393,1,0,0:0:0:0:
19,204,167559,5,2,0:2:0:0:
0,201,167726,1,0,0:0:0:0:
131,172,167892,5,0,0:0:0:0:
111,139,168059,1,0,0:0:0:0:
224,88,168226,5,2,0:2:0:0:
218,70,168393,1,0,0:0:0:0:
266,0,168560,1,0,0:0:0:0:
295,144,168726,5,2,0:2:0:0:
300,129,168893,1,0,0:0:0:0:
349,69,169060,1,0,0:0:0:0:
372,193,169226,5,2,0:2:0:0:
376,172,169393,1,0,0:0:0:0:
445,247,169559,5,2,0:2:0:0:
472,165,169726,1,0,0:0:0:0:
380,319,169892,1,0,0:0:0:0:
375,291,170059,1,0,0:0:0:0:
299,289,170226,5,2,0:2:0:0:
304,248,170392,1,0,0:0:0:0:
221,277,170559,1,0,0:0:0:0:
218,261,170725,1,0,0:0:0:0:
106,236,170892,5,2,0:2:0:0:
84,233,171059,1,0,0:2:0:0:
62,230,171226,1,0,0:0:0:0:
136,146,171392,5,2,0:2:0:0:
127,125,171559,1,0,0:0:0:0:
119,104,171726,1,0,0:0:0:0:
211,57,171892,5,2,0:2:0:0:
209,39,172059,1,0,0:0:0:0:
289,46,172226,1,0,0:0:0:0:
293,20,172392,5,2,0:2:0:0:
359,104,172559,1,0,0:0:0:0:
379,20,172726,1,0,0:0:0:0:
442,177,172892,5,2,0:2:0:0:
446,148,173059,1,0,0:0:0:0:
488,336,173226,6,0,L|454:329,1,20,2|0,0:2|0:0,0:0:0:0:
304,360,173559,6,0,L|364:350,1,40,2|0,0:2|0:0,0:0:0:0:
253,297,173892,1,0,0:0:0:0:
184,192,174059,2,0,L|177:253,1,40,0|8,0:0|0:2,0:0:0:0:
177,250,174392,1,0,0:0:0:0:
123,361,174559,2,0,L|116:300,1,40,2|0,0:2|0:0,0:0:0:0:
8,240,174892,6,0,L|67:248,1,40,2|0,0:2|0:0,0:0:0:0:
60,248,175226,1,0,0:0:0:0:
112,128,175392,2,0,L|72:133,1,40,0|8,0:0|0:2,0:0:0:0:
56,137,175726,1,0,0:0:0:0:
200,32,175893,2,0,L|194:86,1,40,2|0,0:2|0:0,0:0:0:0:
306,169,176226,6,0,L|301:129,1,40
378,23,176559,2,0,L|373:62,1,40
271,247,176892,2,0,L|327:239,1,40,8|0,0:2|0:0,0:0:0:0:
445,325,177226,2,0,L|389:317,1,40,2|0,0:2|0:0,0:0:0:0:
198,365,177559,6,0,L|254:357,1,40,2|0,0:2|0:0,0:0:0:0:
255,357,177892,1,0,0:0:0:0:
464,242,178059,2,0,L|408:234,1,40,2|8,0:2|0:2,0:0:0:0:
407,234,178392,1,0,0:0:0:0:
293,77,178559,2,0,L|298:129,1,40
187,242,178892,6,0,L|192:190,1,40
167,23,179226,2,0,L|172:75,1,40,2|0,0:2|0:0,0:0:0:0:
173,78,179559,1,8,0:2:0:0:
60,17,179726,1,0,0:0:0:0:
4,179,179892,2,0,L|47:172,1,40
152,297,180226,6,0,L|153:240,1,40,2|0,0:2|0:0,0:0:0:0:
153,237,180559,1,0,0:0:0:0:
333,296,180726,2,0,L|278:283,1,40,2|8,0:2|0:2,0:0:0:0:
275,283,181059,1,0,0:0:0:0:
432,219,181226,2,0,L|436:269,1,40,2|0,0:2|0:0,0:0:0:0:
376,136,181559,6,0,L|372:96,1,40
370,79,181892,1,0,0:0:0:0:
256,184,182059,2,0,L|259:144,1,40,0|8,0:0|0:2,0:0:0:0:
260,127,182392,1,0,0:0:0:0:
172,27,182559,2,0,L|175:66,1,40
71,197,182892,6,0,L|74:157,1,40
76,141,183226,1,0,0:0:0:0:
194,327,183392,2,0,L|190:287,1,40,0|8,0:0|0:2,0:0:0:0:
189,271,183726,1,0,0:0:0:0:
302,215,183893,2,0,L|298:253,1,30
280,336,184226,6,0,L|381:327,1,75.0000028610231,2|0,0:2|0:0,0:0:0:0:
497,299,184559,2,0,L|400:287,1,75.0000028610231
390,101,184892,2,0,L|406:213,1,112.500004291535,2|0,0:2|0:0,0:0:0:0:
445,155,185226,2,0,L|461:43,1,112.500004291535
321,123,185559,6,0,P|270:134|222:110,1,75.0000028610231,2|0,0:2|0:0,0:0:0:0:
115,210,185892,2,0,P|149:171|152:117,1,75.0000028610231
30,337,186226,1,2,0:2:0:0:
64,135,186392,1,0,0:0:0:0:
119,282,186559,2,0,P|118:217|95:187,1,75.0000028610231
30,337,186893,6,0,B|136:302|143:374|259:328,1,225.000008583069,2|0,0:2|0:0,0:0:0:0:
316,244,187559,1,2,0:2:0:0:
398,384,187726,2,0,L|394:301,1,75.0000028610231
439,246,188059,1,0,0:0:0:0:
290,273,188226,5,2,0:2:0:0:
445,139,188392,2,0,P|408:142|373:155,1,75.0000028610231
305,195,188726,1,0,0:0:0:0:
224,16,188892,2,0,L|231:141,1,112.500004291535,2|0,0:2|0:0,0:0:0:0:
171,195,189226,2,0,L|178:75,1,112.500004291535
106,255,189559,5,2,0:2:0:0:
87,130,189726,1,0,0:0:0:0:
242,204,189893,2,0,P|206:190|149:206,1,75.0000028610231
333,354,190226,2,0,L|344:215,1,112.500004291535,2|0,0:2|0:0,0:0:0:0:
382,173,190559,2,0,L|393:312,1,112.500004291535
310,139,190892,6,0,L|321:55,1,75.0000028610231,2|0,0:2|0:0,0:0:0:0:
260,1,191226,1,0,0:0:0:0:
233,110,191392,1,0,0:0:0:0:
153,27,191559,5,2,0:2:0:0:
178,204,191726,1,0,0:0:0:0:
88,127,191892,2,0,L|80:230,1,75.0000028610231
226,60,192226,6,0,P|357:33|429:121,1,225.000008583069,2|0,0:2|0:0,0:0:0:0:
406,213,192892,1,2,0:2:0:0:
496,49,193059,2,0,P|508:93|501:143,1,75.0000028610231
486,200,193392,1,0,0:0:0:0:
325,196,193559,6,0,P|328:233|342:268,1,75.0000028610231,2|0,0:2|0:0,0:0:0:0:
455,34,193892,1,0,0:0:0:0:
486,200,194059,1,8,2:3:0:0:
455,34,194226,2,0,P|417:39|357:83,1,112.500004291535,2|0,0:2|0:0,0:0:0:0:
263,82,194559,2,0,P|317:94|360:129,1,112.500004291535,8|0,2:3|0:0,0:0:0:0:
319,384,194892,6,0,P|331:348|335:285,1,75.0000028610231,2|0,0:2|0:0,0:0:0:0:
279,172,195226,2,0,P|280:211|293:264,1,75.0000028610231
467,384,195559,1,2,0:2:0:0:
432,242,195726,2,0,P|470:238|507:244,1,75.0000028610231
335,311,196059,1,0,0:0:0:0:
426,167,196226,6,0,L|434:255,1,75.0000028610231,2|0,0:2|0:0,0:0:0:0:
335,120,196559,2,0,L|341:45,1,75.0000028610231
207,179,196893,2,0,P|135:195|79:181,1,112.500004291535,2|0,0:2|0:0,0:0:0:0:
51,125,197226,2,0,P|67:197|53:253,1,112.500004291535
24,328,197559,6,0,B|144:298|126:368|258:328,1,225.000008583069,2|0,0:2|0:0,0:0:0:0:
349,297,198226,1,2,0:2:0:0:
259,107,198392,2,0,L|269:203,1,75.0000028610231
276,257,198726,1,0,0:0:0:0:
346,92,198892,5,2,0:2:0:0:
425,190,199059,2,0,L|433:100,1,75.0000028610231
476,57,199392,1,0,0:0:0:0:
287,13,199559,2,0,L|280:132,1,112.500004291535,2|0,0:2|0:0,0:0:0:0:
241,186,199893,2,0,L|233:67,1,112.500004291535
133,218,200226,6,0,P|85:186|71:146,1,75.0000028610231,2|0,0:2|0:0,0:0:0:0:
67,44,200559,2,0,P|100:60|122:89,1,75.0000028610231
232,64,200892,2,0,L|242:185,1,112.500004291535,2|0,0:2|0:0,0:0:0:0:
278,255,201226,2,0,L|288:134,1,112.500004291535
346,19,201559,5,2,0:2:0:0:
455,133,201726,2,0,L|367:125,1,75.0000028610231
499,66,202059,1,0,0:0:0:0:
465,302,202226,2,0,L|457:215,1,75.0000028610231,2|0,0:2|0:0,0:0:0:0:
380,126,202559,2,0,L|372:213,1,75.0000028610231
316,294,202892,1,2,0:2:0:0:
256,192,203059,12,0,205392,0:0:0:0:
452,231,205559,6,0,P|402:233|342:289,1,112.500004291535,2|0,0:2|0:0,0:0:0:0:
323,341,205892,1,0,0:0:0:0:
288,176,206059,1,0,0:0:0:0:
232,384,206226,2,0,L|224:296,1,75.0000028610231,2|0,0:2|0:0,0:0:0:0:
161,155,206559,2,0,L|153:243,1,75.0000028610231
0,344,206893,6,0,P|72:360|120:328,1,112.500004291535,2|0,0:2|0:0,0:0:0:0:
119,313,207226,2,0,P|191:329|239:297,1,112.500004291535
265,211,207559,2,0,P|248:178|251:141,1,75.0000028610231,2|0,0:2|0:0,0:0:0:0:
303,45,207892,1,0,0:0:0:0:
334,161,208059,1,0,0:0:0:0:
78,142,208226,6,0,P|134:182|206:166,1,112.500004291535,2|0,0:2|0:0,0:0:0:0:
211,18,208559,1,0,0:0:0:0:
153,104,208726,1,0,0:0:0:0:
350,5,208893,2,0,L|346:90,1,75.0000028610231,2|0,0:2|0:0,0:0:0:0:
438,223,209226,2,0,L|434:138,1,75.0000028610231
269,304,209559,6,0,P|309:280|397:299,1,112.500004291535,2|0,0:2|0:0,0:0:0:0:
438,223,209893,2,0,P|398:199|310:218,1,112.500004291535
190,189,210226,2,0,P|239:179|271:139,1,75.0000028610231,2|0,0:2|0:0,0:0:0:0:
167,97,210559,1,0,0:0:0:0:
145,263,210726,1,0,0:0:0:0:
45,113,210892,5,2,0:2:0:0:
25,107,211059,1,0,0:0:0:0:
115,47,211226,2,0,P|158:80|175:126,1,75.0000028610231
92,313,211559,2,0,P|113:282|145:262,1,75.0000028610231,2|0,0:2|0:0,0:0:0:0:
244,326,211892,1,0,0:0:0:0:
231,190,212059,1,0,0:0:0:0:
394,281,212226,6,0,L|298:265,1,75.0000028610231,2|0,0:2|0:0,0:0:0:0:
386,52,212559,2,0,L|394:180,1,112.500004291535
478,334,212892,2,0,L|487:234,1,75.0000028610231,2|0,0:2|0:0,0:0:0:0:
481,85,213226,1,0,0:0:0:0:
393,164,213392,1,0,0:0:0:0:
304,96,213559,6,0,P|261:90|216:112,1,75.0000028610231,2|0,0:2|0:0,0:0:0:0:
176,184,213892,1,0,0:0:0:0:
92,69,214059,1,0,0:0:0:0:
59,303,214226,2,0,L|51:204,1,75.0000028610231,2|0,0:2|0:0,0:0:0:0:
103,169,214559,1,0,0:0:0:0:
250,323,214726,5,8,0:2:0:0:
250,323,214809,1,8,0:2:0:0:
250,323,214892,2,0,L|258:259,1,37.5000014305115,10|0,0:2|0:0,0:0:0:0:
290,140,215059,2,0,L|301:207,1,37.5000014305115,8|0,0:2|0:0,0:0:0:0:
162,352,215226,1,0,0:0:0:0:
141,138,215392,1,8,2:3:0:0:
162,352,215559,2,0,L|150:256,1,75.0000028610231,2|0,0:2|0:0,0:0:0:0:
41,239,215892,1,8,2:3:0:0:
51,374,216059,1,0,0:0:0:0:
231,183,216226,6,0,L|243:260,1,75.0000028610231,2|0,0:2|0:0,0:0:0:0:
313,138,216559,1,0,0:0:0:0:
315,116,216726,1,0,0:0:0:0:
448,18,216892,2,0,L|461:142,1,112.500004291535,2|0,0:2|0:0,0:0:0:0:
409,196,217226,2,0,L|416:77,1,112.500004291535
353,248,217559,5,2,0:2:0:0:
330,115,217726,1,0,0:0:0:0:
261,197,217892,1,0,0:0:0:0:
256,226,218059,1,0,0:0:0:0:
62,135,218226,2,0,P|70:183|102:223,1,75.0000028610231,2|0,0:2|0:0,0:0:0:0:
178,228,218559,2,0,P|170:180|138:140,1,75.0000028610231
107,337,218892,6,0,L|190:326,1,75.0000028610231,2|0,0:2|0:0,0:0:0:0:
62,135,219226,2,0,L|52:248,1,112.500004291535
207,143,219559,2,0,L|199:45,1,75.0000028610231,2|0,0:2|0:0,0:0:0:0:
288,0,219892,2,0,L|280:85,1,75.0000028610231
343,261,220226,6,0,L|353:163,1,75.0000028610231,2|0,0:2|0:0,0:0:0:0:
406,92,220559,1,0,0:0:0:0:
409,116,220726,1,0,0:0:0:0:
490,0,220892,2,0,L|482:96,1,75.0000028610231,2|0,0:2|0:0,0:0:0:0:
473,183,221226,1,0,0:0:0:0:
394,27,221392,1,0,0:0:0:0:
289,226,221559,6,0,P|323:212|351:186,1,75.0000028610231,2|0,0:2|0:0,0:0:0:0:
234,300,221892,1,0,0:0:0:0:
216,184,222059,1,0,0:0:0:0:
131,366,222226,2,0,L|146:250,1,112.500004291535,2|0,0:2|0:0,0:0:0:0:
60,181,222559,2,0,L|72:278,1,75.0000028610231
224,373,222892,6,0,L|235:279,1,75.0000028610231,2|0,0:2|0:0,0:0:0:0:
271,189,223226,1,0,0:0:0:0:
270,169,223392,1,0,0:0:0:0:
490,201,223559,2,0,P|449:208|403:192,1,75.0000028610231,2|0,0:2|0:0,0:0:0:0:
449,42,223892,2,0,L|458:142,1,75.0000028610231
485,314,224226,6,0,L|489:363,1,50,2|0,0:2|0:0,0:0:0:0:
457,149,224559,1,0,0:0:0:0:
512,235,224726,1,0,0:0:0:0:
359,261,224893,2,0,P|396:261|419:253,1,50,2|0,0:2|0:0,0:0:0:0:
320,171,225226,1,0,0:0:0:0:
317,342,225392,5,8,0:2:0:0:
317,342,225476,1,8,0:2:0:0:
317,342,225559,1,10,0:2:0:0:
256,96,225726,1,8,0:2:0:0:
176,280,225892,1,0,0:0:0:0:
298,178,226059,1,0,0:0:0:0:
10,157,226226,2,0,P|47:145|105:149,1,75.0000028610231,2|0,0:2|0:0,0:0:0:0:
175,195,226559,1,0,0:0:0:0:
302,65,226892,6,0,B|251:50|206:72|181:115|181:115|142:38|47:53,1,300.000011444092,2|0,0:2|0:0,0:0:0:0:
464,95,228226,2,0,B|485:47|429:7|389:16|346:65|334:140|404:191|477:187,1,300.000011444092,2|0,0:2|0:0,0:0:0:0:
301,370,229559,2,0,B|351:322|312:276|337:218|337:218|396:267|467:266|467:266|421:288|369:273,1,400,2|0,0:2|0:0,0:0:0:0:
289,346,231559,6,0,P|206:358|150:318,1,150.000005722046
110,162,232226,2,0,B|182:178|174:251|230:282|230:282|226:213|279:169,1,300.000011444092,2|0,0:2|0:0,0:0:0:0:
53,111,233559,2,0,B|27:154|38:201|38:201|-13:136|-8:51|68:6,1,300.000011444092,2|0,0:2|0:0,0:0:0:0:
401,69,234893,6,0,B|336:97|288:44|288:44|237:45|200:92|200:92|181:60|144:52,1,300.000011444092,2|0,0:2|0:0,0:0:0:0:
466,165,236226,2,0,P|386:197|501:211,1,300.000011444092,2|0,0:2|0:0,0:0:0:0:
254,259,237559,6,0,B|244:311|296:327|288:388|288:388|354:326|440:364,1,300.000011444092,2|0,0:2|0:0,0:0:0:0:
43,349,238893,2,0,B|112:306|184:347|184:347|144:271|192:184,1,300.000011444092,2|0,0:2|0:0,0:0:0:0:
56,88,240226,6,0,P|48:128|64:184,1,100,2|0,0:2|0:0,0:0:0:0:
195,119,240892,2,0,P|203:79|187:23,1,100,2|0,0:2|0:0,0:0:0:0:
312,120,241559,2,0,P|366:131|455:31,1,200,2|0,0:2|0:0,0:0:0:0:
440,251,242892,6,0,B|322:297|272:192|120:242,1,300.000011444092,2|0,0:2|0:0,0:0:0:0:
60,316,244226,2,0,B|141:350|169:294|257:324,1,200,2|0,0:2|0:0,0:0:0:0:
109,163,245559,6,0,L|113:238,1,75,2|0,0:2|0:0,0:0:0:0:
208,314,248226,6,0,L|202:198,1,100,2|0,0:2|0:0,0:0:0:0:
202,214,248892,1,8,0:2:0:0:
125,23,249559,6,0,L|119:139,1,100,2|0,0:2|0:0,0:0:0:0:
119,122,250226,1,8,0:2:0:0:
32,296,250893,5,2,0:2:0:0:
51,295,251226,1,0,0:0:0:0:
168,368,251559,1,8,0:2:0:0:
368,336,252559,5,0,0:0:0:0:
424,176,252892,1,8,0:2:0:0:
456,256,253226,1,0,0:0:0:0:
456,256,253392,2,0,P|384:252|380:98,1,250,0|8,0:0|0:2,0:0:0:0:
223,34,254892,6,0,P|295:38|223:82,1,200,2|8,0:2|0:2,0:0:0:0:
149,61,255726,1,0,0:0:0:0:
142,53,256226,5,2,0:2:0:0:
104,224,256726,1,0,0:0:0:0:
88,136,256892,1,8,0:2:0:0:
91,317,257559,6,0,B|147:325|181:302|181:302|219:325|246:312,1,150.000005722046,2|8,0:2|0:2,0:0:0:0:
234,315,258559,1,0,0:0:0:0:
355,205,258893,6,0,L|361:311,1,100,2|0,0:2|0:0,0:0:0:0:
355,205,259559,1,8,0:2:0:0:
447,143,260226,6,0,L|441:37,1,100,2|0,0:2|0:0,0:0:0:0:
447,143,260892,5,8,0:2:0:0:
478,73,261059,1,0,0:0:0:0:
467,227,261392,5,0,0:0:0:0:
391,269,261559,2,0,L|383:335,2,50,2|0|0,0:2|0:0|0:0,0:0:0:0:
320,213,262059,1,0,0:0:0:0:
218,110,262226,2,0,L|226:38,1,50,8|0,0:2|0:0,0:0:0:0:
208,220,262559,2,0,L|216:292,1,50
162,364,262892,5,2,0:2:0:0:
126,286,263059,1,0,0:0:0:0:
23,366,263226,1,0,0:0:0:0:
244,336,263559,1,8,0:2:0:0:
241,322,263893,6,0,L|235:290,3,25,8|8|8|8,0:2|0:2|0:2|0:2,0:0:0:0:
377,310,264226,5,2,0:2:0:0:
343,313,264559,1,0,0:0:0:0:
396,136,264892,1,8,0:2:0:0:
429,139,265226,1,0,0:0:0:0:
206,212,265559,5,2,0:2:0:0:
172,215,265892,1,0,0:0:0:0:
100,21,266226,1,8,0:2:0:0:
132,26,266559,1,0,0:0:0:0:
304,64,266893,5,2,0:2:0:0:
288,112,267059,1,0,0:0:0:0:
304,160,267226,1,0,0:0:0:0:
288,208,267392,1,0,0:0:0:0:
389,339,267559,5,10,0:2:0:0:
409,276,267726,1,0,0:0:0:0:
389,214,267893,1,0,0:0:0:0:
409,151,268059,1,0,0:0:0:0:
288,310,268226,5,0,0:0:0:0:
158,185,268392,5,8,2:3:0:0:
149,147,268476,1,8,2:3:0:0:
139,104,268559,1,8,2:3:0:0:
210,309,268726,5,8,2:3:0:0:
219,261,268809,1,8,2:3:0:0:
229,213,268892,2,0,L|241:149,1,60,8|0,0:2|0:0,0:0:0:0:
96,63,269559,6,0,P|145:52|195:54,2,100,2|0|0,0:2|0:0|0:0,0:0:0:0:
320,248,270059,1,0,0:0:0:0:
368,16,270226,2,0,L|378:133,1,100,8|0,0:2|0:0,0:0:0:0:
431,296,270559,1,0,0:0:0:0:
488,136,270726,1,0,0:0:0:0:
223,251,270892,6,0,P|287:259|335:238,1,100
224,112,271226,1,2,0:2:0:0:
160,368,271392,1,0,0:0:0:0:
28,180,271559,2,0,P|80:160|143:176,1,100,8|0,0:2|0:0,0:0:0:0:
319,247,271892,2,0,P|271:260|223:251,1,100
370,54,272226,6,0,L|379:169,2,100,2|0|0,0:2|0:0|0:0,0:0:0:0:
368,34,272726,1,0,0:0:0:0:
477,226,272892,2,0,L|490:126,1,100,8|0,0:2|0:0,0:0:0:0:
458,343,273226,1,0,0:0:0:0:
389,233,273392,1,0,0:0:0:0:
177,310,273559,6,0,L|320:296,1,100
144,49,273892,1,2,0:2:0:0:
99,239,274059,2,0,L|84:109,1,100,0|8,0:0|0:2,0:0:0:0:
235,9,274392,1,0,0:0:0:0:
325,113,274559,2,0,L|204:102,1,100
413,190,274892,6,0,P|424:141|422:91,2,100,2|0|0,0:2|0:0|0:0,0:0:0:0:
440,312,275392,1,0,0:0:0:0:
304,208,275559,2,0,P|256:222|213:249,1,100,8|0,0:2|0:0,0:0:0:0:
192,368,275892,1,0,0:0:0:0:
152,160,276059,1,0,0:0:0:0:
33,335,276226,6,0,P|80:320|122:293,2,100,0|0|2,0:0|0:0|0:2,0:0:0:0:
104,136,276726,1,0,0:0:0:0:
192,368,276892,1,8,0:2:0:0:
218,248,277059,1,0,0:0:0:0:
408,346,277226,2,0,P|358:343|310:329,1,100
185,9,277559,6,0,L|177:113,1,100,2|0,0:2|0:0,0:0:0:0:
292,197,277892,1,0,0:0:0:0:
271,60,278059,1,0,0:0:0:0:
183,281,278226,1,8,0:2:0:0:
194,182,278392,1,0,0:0:0:0:
0,223,278559,6,0,L|104:215,1,100
119,215,278892,1,0,0:0:0:0:
392,266,279059,2,0,L|288:258,1,100,0|2,0:0|0:2,0:0:0:0:
271,256,279392,1,0,0:0:0:0:
15,366,279559,2,0,P|92:340|195:366,1,150,8|0,0:2|0:0,0:0:0:0:
175,360,279892,1,0,0:0:0:0:
170,226,280059,1,0,0:0:0:0:
317,370,280226,6,0,P|327:320|359:265,2,100,2|0|0,0:2|0:0|0:0,0:0:0:0:
440,240,280726,1,0,0:0:0:0:
170,226,280892,2,0,L|270:218,1,100,8|0,0:2|0:0,0:0:0:0:
336,82,281226,1,0,0:0:0:0:
369,176,281392,1,0,0:0:0:0:
199,20,281559,6,0,P|156:46|123:84,1,100
92,325,281892,1,2,0:2:0:0:
29,222,282059,1,0,0:0:0:0:
267,361,282226,2,0,L|255:249,1,100,8|0,0:2|0:0,0:0:0:0:
319,96,282559,2,0,L|307:208,1,100
401,355,282892,6,0,P|448:370|497:367,2,100,2|0|0,0:2|0:0|0:0,0:0:0:0:
383,345,283392,1,0,0:0:0:0:
439,89,283559,2,0,L|449:188,1,100,8|0,0:2|0:0,0:0:0:0:
343,1,283892,1,0,0:0:0:0:
316,132,284059,1,0,0:0:0:0:
150,41,284226,6,0,L|293:55,1,100
117,302,284559,1,2,0:2:0:0:
72,112,284726,2,0,L|57:242,1,100,0|8,0:0|0:2,0:0:0:0:
208,342,285059,1,0,0:0:0:0:
298,238,285226,2,0,L|177:249,1,100
393,286,285559,6,0,P|394:335|383:384,2,100,2|0|0,0:2|0:0|0:0,0:0:0:0:
387,269,286059,1,0,0:0:0:0:
455,59,286226,2,0,L|467:159,1,100,8|0,0:2|0:0,0:0:0:0:
370,14,286559,1,0,0:0:0:0:
383,142,286726,1,0,0:0:0:0:
249,73,286892,6,0,P|190:72|134:89,2,100,0|0|2,0:0|0:0|0:2,0:0:0:0:
301,135,287392,1,0,0:0:0:0:
174,376,287559,2,0,L|166:276,1,100,8|0,0:2|0:0,0:0:0:0:
79,131,287892,2,0,L|71:230,1,100
201,85,288226,5,2,0:2:0:0:
153,70,288392,1,0,0:0:0:0:
103,73,288559,1,0,0:0:0:0:
304,158,288726,5,0,0:0:0:0:
292,108,288892,1,8,0:2:0:0:
258,143,289059,1,0,0:0:0:0:
342,248,289226,5,0,0:0:0:0:
379,213,289392,1,0,0:0:0:0:
401,169,289559,1,0,0:0:0:0:
227,278,289726,5,0,0:0:0:0:
276,293,289892,1,0,0:0:0:0:
262,244,290059,1,0,0:0:0:0:
168,196,290226,5,8,0:2:0:0:
176,360,290392,1,0,0:0:0:0:
99,242,290559,5,0,0:0:0:0:
103,324,290725,1,0,0:0:0:0:
31,288,290893,6,0,P|22:218|132:166,1,200,2|8,0:2|0:2,0:0:0:0:
205,197,292226,2,0,P|269:196|317:84,1,200,2|8,0:2|0:2,0:0:0:0:
241,122,293559,2,0,L|448:107,1,200,2|8,0:2|0:2,0:0:0:0:
440,107,295559,5,8,0:2:0:0:
416,208,295892,2,0,L|420:239,3,16.6666666666667,8|8|8|8,0:2|0:2|0:2|0:2,0:0:0:0:
368,312,296226,6,0,P|336:256|240:320,1,200,2|8,0:2|0:2,0:0:0:0:
239,320,297559,2,0,B|153:292|135:350|34:316,1,200,2|8,0:2|0:2,0:0:0:0:
154,220,298893,6,0,P|90:251|24:211,1,150,2|0,0:2|0:0,0:0:0:0:
10,137,299559,1,8,0:2:0:0:
93,152,300226,2,0,P|207:131|249:213,1,200,2|8,0:2|0:2,0:0:0:0:
292,282,301226,2,0,L|288:310,3,16.6666666666667,8|8|8|8,0:2|0:2|0:2|0:2,0:0:0:0:
352,192,301559,5,2,0:2:0:0:
374,191,301892,1,0,0:0:0:0:
392,118,302226,2,0,L|377:11,1,100,8|0,0:2|0:0,0:0:0:0:
488,52,302892,6,0,L|475:151,1,100,2|0,0:2|0:0,0:0:0:0:
474,352,303559,2,0,L|460:238,1,100,8|0,0:2|0:0,0:0:0:0:
348,292,304226,6,0,P|308:276|207:316,1,150,2|0,0:2|0:0,0:0:0:0:
211,310,304892,2,0,P|146:344|74:328,1,150,2|0,0:2|0:0,0:0:0:0:
74,328,305559,1,2,0:2:0:0:
136,259,306226,5,8,0:2:0:0:
79,177,306559,2,0,L|77:153,3,16.6666666666667,8|8|8|8,0:2|0:2|0:2|0:2,0:0:0:0:
164,99,306892,6,0,P|224:78|206:110,1,150.000005722046,2|8,0:2|0:2,0:0:0:0:
383,115,308226,2,0,P|322:94|340:126,1,150.000005722046,2|8,0:2|0:2,0:0:0:0:
437,198,309559,6,0,P|366:228|321:209,1,112.500004291535,2|0,0:2|0:0,0:0:0:0:
297,149,310226,1,8,0:2:0:0:
208,80,310726,6,0,L|216:168,1,75.0000028610231
214,154,311226,1,0,0:0:0:0:
176,226,311559,1,8,0:2:0:0:
121,303,311892,2,0,L|119:326,3,12.5000004768372,8|8|8|8,0:2|0:2|0:2|0:2,0:0:0:0:
256,192,312226,12,0,316226,0:0:0:0:
