osu file format v14

[General]
AudioFilename: audio.mp3
AudioLeadIn: 0
PreviewTime: 89361
Countdown: 0
SampleSet: None
StackLeniency: 0.7
Mode: 0
LetterboxInBreaks: 0
WidescreenStoryboard: 0

[Editor]
Bookmarks: 25400,68067,89401,113401,134734,156067,177401
DistanceSpacing: 1.3
BeatDivisor: 12
GridSize: 4
TimelineZoom: 1

[Metadata]
Title:Fireflies
TitleUnicode:Fireflies
Artist:Owl City
ArtistUnicode:Owl City
Creator:Arphimigon
Version:Surreal Sleep
Source:
Tags:low bpm pop electronica Adam Young
BeatmapID:1196449
BeatmapSetID:565702

[Difficulty]
HPDrainRate:6
CircleSize:4.5
OverallDifficulty:6
ApproachRate:7
SliderMultiplier:2.4
SliderTickRate:2

[Events]
//Background and Video events
0,0,"nootlight.jpg",0,0
//Break Periods
2,46934,67167
2,110934,112501
//Storyboard Layer 0 (Background)
//Storyboard Layer 1 (Fail)
//Storyboard Layer 2 (Pass)
//Storyboard Layer 3 (Foreground)
//Storyboard Sound Samples

[TimingPoints]
25401,666.666666666667,4,3,0,30,1,0
89401,-83.3333333333333,4,3,0,40,0,1
110734,-100,4,3,0,30,0,0
156067,-83.3333333333333,4,3,0,40,0,1
177401,-76.9230769230769,4,3,0,40,0,1
198734,-83.3333333333333,4,3,0,40,0,0

[Colours]
Combo1 : 0,255,0
Combo2 : 0,0,160
Combo3 : 225,225,0

[HitObjects]
256,192,25400,5,4,0:3:0:0:
172,112,25734,1,0,0:0:0:0:
171,112,25900,2,0,P|142:115|113:108,1,60,0|8,0:0|0:3,0:0:0:0:
55,46,26234,2,0,P|31:90|47:162,1,120,0|0,0:0|0:0,0:0:0:0:
81,224,26734,2,0,P|105:268|89:340,1,120,0|0,0:0|0:0,0:0:0:0:
204,236,27400,2,0,P|319:248|382:345,1,240,8|4,0:3|0:3,0:0:0:0:
470,231,28400,5,0,0:0:0:0:
470,231,28567,2,0,L|465:163,2,60,0|8|0,0:0|0:3|0:0,0:0:0:0:
475,308,29067,1,0,0:0:0:0:
344,249,29400,1,0,0:0:0:0:
465,171,29734,1,0,0:0:0:0:
334,112,30067,2,0,L|269:109,1,60,8|0,0:3|0:0,0:0:0:0:
206,74,30400,2,0,L|141:71,1,60,0|0,0:0|0:0,0:0:0:0:
84,27,30734,5,4,0:3:0:0:
128,164,31067,2,0,P|130:223|113:280,1,120,0|8,0:0|0:3,0:0:0:0:
214,340,31734,1,0,0:0:0:0:
214,340,31900,2,0,P|211:280|228:223,1,120,0|0,0:0|0:0,0:0:0:0:
280,160,32400,1,0,0:0:0:0:
396,267,32734,1,8,0:3:0:0:
396,266,32900,2,0,P|406:208|402:148,1,120,0|0,0:0|0:0,0:0:0:0:
378,71,33400,5,4,0:3:0:0:
245,44,33734,2,0,P|241:74|244:104,1,60,0|0,0:0|0:0,0:0:0:0:
265,174,34067,1,8,0:3:0:0:
148,288,34567,1,0,0:0:0:0:
148,288,34734,2,0,L|80:283,2,60,0|0|0,0:0|0:0|0:0,0:0:0:0:
215,322,35234,1,0,0:0:0:0:
285,298,35400,1,8,0:3:0:0:
285,298,35734,1,0,0:0:0:0:
285,298,36067,5,4,0:3:0:0:
414,229,36400,1,0,0:0:0:0:
414,229,36567,2,0,P|414:163|407:143,1,60,0|8,0:0|0:3,0:0:0:0:
377,101,36900,2,0,P|308:131|251:120,1,120,0|0,0:0|0:0,0:0:0:0:
207,73,37400,2,0,P|227:128|217:186,1,120,0|0,0:0|0:0,0:0:0:0:
68,139,38067,2,0,P|47:194|57:252,1,120,8|0,0:3|0:0,0:0:0:0:
189,336,38734,5,4,0:3:0:0:
256,297,38900,1,0,0:0:0:0:
256,297,39067,2,0,P|285:303|315:301,1,60,0|0,0:0|0:0,0:0:0:0:
378,256,39400,2,0,P|384:226|382:196,1,60,8|0,0:3|0:0,0:0:0:0:
332,136,39734,2,0,P|302:129|272:131,1,60,0|0,0:0|0:0,0:0:0:0:
210,177,40067,1,0,0:0:0:0:
210,177,40234,2,0,P|192:227|131:264,1,120,0|0,0:0|0:0,0:0:0:0:
61,246,40734,1,8,0:3:0:0:
52,90,41067,1,0,0:0:0:0:
26,16,41234,1,0,0:0:0:0:
101,35,41400,5,4,0:3:0:0:
101,35,41567,2,0,B|151:46|166:20|219:32,2,120,0|0|0,0:0|0:0|0:0,0:0:0:0:
230,123,42567,2,0,B|280:134|295:108|348:120,1,120,0|0,0:0|0:0,0:0:0:0:
424,138,43067,1,0,0:0:0:0:
326,259,43400,1,8,0:3:0:0:
474,210,43734,1,0,0:0:0:0:
256,192,44067,5,4,0:3:0:0:
255,191,45900,1,0,0:0:0:0:
255,191,46067,2,0,P|263:220|261:250,1,60,8|0,0:3|0:0,0:0:0:0:
191,286,46400,2,0,P|183:257|185:227,1,60,0|0,0:0|0:0,0:0:0:0:
193,149,46734,5,0,0:0:0:0:
256,61,68067,5,4,0:3:0:0:
380,156,68401,1,0,0:0:0:0:
380,156,68567,2,0,P|386:110|382:84,1,60,0|8,0:0|0:3,0:0:0:0:
459,70,68901,2,0,P|464:127|453:198,1,120,0|0,0:0|0:0,0:0:0:0:
395,238,69401,2,0,P|335:229|276:234,1,120,0|0,0:0|0:0,0:0:0:0:
143,317,70067,2,0,P|202:325|261:320,1,120,8|0,0:3|0:0,0:0:0:0:
256,164,70734,5,4,0:3:0:0:
116,95,71067,1,0,0:0:0:0:
116,95,71234,2,0,P|116:133|108:168,1,60,0|8,0:0|0:3,0:0:0:0:
47,198,71567,2,0,P|81:226|125:231,1,90
226,175,72067,2,0,P|279:172|339:201,1,120,0|0,0:0|0:0,0:0:0:0:
471,283,72734,2,0,L|462:207,1,60,8|0,0:3|0:0,0:0:0:0:
491,150,73067,2,0,L|482:74,1,60,0|0,0:0|0:0,0:0:0:0:
428,34,73401,5,4,0:3:0:0:
364,78,73567,1,0,0:0:0:0:
364,78,73734,2,0,P|318:78|293:68,1,60,0|0,0:0|0:0,0:0:0:0:
251,16,74067,2,0,P|230:52|254:134,1,120,8|0,0:3|0:0,0:0:0:0:
283,193,74567,1,0,0:0:0:0:
152,278,74901,2,0,B|131:195|183:182|158:102,1,180,0|8,0:0|0:3,0:0:0:0:
16,166,75734,1,0,0:0:0:0:
16,166,75901,1,0,0:0:0:0:
16,166,76067,6,0,L|87:155,1,60,4|0,0:3|0:0,0:0:0:0:
141,198,76401,2,0,L|212:187,1,60
274,214,76734,1,8,0:3:0:0:
409,105,77067,2,0,L|402:175,1,60,0|0,0:0|0:0,0:0:0:0:
425,240,77401,1,0,0:0:0:0:
349,220,77567,2,0,P|316:223|286:235,1,60
212,233,77901,2,0,P|225:202|230:170,1,60,0|8,0:0|0:3,0:0:0:0:
217,99,78234,2,0,P|215:69|220:39,2,60
159,153,78734,5,4,0:3:0:0:
295,91,79067,1,0,0:0:0:0:
295,91,79234,2,0,P|329:86|365:97,1,60,0|8,0:0|0:3,0:0:0:0:
414,140,79567,2,0,P|399:191|412:270,1,120,0|0,0:0|0:0,0:0:0:0:
450,321,80067,1,0,0:0:0:0:
321,232,80401,1,0,0:0:0:0:
188,315,80734,2,0,P|166:261|172:202,1,120,8|0,0:3|0:0,0:0:0:0:
231,57,81401,5,4,0:3:0:0:
275,206,81734,1,0,0:0:0:0:
275,206,81901,2,0,P|279:258|273:278,1,60,0|8,0:0|0:3,0:0:0:0:
231,328,82234,2,0,P|172:335|111:307,1,120,0|0,0:0|0:0,0:0:0:0:
93,237,82734,2,0,L|91:172,1,60,0|0,0:0|0:0,0:0:0:0:
163,148,83067,2,0,L|164:207,1,60,0|0,0:0|0:0,0:0:0:0:
242,217,83401,2,0,L|240:152,1,60,8|0,0:3|0:0,0:0:0:0:
312,128,83734,1,0,0:0:0:0:
357,189,83901,1,0,0:0:0:0:
393,114,84067,5,4,0:3:0:0:
393,114,84234,2,0,P|417:131|434:156,1,60,0|0,0:0|0:0,0:0:0:0:
420,233,84567,2,0,P|476:282|493:209,1,180
434,156,85234,1,0,0:0:0:0:
335,35,85567,1,0,0:0:0:0:
335,35,85734,2,0,L|254:36,1,60,0|0,0:0|0:0,0:0:0:0:
200,59,86067,2,0,P|210:110|196:179,1,120,8|0,0:3|0:0,0:0:0:0:
128,316,86734,5,4,0:3:0:0:
273,258,87067,2,0,P|302:257|332:262,1,60,0|0,0:0|0:0,0:0:0:0:
404,293,87401,1,8,0:3:0:0:
257,345,87734,2,0,P|227:346|197:341,1,60,0|0,0:0|0:0,0:0:0:0:
128,316,88067,1,0,0:0:0:0:
143,239,88234,1,0,0:0:0:0:
105,170,88401,1,0,0:0:0:0:
256,46,88734,1,8,0:3:0:0:
256,324,89401,6,0,P|214:284|127:275,1,143.999995605469,4|0,0:2|0:0,0:0:0:0:
256,324,90067,2,0,P|298:284|386:275,1,143.999995605469,8|0,0:2|0:0,0:0:0:0:
460,322,90567,1,0,0:0:0:0:
458,228,90734,1,12,0:3:0:0:
458,228,90901,2,0,P|467:141|425:82,1,143.999995605469,0|0,0:0|0:0,0:0:0:0:
351,63,91401,2,0,P|291:82|206:63,1,143.999995605469,8|0,0:2|0:0,0:0:0:0:
128,25,91901,1,0,0:0:0:0:
54,82,92067,6,0,B|86:151|44:220|44:220|76:299|27:354,2,287.999991210938,4|8|4,0:3|0:2|0:3,0:0:0:0:
202,197,93734,2,0,L|224:120,1,71.9999978027344,0|0,0:0|0:0,0:0:0:0:
249,38,94067,2,0,L|304:95,1,71.9999978027344,8|0,0:2|0:0,0:0:0:0:
362,159,94401,2,0,L|284:178,1,71.9999978027344,0|0,0:0|0:0,0:0:0:0:
202,197,94734,6,0,B|126:206|78:265|78:265|133:303|219:280,1,287.999991210938,4|8,0:3|0:2,0:0:0:0:
375,235,96067,2,0,B|450:244|498:303|498:303|443:341|357:318,1,287.999991210938,4|8,0:3|0:2,0:0:0:0:
137,79,97401,6,0,B|105:142|146:159|138:219|138:219|158:165|204:168|208:98,1,287.999991210938,4|8,0:3|0:2,0:0:0:0:
384,175,98734,2,0,B|415:238|374:255|382:315|382:315|362:261|316:264|312:194,1,287.999991210938,4|8,0:3|0:2,0:0:0:0:
296,27,99901,5,0,0:0:0:0:
296,27,100067,2,0,P|186:47|143:37,1,143.999995605469,4|0,0:3|0:0,0:0:0:0:
65,15,100567,1,0,0:0:0:0:
96,103,100734,2,0,P|99:144|82:179,1,71.9999978027344,8|0,0:2|0:0,0:0:0:0:
36,250,101067,1,0,0:0:0:0:
166,306,101401,1,4,0:3:0:0:
166,306,101567,2,0,P|246:279|314:302,1,143.999995605469,0|0,0:0|0:0,0:0:0:0:
377,346,102067,2,0,P|342:286|351:215,1,143.999995605469,8|0,0:2|0:0,0:0:0:0:
412,141,102567,1,0,0:0:0:0:
367,63,102734,6,0,P|298:41|226:77,1,143.999995605469,4|0,0:3|0:0,0:0:0:0:
180,138,103234,1,0,0:0:0:0:
222,223,103401,2,0,P|156:231|97:185,2,143.999995605469,8|0|4,0:2|0:0|0:3,0:0:0:0:
407,190,104401,2,0,L|419:268,2,71.9999978027344,0|0|8,0:0|0:0|0:2,0:0:0:0:
303,34,105067,1,0,0:0:0:0:
222,81,105234,1,0,0:0:0:0:
138,37,105401,6,0,P|141:110|103:173,2,143.999995605469,4|0|8,0:3|0:0|0:2,0:0:0:0:
30,190,106401,1,0,0:0:0:0:
141,340,106734,1,4,0:3:0:0:
220,290,106901,1,0,0:0:0:0:
308,320,107067,2,0,B|377:296|448:333|448:333|447:294|467:265,1,215.999993408203
440,79,107901,1,0,0:0:0:0:
440,79,108067,6,0,B|345:111|249:61|249:61|250:114|223:153,2,287.999991210938,4|8|4,0:3|0:2|0:3,0:0:0:0:
347,266,109734,1,0,0:0:0:0:
145,233,110067,1,8,0:2:0:0:
275,75,110401,1,0,0:0:0:0:
256,192,110734,5,0,0:0:0:0:
256,308,113401,5,4,0:3:0:0:
384,220,113734,1,0,0:0:0:0:
239,157,114067,2,0,P|233:97|248:39,1,120,8|0,0:3|0:0,0:0:0:0:
117,127,114734,1,0,0:0:0:0:
117,127,114901,2,0,P|123:187|108:245,1,120,0|0,0:0|0:0,0:0:0:0:
45,289,115401,2,0,P|105:282|163:297,1,120,8|0,0:3|0:0,0:0:0:0:
228,337,115901,1,0,0:0:0:0:
303,318,116067,6,0,P|376:323|448:242,1,180,4|0,0:3|0:0,0:0:0:0:
439,172,116734,2,0,L|428:104,1,60,8|0,0:3|0:0,0:0:0:0:
285,52,117234,1,0,0:0:0:0:
285,52,117401,2,0,L|296:120,1,60
174,211,117901,1,0,0:0:0:0:
174,211,118068,2,0,L|157:90,1,120,8|0,0:3|0:0,0:0:0:0:
96,227,118734,5,4,0:3:0:0:
57,303,118901,1,0,0:0:0:0:
57,303,119067,2,0,P|85:312|114:311,1,60,0|0,0:0|0:0,0:0:0:0:
190,288,119401,2,0,B|261:277|239:308|311:292,1,120,8|0,0:3|0:0,0:0:0:0:
420,184,120067,1,0,0:0:0:0:
420,184,120234,1,0,0:0:0:0:
352,47,120567,1,0,0:0:0:0:
352,47,120734,2,0,P|301:86|237:83,1,120,8|0,0:3|0:0,0:0:0:0:
184,40,121234,1,0,0:0:0:0:
184,40,121401,6,0,P|207:97|195:170,1,120,4|0,0:3|0:0,0:0:0:0:
134,294,122067,2,0,L|129:361,2,60,8|0|0,0:3|0:0|0:0,0:0:0:0:
153,218,122567,2,0,B|119:214|90:224|90:224|64:215|29:220,1,120
60,145,123067,2,0,P|90:149|121:147,1,60,0|0,0:0|0:0,0:0:0:0:
198,135,123401,1,8,0:3:0:0:
69,47,123734,1,0,0:0:0:0:
224,36,124067,5,4,0:3:0:0:
294,69,124234,1,0,0:0:0:0:
294,69,124401,2,0,P|303:97|305:127,1,60,0|0,0:0|0:0,0:0:0:0:
308,205,124734,1,8,0:3:0:0:
308,205,124901,1,0,0:0:0:0:
213,339,125234,2,0,P|155:329|97:341,1,120
190,207,125901,1,0,0:0:0:0:
190,207,126067,2,0,P|248:217|306:205,1,120,8|0,0:3|0:0,0:0:0:0:
384,81,126734,6,0,B|292:56|296:107|207:80,1,180,4|0,0:3|0:0,0:0:0:0:
133,49,127401,2,0,P|93:46|61:56,1,60,8|0,0:3|0:0,0:0:0:0:
163,179,127901,1,0,0:0:0:0:
163,179,128067,2,0,P|123:176|91:186,1,60,0|0,0:0|0:0,0:0:0:0:
201,303,128567,1,0,0:0:0:0:
201,303,128733,2,0,P|142:292|85:309,1,120,0|0,0:0|0:0,0:0:0:0:
267,364,129401,5,4,0:3:0:0:
292,290,129567,1,0,0:0:0:0:
292,290,129734,2,0,P|322:290|351:282,1,60
372,206,130067,2,0,P|363:177|363:147,1,60,0|0,0:0|0:0,0:0:0:0:
393,74,130401,2,0,P|422:73|451:65,1,60,0|0,0:0|0:0,0:0:0:0:
493,131,130734,1,0,0:0:0:0:
493,131,130901,1,0,0:0:0:0:
318,87,131234,1,0,0:0:0:0:
318,87,131401,2,0,P|263:92|185:66,1,120,8|0,0:3|0:0,0:0:0:0:
256,293,132067,5,4,0:3:0:0:
99,198,133901,5,0,0:0:0:0:
99,198,134067,2,0,P|109:227|110:257,1,60,8|0,0:3|0:0,0:0:0:0:
183,281,134401,2,0,P|184:251|193:222,1,60,0|0,0:0|0:0,0:0:0:0:
256,176,134734,5,4,0:3:0:0:
149,62,135067,1,0,0:0:0:0:
149,62,135234,2,0,P|115:72|81:71,2,60,0|8|0,0:0|0:3|0:0,0:0:0:0:
217,23,135734,1,0,0:0:0:0:
298,156,136067,1,0,0:0:0:0:
373,19,136401,1,0,0:0:0:0:
298,156,136734,2,0,P|289:214|307:271,1,120,8|0,0:3|0:0,0:0:0:0:
178,359,137401,5,4,0:3:0:0:
143,208,137734,1,0,0:0:0:0:
72,249,137901,2,0,P|62:220|63:191,1,60,0|8,0:0|0:3,0:0:0:0:
106,123,138234,1,0,0:0:0:0:
105,123,138401,2,0,P|115:94|114:64,1,60
174,19,138734,2,0,P|239:53|295:49,1,120,0|0,0:0|0:0,0:0:0:0:
438,24,139401,2,0,L|432:83,1,60,8|0,0:3|0:0,0:0:0:0:
448,160,139734,2,0,L|442:219,1,60,0|0,0:0|0:0,0:0:0:0:
450,297,140067,5,4,0:3:0:0:
378,265,140234,1,0,0:0:0:0:
378,265,140401,2,0,P|327:276|308:273,1,60,0|0,0:0|0:0,0:0:0:0:
248,243,140734,2,0,P|190:232|117:243,1,120,8|0,0:3|0:0,0:0:0:0:
87,173,141234,2,0,P|93:232|82:291,1,120,0|0,0:0|0:0,0:0:0:0:
42,357,141734,1,0,0:0:0:0:
193,321,142067,2,0,L|256:330,1,60,8|0,0:3|0:0,0:0:0:0:
320,291,142401,2,0,L|383:300,1,60,0|0,0:0|0:0,0:0:0:0:
449,330,142734,6,0,P|418:280|410:221,2,120,4|0|8,0:3|0:0|0:3,0:0:0:0:
491,180,143734,1,0,0:0:0:0:
372,79,144067,1,0,0:0:0:0:
314,133,144234,2,0,P|285:139|256:137,1,60,0|0,0:0|0:0,0:0:0:0:
179,117,144567,2,0,P|187:147|184:176,1,60,0|8,0:0|0:3,0:0:0:0:
158,250,144901,2,0,L|166:313,2,60,0|0|0,0:0|0:0|0:0,0:0:0:0:
108,189,145401,5,4,0:3:0:0:
84,114,145567,1,0,0:0:0:0:
84,114,145734,2,0,P|86:76|97:47,1,60,0|0,0:0|0:0,0:0:0:0:
166,28,146067,2,0,P|222:46|280:35,1,120,8|0,0:3|0:0,0:0:0:0:
399,136,146734,2,0,L|408:206,2,60,0|0|0,0:0|0:0|0:0,0:0:0:0:
326,107,147234,1,0,0:0:0:0:
271,162,147401,2,0,P|214:180|156:169,1,120,8|0,0:3|0:0,0:0:0:0:
84,307,148067,5,4,0:3:0:0:
149,264,148234,1,0,0:0:0:0:
149,264,148401,2,0,P|190:262|218:268,1,60,0|0,0:0|0:0,0:0:0:0:
278,300,148734,2,0,P|322:309|348:301,1,60,8|0,0:3|0:0,0:0:0:0:
389,249,149067,2,0,P|441:249|459:257,1,60,0|0,0:0|0:0,0:0:0:0:
502,308,149401,2,0,P|472:222|481:189,1,120,0|0,0:0|0:0,0:0:0:0:
479,108,149901,2,0,L|467:23,2,60,0|8|0,0:0|0:3|0:0,0:0:0:0:
406,136,150401,1,0,0:0:0:0:
343,90,150567,1,0,0:0:0:0:
274,128,150734,5,4,0:3:0:0:
274,128,150901,2,0,P|217:109|160:123,1,120,0|0,0:0|0:0,0:0:0:0:
157,201,151401,2,0,P|213:219|270:205,1,120,8|0,0:3|0:0,0:0:0:0:
353,197,151901,2,0,P|334:253|348:310,2,120
434,206,152733,1,0,0:0:0:0:
434,206,152901,2,0,P|448:263|429:319,1,120
383,382,153401,5,4,0:3:0:0:
235,301,153734,2,0,P|202:301|172:305,1,60,0|0,0:0|0:0,0:0:0:0:
101,329,154067,1,8,0:3:0:0:
28,188,154401,2,0,P|58:188|88:192,1,60
161,220,154734,1,0,0:0:0:0:
239,220,154901,1,0,0:0:0:0:
312,192,155067,1,0,0:0:0:0:
153,63,155401,1,8,0:3:0:0:
359,63,155734,1,0,0:0:0:0:
153,62,156067,6,0,P|188:123|256:144,1,143.999995605469,4|0,0:2|0:0,0:0:0:0:
358,63,156734,2,0,P|323:123|256:144,1,143.999995605469,8|0,0:2|0:0,0:0:0:0:
211,226,157234,1,0,0:0:0:0:
301,226,157401,1,12,0:3:0:0:
301,226,157567,2,0,P|354:270|359:340,1,143.999995605469,0|0,0:0|0:0,0:0:0:0:
275,312,158067,2,0,B|219:296|185:335|132:313,1,143.999995605469,8|0,0:2|0:0,0:0:0:0:
62,250,158567,1,0,0:0:0:0:
95,162,158734,6,0,B|170:174|235:138|235:138|170:174|151:248,2,287.999991210938,4|8|4,0:3|0:2|0:3,0:0:0:0:
268,59,160401,2,0,P|299:74|320:104,1,71.9999978027344
301,213,160734,2,0,P|271:232|235:235,1,71.9999978027344,8|0,0:2|0:0,0:0:0:0:
156,157,161067,2,0,P|153:121|168:89,1,71.9999978027344,0|0,0:0|0:0,0:0:0:0:
243,145,161401,6,0,P|200:270|70:247,1,287.999991210938,4|8,0:3|0:2,0:0:0:0:
318,220,162734,2,0,P|360:345|490:322,1,287.999991210938,4|8,0:3|0:2,0:0:0:0:
479,28,164067,6,0,B|398:29|356:89|356:89|280:71|225:133,1,287.999991210938,4|8,0:3|0:2,0:0:0:0:
11,189,165401,2,0,B|92:189|134:249|134:249|210:231|265:293,1,287.999991210938,4|8,0:3|0:2,0:0:0:0:
485,103,166567,5,0,0:0:0:0:
485,103,166734,2,0,P|431:122|337:110,1,143.999995605469,4|0,0:3|0:0,0:0:0:0:
267,62,167234,1,0,0:0:0:0:
258,155,167401,2,0,P|262:198|278:242,1,71.9999978027344,8|0,0:2|0:0,0:0:0:0:
333,294,167734,1,0,0:0:0:0:
161,365,168067,1,4,0:3:0:0:
161,365,168234,2,0,B|138:294|185:297|162:224,1,143.999995605469
216,150,168734,2,0,P|163:132|82:181,1,143.999995605469,8|0,0:2|0:0,0:0:0:0:
162,224,169234,1,0,0:0:0:0:
216,150,169401,6,0,P|233:98|189:16,1,143.999995605469,4|0,0:3|0:0,0:0:0:0:
139,96,169901,1,0,0:0:0:0:
216,150,170067,2,0,P|268:167|348:122,2,143.999995605469,8|0|4,0:2|0:0|0:3,0:0:0:0:
376,52,171067,2,0,L|456:60,2,71.9999978027344,0|0|8,0:0|0:0|0:2,0:0:0:0:
189,36,171734,1,0,0:0:0:0:
155,123,171901,1,0,0:0:0:0:
202,202,172067,6,0,P|186:271|201:341,2,143.999995605469,4|0|8,0:3|0:0|0:2,0:0:0:0:
315,51,173067,1,0,0:0:0:0:
440,190,173401,1,4,0:3:0:0:
382,263,173567,1,0,0:0:0:0:
314,197,173734,2,0,B|280:195|257:207|257:207|229:196|203:201|203:201|174:193|147:200|147:200|118:192|91:196,1,215.999993408203,4|0,0:3|0:2,0:0:0:0:
101,38,174567,1,0,0:0:0:0:
101,38,174734,6,0,B|144:40|174:25|174:25|209:39|243:32|243:32|280:43|315:33|315:33|352:44|386:39,2,287.999991210938,4|8|4,0:3|0:2|0:3,0:0:0:0:
165,266,176401,1,0,0:0:0:0:
367,233,176734,1,8,0:2:0:0:
237,75,177068,1,0,0:0:0:0:
256,347,177401,6,0,B|303:357|336:342|336:342|360:315|400:302,1,155.999992858887,4|0,0:2|0:0,0:0:0:0:
256,347,178067,2,0,B|208:357|175:342|175:342|151:315|111:302,1,155.999992858887,8|0,0:2|0:0,0:0:0:0:
17,272,178567,1,0,0:0:0:0:
87,199,178734,1,12,0:3:0:0:
86,199,178901,2,0,P|113:127|94:52,1,155.999992858887,0|0,0:0|0:0,0:0:0:0:
16,51,179401,2,0,B|102:34|82:72|175:47,1,155.999992858887,8|0,0:2|0:0,0:0:0:0:
271,52,179901,1,0,0:0:0:0:
371,76,180067,6,0,B|361:115|329:140|329:140|380:212|326:284|326:284|364:305|363:349,2,311.999985717774,4|8|4,0:3|0:2|0:3,0:0:0:0:
165,56,181734,2,0,L|87:65,1,77.9999964294435,0|0,0:0|0:0,0:0:0:0:
36,152,182067,2,0,L|45:230,1,77.9999964294435,8|0,0:2|0:0,0:0:0:0:
123,294,182401,2,0,L|201:285,1,77.9999964294435,0|0,0:0|0:0,0:0:0:0:
257,200,182734,6,0,B|299:195|321:159|321:159|354:190|391:188|391:188|381:229|406:262|406:262|368:276|349:310,1,311.999985717774,4|8,0:3|0:2,0:0:0:0:
170,259,184067,2,0,B|128:254|106:218|106:218|73:249|36:247|36:247|46:288|21:321|21:321|59:335|78:370,1,311.999985717774,4|8,0:3|0:2,0:0:0:0:
189,73,185401,6,0,B|208:74|225:63|225:63|249:66|268:83|268:83|289:81|303:62|303:62|329:68|347:80|347:80|369:73|384:57|384:57|406:60|427:73|427:73|449:70|468:53,1,311.999985717774,4|8,0:3|0:2,0:0:0:0:
313,255,186734,2,0,B|293:256|276:245|276:245|252:248|233:265|233:265|212:263|198:244|198:244|172:250|154:262|154:262|132:255|117:239|117:239|95:242|74:255|74:255|52:252|33:235,1,311.999985717774,4|8,0:3|0:2,0:0:0:0:
374,329,187901,5,0,0:0:0:0:
374,329,188067,2,0,P|408:261|381:190,1,155.999992858887,4|0,0:3|0:0,0:0:0:0:
297,133,188567,1,0,0:0:0:0:
205,177,188734,2,0,P|166:184|127:180,1,77.9999964294435,8|0,0:2|0:0,0:0:0:0:
37,135,189067,1,0,0:0:0:0:
212,74,189401,1,4,0:3:0:0:
212,74,189567,2,0,P|287:82|371:56,1,155.999992858887,0|0,0:0|0:0,0:0:0:0:
420,144,190067,2,0,P|375:204|356:290,1,155.999992858887,8|0,0:2|0:0,0:0:0:0:
256,325,190567,1,0,0:0:0:0:
155,282,190734,6,0,P|137:206|92:144,1,155.999992858887,4|0,0:3|0:0,0:0:0:0:
148,60,191234,1,0,0:0:0:0:
148,60,191401,2,0,P|222:81|300:74,2,155.999992858887,8|0|4,0:2|0:0|0:3,0:0:0:0:
256,244,192401,2,0,P|260:287|256:328,2,77.9999964294435,0|0|8,0:0|0:0|0:2,0:0:0:0:
55,158,193067,21,0,0:0:0:0:
149,195,193234,1,0,0:0:0:0:
244,163,193401,2,0,P|320:148|395:170,2,155.999992858887,4|0|8,0:3|0:0|0:2,0:0:0:0:
155,345,194401,1,0,0:0:0:0:
357,345,194734,1,4,0:3:0:0:
327,247,194901,1,0,0:0:0:0:
368,155,195067,2,0,B|284:173|218:135|218:135|251:107|291:105,1,233.999989288331,0|0,0:0|0:0,0:0:0:0:
413,266,195901,1,0,0:0:0:0:
413,266,196067,22,0,B|295:240|202:294|202:294|249:333|287:333,2,311.999985717774,4|8|4,0:3|0:2|0:3,0:0:0:0:
297,82,197734,1,0,0:0:0:0:
139,211,198067,1,8,0:2:0:0:
330,283,198401,1,0,0:0:0:0:
256,192,198734,5,4,0:2:0:0:
