osu file format v14

[General]
AudioFilename: audio.mp3
AudioLeadIn: 0
PreviewTime: 89361
Countdown: 0
SampleSet: None
StackLeniency: 0.7
Mode: 0
LetterboxInBreaks: 0
WidescreenStoryboard: 1

[Editor]
Bookmarks: 25360,68027,89361,113361,134694,156027,177361
DistanceSpacing: 1
BeatDivisor: 4
GridSize: 4
TimelineZoom: 1

[Metadata]
Title:Fireflies
TitleUnicode:Fireflies
Artist:Owl City
ArtistUnicode:Owl City
Creator:Arphimigon
Version:Light Sleep
Source:
Tags:low bpm pop electronica Adam Young
BeatmapID:1360228
BeatmapSetID:565702

[Difficulty]
HPDrainRate:2
CircleSize:2.5
OverallDifficulty:2
ApproachRate:3
SliderMultiplier:1.7
SliderTickRate:2

[Events]
//Background and Video events
0,0,"nootlight.jpg",0,0
//Break Periods
2,46934,66627
2,110934,111961
//Storyboard Layer 0 (Background)
//Storyboard Layer 1 (Fail)
//Storyboard Layer 2 (Pass)
//Storyboard Layer 3 (Foreground)
//Storyboard Sound Samples

[TimingPoints]
25401,666.666666666667,4,3,0,30,1,0
89401,-83.3333333333333,4,3,0,40,0,1
110734,-100,4,3,0,30,0,0
156067,-83.3333333333333,4,3,0,40,0,1
177401,-76.9230769230769,4,3,0,40,0,1
198734,-83.3333333333333,4,3,0,40,0,0

[Colours]
Combo1 : 0,255,0
Combo2 : 0,0,160
Combo3 : 225,225,0

[HitObjects]
256,69,25400,6,0,P|205:111|86:120,1,170,4|4,0:3|0:3,0:0:0:0:
27,276,26734,2,0,L|18:369,2,85,0|0|8,0:0|0:0|0:3,0:0:0:0:
196,268,28067,2,0,B|268:234|289:302|361:268,1,170,4|8,0:3|0:3,0:0:0:0:
471,141,29400,2,0,P|476:81|467:48,2,85,0|0|8,0:0|0:0|0:3,0:0:0:0:
306,94,30734,6,0,P|247:90|213:98,2,85,4|0|8,0:3|0:0|0:3,0:0:0:0:
222,242,32067,2,0,P|162:247|129:238,2,85,0|0|8,0:0|0:0|0:3,0:0:0:0:
374,314,33400,2,0,P|378:225|433:145,1,170,4|8,0:3|0:3,0:0:0:0:
294,43,34734,2,0,P|289:132|234:213,1,170,0|8,0:0|0:3,0:0:0:0:
137,327,36067,6,0,B|52:314|52:314|18:225,1,170,4|8,0:3|0:3,0:0:0:0:
120,98,37400,2,0,L|112:5,2,85,0|0|8,0:0|0:0|0:3,0:0:0:0:
277,166,38734,2,0,L|285:259,1,85,4|0,0:3|0:0,0:0:0:0:
344,310,39400,2,0,L|438:302,1,85,8|0,0:3|0:0,0:0:0:0:
484,236,40067,2,0,L|468:66,1,170,0|8,0:0|0:3,0:0:0:0:
304,32,41400,6,0,L|216:24,2,85,4|0|8,0:3|0:0|0:3,0:0:0:0:
188,160,42734,2,0,L|100:152,2,85,0|0|8,0:0|0:0|0:3,0:0:0:0:
256,316,44067,1,4,0:3:0:0:
256,316,46067,2,0,L|256:216,1,85,8|0,0:3|0:0,0:0:0:0:
256,144,46734,5,0,0:0:0:0:
216,312,68067,6,0,P|152:308|64:212,1,170,4|8,0:3|0:3,0:0:0:0:
64,72,69401,2,0,L|160:60,2,85,0|0|8,0:0|0:0|0:3,0:0:0:0:
212,156,70734,2,0,L|384:172,1,170,4|8,0:3|0:3,0:0:0:0:
336,336,72067,2,0,P|294:341|253:329,2,85,0|0|8,0:0|0:0|0:3,0:0:0:0:
392,176,73401,6,0,L|399:85,2,85,4|0|8,0:3|0:0|0:3,0:0:0:0:
228,132,74734,2,0,L|235:41,2,85,0|0|8,0:3|0:0|0:3,0:0:0:0:
184,300,76067,2,0,P|132:268|108:156,1,170,4|8,0:3|0:3,0:0:0:0:
244,72,77401,2,0,P|296:104|320:216,1,170,0|8,0:0|0:3,0:0:0:0:
196,316,78734,6,0,L|22:284,1,170,4|8,0:3|0:3,0:0:0:0:
60,120,80067,2,0,P|56:85|33:36,2,85,0|0|8,0:0|0:0|0:3,0:0:0:0:
224,176,81401,2,0,L|408:160,1,170,4|8,0:3|0:3,0:0:0:0:
392,332,82734,2,0,L|288:320,1,85,0|0,0:0|0:0,0:0:0:0:
224,308,83401,2,0,L|120:296,1,85,8|0,0:3|0:0,0:0:0:0:
82,236,84067,6,0,P|78:108|98:44,1,170,4|8,0:3|0:3,0:0:0:0:
260,68,85401,2,0,P|275:151|266:235,1,170,0|8,0:0|0:3,0:0:0:0:
432,192,86734,2,0,B|466:120|398:99|432:27,2,170,4|8|0,0:3|0:3|0:0,0:0:0:0:
256,192,88734,1,8,0:3:0:0:
92,72,89401,5,4,0:2:0:0:
256,192,90067,1,8,0:2:0:0:
420,72,90734,1,12,0:3:0:0:
256,192,91400,1,8,0:2:0:0:
164,376,92067,6,0,P|288:340|348:376,2,203.999993774414,4|8|4,0:3|0:2|0:3,0:0:0:0:
28,224,94067,1,8,0:2:0:0:
136,52,94734,6,0,B|234:99|332:50|332:50|343:166|440:211,1,407.999987548829,4|4,0:3|0:3,0:0:0:0:
72,173,97401,6,0,B|169:218|180:334|180:334|278:285|376:332,1,407.999987548829,4|4,0:3|0:3,0:0:0:0:
448,52,100067,5,4,0:3:0:0:
256,124,100734,1,8,0:2:0:0:
64,52,101401,1,4,0:3:0:0:
256,124,102068,1,8,0:2:0:0:
448,192,102734,5,4,0:3:0:0:
256,264,103401,1,8,0:2:0:0:
64,192,104067,1,4,0:3:0:0:
448,52,105401,6,0,L|256:120,1,203.999993774414,4|8,0:3|0:2,0:0:0:0:
64,192,106734,2,0,L|256:260,1,203.999993774414,4|8,0:3|0:0,0:0:0:0:
452,320,108067,6,0,P|429:130|241:96,1,407.999987548829,4|4,0:3|0:3,0:0:0:0:
256,352,110734,5,0,0:0:0:0:
116,204,113401,6,0,P|108:144|112:88,2,85,4|0|8,0:3|0:0|0:3,0:0:0:0:
240,320,114734,2,0,P|254:236|253:151,1,170,0|8,0:0|0:3,0:0:0:0:
384,40,116067,2,0,L|408:208,2,170,4|8|0,0:3|0:3|0:0,0:0:0:0:
256,152,118067,1,8,0:3:0:0:
132,36,118734,6,0,L|28:40,2,85,4|0|8,0:3|0:0|0:3,0:0:0:0:
256,152,120067,2,0,P|256:220|216:328,1,170,0|8,0:0|0:3,0:0:0:0:
88,212,121401,2,0,L|60:24,2,170,4|8|0,0:3|0:3|0:0,0:0:0:0:
256,152,123401,1,8,0:3:0:0:
420,196,124067,6,0,P|434:235|437:278,2,85,4|0|8,0:3|0:0|0:3,0:0:0:0:
255,152,125401,2,0,P|173:168|91:147,1,170,0|8,0:0|0:3,0:0:0:0:
228,48,126734,2,0,L|408:28,2,170,4|8|0,0:3|0:3|0:0,0:0:0:0:
140,192,128734,1,8,0:3:0:0:
256,316,129401,6,0,L|352:304,1,85,4|0,0:3|0:0,0:0:0:0:
388,235,130067,2,0,L|377:150,1,85
367,66,130734,1,8,0:3:0:0:
256,200,131401,1,8,0:3:0:0:
145,66,132067,1,4,0:3:0:0:
145,66,134067,2,0,L|145:174,1,85,8|0,0:3|0:0,0:0:0:0:
152,240,134734,6,0,P|228:274|311:261,1,170,4|8,0:3|0:3,0:0:0:0:
420,132,136067,2,0,L|420:47,2,85,0|0|8,0:0|0:0|0:3,0:0:0:0:
252,96,137401,2,0,P|175:61|92:74,1,170,4|8,0:3|0:3,0:0:0:0:
16,228,138734,2,0,L|16:312,2,85,0|0|8,0:0|0:0|0:3,0:0:0:0:
184,248,140067,6,0,L|184:164,2,85,4|0|8,0:3|0:0|0:3,0:0:0:0:
328,336,141401,2,0,B|404:296|404:296|420:204,1,170,0|8,0:0|0:3,0:0:0:0:
328,68,142734,2,0,B|268:36|228:108|160:64,1,170,4|8,0:3|0:3,0:0:0:0:
80,212,144067,2,0,B|140:244|180:172|248:216,1,170,0|8,0:0|0:3,0:0:0:0:
416,220,145401,6,0,L|424:132,2,85,4|0|8,0:3|0:0|0:3,0:0:0:0:
280,320,146734,2,0,B|196:312|196:312|160:328|100:312,1,170,0|8,0:0|0:3,0:0:0:0:
32,164,148067,2,0,L|56:72,1,85,4|0,0:3|0:0,0:0:0:0:
140,80,148734,2,0,L|164:172,1,85,8|0,0:3|0:0,0:0:0:0:
248,164,149401,2,0,P|253:108|352:32,1,170,0|8,0:0|0:3,0:0:0:0:
428,176,150734,6,0,L|448:352,1,170,4|8,0:3|0:3,0:0:0:0:
276,345,152067,2,0,L|295:176,1,170,0|8,0:0|0:3,0:0:0:0:
124,176,153401,2,0,L|143:344,2,170,4|8|0,0:3|0:3|0:0,0:0:0:0:
256,56,155401,1,8,0:3:0:0:
391,192,156067,5,4,0:2:0:0:
256,327,156734,1,8,0:2:0:0:
120,192,157401,1,12,0:3:0:0:
256,56,158068,1,8,0:2:0:0:
391,192,158734,6,0,B|416:145|461:120|461:120|413:95|390:47,2,203.999993774414,4|8|4,0:3|0:2|0:3,0:0:0:0:
256,327,160734,1,8,0:2:0:0:
256,124,161401,6,0,B|170:139|122:71|122:71|38:111|-5:191|30:281,1,407.999987548829,4|4,0:3|0:3,0:0:0:0:
256,124,164067,6,0,B|341:139|389:71|389:71|473:111|517:191|481:281,1,407.999987548829,4|4,0:3|0:3,0:0:0:0:
72,280,166734,5,4,0:3:0:0:
256,192,167401,1,8,0:2:0:0:
440,108,168067,1,4,0:3:0:0:
256,20,168734,1,8,0:2:0:0:
72,108,169401,5,4,0:3:0:0:
256,192,170067,1,8,0:2:0:0:
440,280,170734,1,4,0:3:0:0:
32,312,172067,6,0,L|72:108,1,203.999993774414,4|8,0:3|0:2,0:0:0:0:
252,12,173401,2,0,L|291:212,1,203.999993774414,4|8,0:3|0:0,0:0:0:0:
480,136,174734,6,0,P|419:318|227:329,1,407.999987548829,4|4,0:3|0:3,0:0:0:0:
161,97,177401,5,4,0:2:0:0:
352,97,178068,1,8,0:2:0:0:
353,289,178735,1,12,0:3:0:0:
160,289,179402,1,8,0:2:0:0:
256,82,180067,6,0,B|242:218|270:170|256:302,2,220.999989883423,4|8|4,0:3|0:2|0:3,0:0:0:0:
36,88,182067,1,8,0:2:0:0:
40,308,182734,6,0,B|148:292|148:292|256:320|256:320|364:292|364:292|472:308,1,441.999979766847,4|4,0:3|0:3,0:0:0:0:
40,76,185401,6,0,B|148:92|148:92|256:64|256:64|364:92|364:92|472:76,1,441.999979766847,4|4,0:3|0:3,0:0:0:0:
83,292,188068,5,4,0:3:0:0:
83,93,188735,1,8,0:2:0:0:
256,2,189401,1,4,0:3:0:0:
428,93,190068,1,8,0:2:0:0:
428,292,190735,5,4,0:3:0:0:
256,382,191401,1,8,0:2:0:0:
256,192,192067,1,4,0:3:0:0:
424,40,193401,6,0,L|452:260,1,220.999989883423,4|8,0:3|0:2,0:0:0:0:
240,316,194734,2,0,L|268:96,1,220.999989883423,4|8,0:3|0:0,0:0:0:0:
59,24,196067,6,0,P|14:230|168:375,1,441.999979766847,4|4,0:3|0:3,0:0:0:0:
256,88,198734,5,4,0:2:0:0:
