osu file format v14

[General]
AudioFilename: audio.mp3
AudioLeadIn: 0
PreviewTime: 89361
Countdown: 0
SampleSet: None
StackLeniency: 0.7
Mode: 0
LetterboxInBreaks: 0
WidescreenStoryboard: 1

[Editor]
Bookmarks: 25360,68027,89361,113361,134694,156027,177361
DistanceSpacing: 1
BeatDivisor: 4
GridSize: 4
TimelineZoom: 1

[Metadata]
Title:Fireflies
TitleUnicode:Fireflies
Artist:Owl City
ArtistUnicode:Owl City
Creator:Arphimigon
Version:Deep Sleep
Source:
Tags:low bpm pop electronica Adam Young
BeatmapID:1360086
BeatmapSetID:565702

[Difficulty]
HPDrainRate:4
CircleSize:3.5
OverallDifficulty:4
ApproachRate:5
SliderMultiplier:2
SliderTickRate:2

[Events]
//Background and Video events
0,0,"nootlight.jpg",0,0
//Break Periods
2,46934,66387
2,110934,111721
//Storyboard Layer 0 (Background)
//Storyboard Layer 1 (Fail)
//Storyboard Layer 2 (Pass)
//Storyboard Layer 3 (Foreground)
//Storyboard Sound Samples

[TimingPoints]
25401,666.666666666667,4,3,0,30,1,0
89401,-83.3333333333333,4,3,0,40,0,1
110734,-100,4,3,0,30,0,0
156067,-83.3333333333333,4,3,0,40,0,1
177401,-76.9230769230769,4,3,0,40,0,1
198734,-83.3333333333333,4,3,0,40,0,0

[Colours]
Combo1 : 0,255,0
Combo2 : 0,0,160
Combo3 : 225,225,0

[HitObjects]
79,80,25400,6,0,P|153:81|199:121,1,100,4|4,0:3|0:3,0:0:0:0:
206,131,25900,2,0,L|305:125,1,100,0|0,0:0|0:0,0:0:0:0:
353,213,26567,1,0,0:0:0:0:
353,213,26734,2,0,L|253:218,2,100,0|0|8,0:0|0:0|0:3,0:0:0:0:
411,318,28067,6,0,P|365:334|313:335,1,100,4|4,0:3|0:3,0:0:0:0:
273,307,28567,2,0,P|226:290|176:289,1,100,0|0,0:0|0:0,0:0:0:0:
127,301,29067,1,0,0:0:0:0:
75,215,29400,2,0,L|68:91,2,100,0|0|8,0:0|0:0|0:3,0:0:0:0:
256,130,30734,6,0,L|262:23,1,100,4|0,0:3|0:0,0:0:0:0:
354,66,31400,2,0,L|348:173,1,100,8|0,0:3|0:0,0:0:0:0:
367,212,31900,2,0,L|361:319,1,100,0|0,0:0|0:0,0:0:0:0:
377,359,32400,1,0,0:0:0:0:
280,331,32734,1,8,0:3:0:0:
280,331,32900,2,0,P|219:314|172:327,1,100,0|0,0:0|0:0,0:0:0:0:
140,346,33400,6,0,P|152:285|109:143,1,200,4|8,0:3|0:3,0:0:0:0:
271,281,34734,2,0,P|259:220|302:78,1,200,0|8,0:0|0:3,0:0:0:0:
491,119,36067,6,0,L|470:237,1,100,4|4,0:3|0:3,0:0:0:0:
461,265,36567,2,0,P|420:303|366:308,1,100,0|0,0:0|0:0,0:0:0:0:
288,265,37234,1,0,0:0:0:0:
288,265,37400,2,0,L|181:281,2,100,0|0|8,0:0|0:0|0:3,0:0:0:0:
421,115,38734,6,0,L|425:56,2,50,4|0|0,0:3|0:0|0:0,0:0:0:0:
325,145,39400,2,0,P|263:151|211:138,1,100,8|0,0:3|0:0,0:0:0:0:
127,157,40067,1,0,0:0:0:0:
127,157,40234,2,0,P|163:207|177:259,1,100,0|0,0:0|0:0,0:0:0:0:
175,293,40734,1,8,0:3:0:0:
271,267,41067,2,0,L|346:263,1,50,0|0,0:0|0:0,0:0:0:0:
366,286,41400,5,4,0:3:0:0:
366,286,41567,2,0,P|347:239|348:190,2,100,0|0|0,0:0|0:0|0:0,0:0:0:0:
441,219,42567,2,0,L|451:84,1,100,0|0,0:0|0:0,0:0:0:0:
452,69,43067,1,0,0:0:0:0:
355,94,43400,1,8,0:3:0:0:
256,72,43734,1,0,0:0:0:0:
256,171,44067,5,4,0:3:0:0:
256,171,45900,1,0,0:0:0:0:
256,171,46067,2,0,L|256:247,2,50,8|0|0,0:3|0:0|0:0,0:0:0:0:
256,72,46734,5,0,0:0:0:0:
232,340,68067,6,0,P|157:343|127:325,1,100,4|4,0:3|0:3,0:0:0:0:
108,290,68567,2,0,L|102:180,1,100,0|0,0:0|0:0,0:0:0:0:
163,110,69234,1,0,0:0:0:0:
163,110,69401,2,0,P|213:110|257:88,2,100,0|0|8,0:0|0:0|0:3,0:0:0:0:
345,23,70734,6,0,P|366:76|363:122,1,100,4|4,0:3|0:3,0:0:0:0:
331,157,71234,2,0,P|312:202|313:252,1,100,0|0,0:0|0:0,0:0:0:0:
324,300,71734,1,0,0:0:0:0:
230,334,72067,2,0,L|221:211,2,100,0|0|8,0:0|0:0|0:3,0:0:0:0:
411,249,73401,6,0,L|468:251,2,50,4|0|0,0:3|0:0|0:0,0:0:0:0:
383,152,74067,2,0,P|327:161|284:145,1,100,8|0,0:3|0:0,0:0:0:0:
249,113,74567,1,0,0:0:0:0:
150,93,74901,2,0,P|131:139|128:188,1,100,0|0,0:0|0:0,0:0:0:0:
144,236,75401,2,0,L|148:341,1,100,8|0,0:3|0:0,0:0:0:0:
183,370,75901,1,0,0:0:0:0:
183,370,76067,6,0,P|304:343|353:271,1,200,4|8,0:3|0:3,0:0:0:0:
266,103,77401,2,0,P|145:130|96:202,1,200,0|8,0:0|0:3,0:0:0:0:
220,347,78734,6,0,L|340:332,1,100,4|4,0:3|0:3,0:0:0:0:
358,302,79234,2,0,L|478:287,1,100,0|0,0:0|0:0,0:0:0:0:
475,191,79901,1,0,0:0:0:0:
475,191,80067,2,0,P|427:177|378:187,2,100,0|0|8,0:0|0:0|0:3,0:0:0:0:
307,81,81401,6,0,P|258:90|210:77,1,100,4|4,0:3|0:3,0:0:0:0:
177,115,81901,2,0,P|186:163|173:211,1,100,0|0,0:0|0:0,0:0:0:0:
107,286,82567,1,0,0:0:0:0:
107,286,82734,2,0,L|6:270,2,100,0|0|8,0:0|0:0|0:3,0:0:0:0:
203,312,83734,5,0,0:0:0:0:
203,312,83901,2,0,L|211:367,2,50
301,296,84567,2,0,B|323:213|341:246|363:160,1,150
369,111,85234,1,0,0:0:0:0:
286,62,85567,1,0,0:0:0:0:
286,62,85734,2,0,L|177:53,2,100,0|8|0,0:0|0:3|0:0,0:0:0:0:
270,161,86734,6,0,B|220:161|220:161|176:184|176:184|126:184|126:184|81:207,1,200,4|8,0:3|0:3,0:0:0:0:
42,299,87734,1,0,0:0:0:0:
148,300,88067,2,0,L|148:352,2,50
256,299,88734,1,8,0:3:0:0:
256,28,89401,5,4,0:2:0:0:
337,110,89734,1,0,0:0:0:0:
419,192,90067,1,8,0:2:0:0:
256,355,90734,1,12,0:3:0:0:
175,274,91067,1,0,0:0:0:0:
92,192,91401,1,8,0:2:0:0:
256,28,92067,6,0,B|365:67|382:-7|491:28,2,239.999992675781,4|8|4,0:3|0:2|0:3,0:0:0:0:
142,68,93734,1,0,0:0:0:0:
196,174,94067,1,8,0:2:0:0:
87,224,94401,1,0,0:0:0:0:
33,118,94734,6,0,P|161:133|21:323,1,479.999985351563,4|4,0:3|0:3,0:0:0:0:
479,118,97401,2,0,P|351:133|491:323,1,479.999985351563,4|4,0:3|0:3,0:0:0:0:
74,71,100067,5,4,0:3:0:0:
256,226,100734,1,8,0:2:0:0:
438,71,101401,1,4,0:3:0:0:
256,226,102068,1,8,0:2:0:0:
195,22,102734,5,4,0:3:0:0:
315,22,103067,1,0,0:0:0:0:
352,136,103400,1,8,0:2:0:0:
255,206,103733,1,0,0:0:0:0:
158,136,104067,1,4,0:3:0:0:
489,308,105401,5,4,0:3:0:0:
375,94,106067,1,8,0:2:0:0:
137,94,106734,1,4,0:3:0:0:
23,308,107401,1,8,0:0:0:0:
256,252,108067,6,0,B|284:109|228:161|256:14,2,239.999992675781,4|8|4,0:3|0:2|0:3,0:0:0:0:
136,256,109734,1,0,0:0:0:0:
196,356,110067,1,8,0:2:0:0:
316,356,110401,1,0,0:0:0:0:
376,256,110734,5,0,0:0:0:0:
99,133,113401,5,4,0:3:0:0:
169,62,113734,1,0,0:0:0:0:
240,133,114067,2,0,P|306:139|351:127,1,100,8|0,0:3|0:0,0:0:0:0:
432,167,114734,1,0,0:0:0:0:
432,167,114901,2,0,L|427:284,1,100,0|0,0:0|0:0,0:0:0:0:
390,300,115401,2,0,L|273:295,1,100,8|0,0:3|0:0,0:0:0:0:
191,277,116067,6,0,P|119:303|38:211,1,200,4|8,0:3|0:3,0:0:0:0:
236,190,117401,2,0,P|308:216|389:124,1,200,0|8,0:0|0:3,0:0:0:0:
210,46,118734,6,0,L|138:38,2,50,4|0|0,0:3|0:0|0:0,0:0:0:0:
299,91,119401,2,0,L|417:71,1,100,8|0,0:3|0:0,0:0:0:0:
490,110,120067,1,0,0:0:0:0:
490,110,120234,2,0,P|491:194|479:229,1,100,0|0,0:0|0:0,0:0:0:0:
451,243,120734,2,0,P|380:280|350:278,1,100,8|0,0:3|0:0,0:0:0:0:
312,273,121234,1,0,0:0:0:0:
312,273,121401,6,0,B|214:251|214:251|139:319,1,200,4|8,0:3|0:3,0:0:0:0:
200,111,122734,2,0,B|298:133|298:133|373:65,1,200,0|8,0:0|0:3,0:0:0:0:
461,244,124067,5,4,0:3:0:0:
385,310,124401,1,0,0:0:0:0:
296,262,124734,1,8,0:3:0:0:
296,262,124901,2,0,P|214:250|181:259,2,100,0|0|0,0:0|0:0|0:0,0:0:0:0:
244,348,125901,1,0,0:0:0:0:
244,348,126067,2,0,P|194:352|146:339,1,100,8|0,0:3|0:0,0:0:0:0:
107,246,126734,6,0,B|121:180|121:180|99:120|99:120|116:54,1,200,4|8,0:3|0:3,0:0:0:0:
316,51,128067,2,0,B|332:117|332:117|310:177|310:177|325:242,1,200,0|0,0:0|0:0,0:0:0:0:
156,351,129401,6,0,L|98:344,2,50,4|0|0,0:3|0:0|0:0,0:0:0:0:
255,358,130067,2,0,P|261:299|250:256,1,100,0|0,0:0|0:0,0:0:0:0:
228,162,130734,1,0,0:0:0:0:
228,162,130901,2,0,P|222:103|233:60,1,100,0|0,0:0|0:0,0:0:0:0:
265,27,131401,2,0,L|400:27,1,100,8|0,0:3|0:0,0:0:0:0:
419,110,132067,5,4,0:3:0:0:
419,110,133901,1,0,0:0:0:0:
419,110,134068,2,0,L|419:186,2,50,8|0|0,0:3|0:0|0:0,0:0:0:0:
330,59,134734,6,0,P|282:50|233:60,1,100,4|4,0:3|0:3,0:0:0:0:
191,87,135234,2,0,P|142:96|93:87,1,100
50,61,135734,1,0,0:0:0:0:
34,159,136067,2,0,L|21:271,2,100,0|0|8,0:0|0:0|0:3,0:0:0:0:
165,310,137401,6,0,L|266:312,1,100,4|4,0:3|0:3,0:0:0:0:
315,313,137901,2,0,P|359:278|375:222,1,100,0|0,0:0|0:0,0:0:0:0:
370,188,138401,1,0,0:0:0:0:
323,99,138734,2,0,P|271:97|220:114,2,100,0|0|8,0:0|0:0|0:3,0:0:0:0:
165,223,140067,6,0,L|104:217,2,50,4|0|0,0:3|0:0|0:0,0:0:0:0:
243,285,140734,2,0,P|300:266|347:270,1,100,8|0,0:3|0:0,0:0:0:0:
387,280,141234,2,0,L|424:184,1,100,0|0,0:0|0:0,0:0:0:0:
441,139,141734,1,0,0:0:0:0:
359,83,142067,2,0,P|259:107|209:99,1,150,8|0,0:3|0:0,0:0:0:0:
168,77,142734,6,0,P|82:90|126:163,1,200,4|8,0:3|0:3,0:0:0:0:
302,250,144067,2,0,P|388:263|344:336,1,200,0|8,0:0|0:3,0:0:0:0:
147,315,145401,6,0,L|146:260,2,50,4|0|0,0:3|0:0|0:0,0:0:0:0:
67,254,146067,2,0,P|57:196|71:152,1,100,8|0,0:3|0:0,0:0:0:0:
139,86,146734,2,0,P|204:105|249:94,1,100,0|0,0:0|0:0,0:0:0:0:
282,83,147234,2,0,L|439:92,1,150,0|0,0:0|0:0,0:0:0:0:
477,180,148067,6,0,L|491:246,2,50,4|0|0,0:3|0:0|0:0,0:0:0:0:
389,229,148734,1,8,0:3:0:0:
296,190,149067,1,0,0:0:0:0:
207,236,149401,2,0,P|149:247|100:235,1,100,0|0,0:0|0:0,0:0:0:0:
79,198,149901,2,0,P|68:140|80:91,1,100,0|0,0:0|0:0,0:0:0:0:
107,61,150401,1,0,0:0:0:0:
107,61,150567,6,0,L|217:68,1,100
310,47,151234,1,8,0:3:0:0:
310,47,151401,1,8,0:3:0:0:
409,92,151734,1,0,0:0:0:0:
409,92,151901,2,0,P|412:168|440:211,2,100,0|0|0,0:0|0:0|0:0,0:0:0:0:
426,45,152734,1,8,0:3:0:0:
426,45,152901,1,0,0:0:0:0:
329,34,153234,1,0,0:0:0:0:
329,34,153401,6,0,L|112:57,1,200,4|8,0:3|0:3,0:0:0:0:
130,255,154734,2,0,L|130:311,2,50
227,231,155401,1,8,0:3:0:0:
397,66,156067,5,4,0:2:0:0:
370,183,156401,1,0,0:0:0:0:
344,300,156734,1,8,0:2:0:0:
255,76,157401,1,12,0:3:0:0:
212,187,157734,1,0,0:0:0:0:
168,300,158067,1,8,0:2:0:0:
113,65,158734,6,0,B|52:163|124:196|67:296,2,239.999992675781,4|8|4,0:3|0:2|0:3,0:0:0:0:
197,151,160401,1,0,0:0:0:0:
315,151,160734,1,8,0:2:0:0:
398,65,161067,1,0,0:0:0:0:
284,27,161401,6,0,P|209:219|414:232,1,479.999985351563,4|4,0:3|0:3,0:0:0:0:
97,151,164067,2,0,P|302:164|227:356,1,479.999985351563,4|4,0:3|0:3,0:0:0:0:
348,62,166734,5,4,0:3:0:0:
386,284,167401,1,8,0:2:0:0:
164,322,168067,1,4,0:3:0:0:
126,100,168734,1,8,0:2:0:0:
302,127,169401,5,4,0:3:0:0:
321,238,169734,1,0,0:0:0:0:
210,257,170067,1,8,0:2:0:0:
191,146,170401,1,0,0:0:0:0:
302,127,170734,1,4,0:3:0:0:
111,254,172067,5,4,0:3:0:0:
256,62,172734,1,8,0:2:0:0:
401,254,173401,1,4,0:3:0:0:
256,62,174068,1,8,0:0:0:0:
311,295,174734,6,0,P|255:210|200:295,2,239.999992675781,4|8|4,0:3|0:2|0:3,0:0:0:0:
420,347,176401,1,0,0:0:0:0:
438,228,176734,1,8,0:2:0:0:
379,123,177067,1,0,0:0:0:0:
256,76,177401,5,4,0:2:0:0:
134,122,177734,1,0,0:0:0:0:
155,250,178067,1,8,0:2:0:0:
357,250,178734,1,12,0:3:0:0:
378,122,179067,1,0,0:0:0:0:
256,76,179400,1,8,0:2:0:0:
256,321,180067,6,0,B|317:357|380:328|380:328|418:270|385:205,2,259.999988098145,4|8|4,0:3|0:2|0:3,0:0:0:0:
125,316,181734,1,0,0:0:0:0:
193,205,182067,1,8,0:2:0:0:
63,192,182401,1,0,0:0:0:0:
141,88,182734,6,0,B|236:99|283:15|283:15|316:114|426:89|426:89|372:172|416:248,1,519.99997619629,4|4,0:3|0:3,0:0:0:0:
93,152,185401,2,0,B|137:228|83:311|83:311|193:286|225:385|225:385|272:301|368:312,1,519.99997619629,4|4,0:3|0:3,0:0:0:0:
431,79,188067,5,4,0:3:0:0:
171,90,188734,1,8,0:2:0:0:
341,294,189401,1,4,0:3:0:0:
81,305,190068,1,8,0:2:0:0:
108,46,190734,5,4,0:3:0:0:
141,171,191067,1,0,0:0:0:0:
256,231,191401,1,8,0:2:0:0:
371,171,191734,1,0,0:0:0:0:
404,46,192067,1,4,0:3:0:0:
131,123,193401,5,4,0:3:0:0:
380,260,194067,1,8,0:2:0:0:
131,260,194734,1,4,0:3:0:0:
380,123,195401,1,8,0:0:0:0:
256,352,196067,6,0,P|137:372|43:278,2,259.999988098145,4|8|4,0:3|0:2|0:3,0:0:0:0:
256,222,197734,1,0,0:0:0:0:
191,109,198067,1,8,0:2:0:0:
321,109,198401,1,0,0:0:0:0:
255,9,198734,5,4,0:2:0:0:
