osu file format v14

[General]
AudioFilename: audio.mp3
AudioLeadIn: 0
PreviewTime: 47744
Countdown: 1
SampleSet: Soft
StackLeniency: 0.7
Mode: 0
LetterboxInBreaks: 0
WidescreenStoryboard: 1

[Editor]
Bookmarks: 21315
DistanceSpacing: 1
BeatDivisor: 4
GridSize: 16
TimelineZoom: 2

[Metadata]
Title:Cloud Nine
TitleUnicode:Cloud Nine
Artist:Owl City
ArtistUnicode:Owl City
Creator:AJT
Version:Normal
Source:
Tags:english synth pop frostmourne frostxe 9
BeatmapID:3674107
BeatmapSetID:1790032

[Difficulty]
HPDrainRate:2
CircleSize:3
OverallDifficulty:4
ApproachRate:6
SliderMultiplier:2
SliderTickRate:1

[Events]
//Background and Video events
0,0,"bg.jpg",0,0
//Break Periods
2,128101,129936
2,162591,172972
//Storyboard Layer 0 (Background)
//Storyboard Layer 1 (Fail)
//Storyboard Layer 2 (Pass)
//Storyboard Layer 3 (Foreground)
//Storyboard Layer 4 (Overlay)
//Storyboard Sound Samples

[TimingPoints]
2392,714.285714285714,4,2,1,20,1,0
2392,-111.111111111111,4,2,1,30,0,0
12391,-100,4,2,1,30,0,0
12570,-100,4,2,1,40,0,0
47391,-100,4,2,2,70,0,0
48106,-90.9090909090909,4,2,2,70,0,1
48820,-90.9090909090909,4,2,1,70,0,1
68106,-100,4,2,1,50,0,0
70963,-100,4,2,1,50,0,0
104534,-100,4,2,2,80,0,0
105249,-83.3333333333333,4,2,2,80,0,1
105963,-83.3333333333333,4,2,1,80,0,1
125249,-100,4,2,1,50,0,0
128106,-100,4,2,1,30,0,0
130963,-100,4,2,1,50,0,0
145249,-100,4,2,1,50,0,0
148820,-100,4,2,1,30,0,0
149356,-100,4,2,1,50,0,0
162391,-111.111111111111,4,2,2,20,0,0
182391,-111.111111111111,4,2,2,20,0,0
183284,-111.111111111111,4,2,2,20,0,0
183641,-111.111111111111,4,2,2,20,0,0
183999,-111.111111111111,4,2,2,20,0,0
184534,-111.111111111111,4,2,2,80,0,0
185249,-76.9230769230769,4,2,2,80,0,1
185963,-76.9230769230769,4,2,1,80,0,1
205249,-80,4,2,1,60,0,0
208106,-100,4,2,1,50,0,0

[Colours]
Combo1 : 255,0,0
Combo2 : 143,91,253
Combo3 : 63,203,243
Combo4 : 118,192,5
Combo5 : 255,255,0
Combo6 : 249,181,23

[HitObjects]
256,192,250,12,0,2392,2:2:0:0:
289,128,2749,6,0,P|246:131|199:151,1,89.9999972534181,2|2,2:2|2:2,0:0:0:0:
234,284,3641,1,2,2:2:0:0:
234,284,3820,2,0,P|192:272|80:211,1,134.999995880127,2|0,2:2|2:2,0:0:0:0:
112,187,4534,2,0,P|100:145|18:157,1,134.999995880127,2|0,2:2|0:0,0:0:0:0:
3,191,5249,1,2,0:0:0:0:
24,278,5606,2,0,P|47:299|73:357,1,89.9999972534181,2|2,2:2|2:2,0:0:0:0:
209,377,6499,5,0,0:0:0:0:
209,377,6677,1,2,2:2:0:0:
296,274,7213,1,0,0:0:0:0:
296,274,7391,1,2,2:2:0:0:
272,145,7927,1,0,0:0:0:0:
272,145,8105,1,2,2:2:0:0:
246,58,8463,6,0,P|207:39|144:28,1,89.9999972534181,2|2,2:2|2:2,0:0:0:0:
121,49,8999,1,2,0:0:0:0:
54,109,9356,1,2,2:2:0:0:
54,109,9534,2,0,P|46:163|61:242,1,134.999995880127,2|0,2:2|2:2,0:0:0:0:
96,269,10248,1,2,2:2:0:0:
134,350,10605,2,0,B|209:361|217:293|333:328,1,179.999994506836,2|2,2:2|2:2,0:0:0:0:
382,374,11677,1,2,2:2:0:0:
446,184,12391,6,0,P|449:157|449:107,1,50,2|8,2:2|2:2,0:0:0:0:
411,47,12927,1,8,2:2:0:0:
411,47,13106,1,8,2:2:0:0:
321,90,13463,2,0,P|297:99|256:96,1,50,2|0,2:2|2:2,0:0:0:0:
233,69,13820,5,4,2:2:0:0:
141,43,14177,1,8,2:2:0:0:
77,120,14534,1,8,2:2:0:0:
109,214,14891,2,0,P|134:228|161:233,1,50,2|2,2:2|2:2,0:0:0:0:
175,278,15249,2,0,P|200:292|226:300,2,50,8|0|2,2:2|2:2|2:2,0:0:0:0:
143,316,15784,1,8,2:2:0:0:
111,355,15963,2,0,P|78:362|-2:363,2,100,8|8|0,2:2|2:2|2:2,0:0:0:0:
206,382,17034,1,8,2:2:0:0:
303,361,17391,1,8,2:2:0:0:
232,173,18106,6,0,P|185:192|137:186,1,100,2|0,2:2|2:2,0:0:0:0:
91,166,18641,2,0,P|72:119|77:71,1,100,2|0,2:2|2:2,0:0:0:0:
112,34,19177,1,2,2:2:0:0:
308,72,19891,5,8,2:2:0:0:
406,53,20248,1,8,2:2:0:0:
494,99,20605,2,0,P|508:124|513:151,1,50,2|8,2:2|2:2,0:0:0:0:
499,193,20963,2,0,B|448:199|448:199|422:246,1,100,8|2,2:2|2:2,0:0:0:0:
473,328,21677,1,8,2:2:0:0:
383,372,22034,2,0,P|352:356|275:335,1,100,8|0,2:2|2:2,0:0:0:0:
197,375,22748,1,8,2:2:0:0:
159,282,23105,1,8,2:2:0:0:
159,282,23284,1,2,0:0:0:0:
289,207,23820,6,0,L|274:75,1,100,2|0,2:2|2:2,0:0:0:0:
249,66,24356,2,0,L|117:81,1,100,2|0,2:2|2:2,0:0:0:0:
101,91,24891,2,0,L|86:223,1,100,2|0,2:2|2:2,0:0:0:0:
3,242,25606,5,8,2:2:0:0:
38,335,25963,1,8,2:2:0:0:
126,381,26320,1,2,2:2:0:0:
201,315,26677,2,0,P|202:288|212:258,1,50,8|2,2:2|2:2,0:0:0:0:
246,233,27034,2,0,P|273:234|303:244,1,50,2|8,2:2|2:2,0:0:0:0:
319,283,27391,6,0,P|370:321|445:228,1,200,8|0,2:2|2:2,0:0:0:0:
389,156,28463,1,8,2:2:0:0:
451,78,28820,1,8,2:2:0:0:
259,19,29534,6,0,P|226:28|152:38,1,100,2|0,2:2|2:2,0:0:0:0:
110,35,30070,2,0,P|95:64|95:94,1,50,2|8,2:2|2:2,0:0:0:0:
122,121,30427,1,0,2:2:0:0:
122,121,30606,2,0,P|131:154|141:228,1,100,2|0,2:2|2:2,0:0:0:0:
165,315,31320,5,8,2:2:0:0:
256,355,31677,1,8,2:2:0:0:
352,328,32034,2,0,P|360:305|360:265,1,50,2|8,2:2|2:2,0:0:0:0:
395,242,32391,1,8,2:2:0:0:
359,148,32749,2,0,P|336:140|296:140,1,50,2|8,2:2|2:2,0:0:0:0:
273,105,33106,1,8,2:2:0:0:
334,26,33463,2,0,P|367:35|441:45,2,100,8|0|8,2:2|2:2|2:2,0:0:0:0:
291,12,34355,1,8,2:2:0:0:
291,12,34534,1,8,2:2:0:0:
199,53,34891,6,0,P|191:86|174:105,1,50,2|0,2:2|2:2,0:0:0:0:
131,98,35249,1,2,2:2:0:0:
91,128,35427,1,0,2:2:0:0:
77,177,35606,2,0,P|83:209|98:229,1,50,2|8,2:2|2:2,0:0:0:0:
124,261,35963,2,0,P|118:293|103:313,1,50,8|8,2:2|2:2,0:0:0:0:
100,356,36320,2,0,L|50:362,2,50,8|8|4,2:2|2:2|2:2,0:0:0:0:
199,379,37034,5,8,2:2:0:0:
288,333,37391,1,8,2:2:0:0:
252,239,37749,1,2,2:2:0:0:
275,195,37927,1,8,2:2:0:0:
300,152,38106,2,0,P|295:115|279:40,1,100,8|0,2:2|2:2,0:0:0:0:
320,21,38641,1,8,2:2:0:0:
367,37,38820,2,0,P|377:85|384:135,1,100,8|8,2:2|2:2,0:0:0:0:
185,113,39891,5,8,2:2:0:0:
89,84,40248,1,8,2:2:0:0:
25,161,40606,2,0,B|13:212|13:212|40:259,1,100,2|2,2:2|2:2,0:0:0:0:
19,299,41141,1,8,2:2:0:0:
95,372,41499,1,8,2:2:0:0:
95,372,41677,2,0,P|125:369|157:361,1,50,8|0,2:2|2:2,0:0:0:0:
156,316,42034,1,2,2:2:0:0:
206,319,42213,1,2,2:2:0:0:
349,362,42749,6,0,P|374:369|401:369,1,50,8|0,2:2|2:2,0:0:0:0:
438,339,43106,2,0,P|445:314|445:287,1,50,8|0,2:2|2:2,0:0:0:0:
467,245,43463,1,2,2:2:0:0:
445,199,43641,1,8,2:2:0:0:
420,155,43820,2,0,P|390:151|317:160,1,100,8|2,2:2|2:2,0:0:0:0:
289,128,44355,1,8,2:2:0:0:
289,128,44534,2,0,B|309:94|270:71|294:25,2,100,8|8|0,2:2|2:2|2:2,0:0:0:0:
207,185,45606,6,0,P|181:178|170:159,2,50,8|2|8,2:2|2:2|2:2,0:0:0:0:
162,274,46320,2,0,P|155:300|136:311,2,50,2|2|2,2:2|2:2|2:2,0:0:0:0:
209,289,46856,1,8,2:2:0:0:
286,352,47212,1,8,2:2:0:0:
332,334,47391,1,4,2:2:0:0:
332,334,48106,6,0,L|343:253,1,55.0000016784668,4|0,2:2|2:2,0:0:0:0:
382,245,48463,1,2,2:2:0:0:
383,135,48820,1,8,2:2:0:0:
305,57,49177,1,2,2:2:0:0:
254,79,49356,1,8,2:3:0:0:
210,45,49534,2,0,P|160:55|93:90,2,110.000003356934,8|2|8,2:3|2:2|2:2,0:0:0:0:
186,152,50606,6,0,P|177:258|25:210,1,275.000008392334,2|0,2:2|0:0,0:0:0:0:
9,199,51677,1,8,2:2:0:0:
54,99,52034,2,0,P|70:76|78:49,1,55.0000016784668,2|8,2:2|2:3,0:0:0:0:
132,29,52391,1,8,2:3:0:0:
132,29,52570,1,0,2:2:0:0:
132,29,52749,1,2,2:2:0:0:
235,67,53106,1,8,2:2:0:0:
448,13,53820,6,0,L|529:24,1,55.0000016784668,8|0,2:3|2:2,0:0:0:0:
508,75,54177,1,2,2:2:0:0:
444,165,54534,1,8,2:2:0:0:
362,216,54891,1,2,2:2:0:0:
375,269,55070,1,8,2:3:0:0:
345,315,55248,1,8,2:3:0:0:
245,268,55605,1,2,2:2:0:0:
160,339,55963,2,0,P|142:363|120:373,1,55.0000016784668,8|0,2:2|2:2,0:0:0:0:
68,353,56320,6,0,B|82:184|125:267|127:78,1,275.000008392334,2|0,2:2|0:0,0:0:0:0:
77,61,57391,1,8,2:2:0:0:
173,9,57748,1,2,2:2:0:0:
227,18,57927,1,8,2:3:0:0:
281,24,58106,2,0,P|312:20|334:13,2,55.0000016784668,8|0|2,2:3|2:2|2:2,0:0:0:0:
329,122,58820,1,8,2:2:0:0:
117,85,59534,5,8,2:3:0:0:
59,178,59891,2,0,P|16:144|-1:92,2,110.000003356934,2|8|2,2:2|2:2|2:2,0:0:0:0:
83,227,60784,1,8,2:3:0:0:
54,274,60963,1,8,2:3:0:0:
137,346,61320,1,2,2:2:0:0:
223,278,61677,2,0,B|220:228|252:222|243:153,2,110.000003356934,8|2|8,2:2|2:2|2:3,0:0:0:0:
322,324,62749,5,2,2:2:0:0:
414,383,63106,1,8,2:2:0:0:
473,290,63463,2,0,P|468:255|454:238,1,55.0000016784668,2|8,2:2|2:3,0:0:0:0:
467,186,63820,1,8,2:3:0:0:
433,142,63999,1,0,2:2:0:0:
452,90,64177,2,0,P|417:85|328:62,1,110.000003356934,2|8,2:2|2:2,0:0:0:0:
243,39,64891,1,2,2:2:0:0:
243,39,65070,1,0,2:2:0:0:
192,60,65249,6,0,P|205:90|211:177,1,110.000003356934,8|2,2:3|2:2,0:0:0:0:
173,204,65784,1,0,2:2:0:0:
119,191,65963,2,0,P|106:161|100:74,2,110.000003356934,8|2|8,2:2|2:2|2:3,0:0:0:0:
100,299,67034,2,0,P|130:312|217:318,1,110.000003356934,2|8,2:2|2:2,0:0:0:0:
254,357,67570,1,0,2:2:0:0:
254,357,67749,2,0,P|275:342|303:335,2,55.0000016784668,2|0|0,2:2|2:2|2:2,0:0:0:0:
512,0,69713,5,8,2:2:0:0:
436,65,70070,1,8,2:2:0:0:
387,50,70249,1,8,2:2:0:0:
311,235,70963,5,4,2:2:0:0:
225,286,71320,1,8,2:2:0:0:
128,261,71677,1,8,2:2:0:0:
76,175,72034,2,0,P|90:150|95:123,1,50,2|8,2:2|2:2,0:0:0:0:
60,91,72392,2,0,P|35:77|9:69,2,50,8|0|2,2:2|2:2|2:2,0:0:0:0:
74,43,72927,1,8,2:2:0:0:
117,18,73106,1,8,2:2:0:0:
215,31,73463,1,8,2:2:0:0:
381,142,74177,5,8,2:2:0:0:
474,107,74534,1,8,2:2:0:0:
423,300,75249,1,2,2:2:0:0:
364,381,75606,1,0,2:2:0:0:
364,381,75784,2,0,P|317:362|269:367,1,100,2|0,2:2|2:2,0:0:0:0:
230,335,76320,1,2,2:2:0:0:
70,214,77034,5,8,2:2:0:0:
41,118,77391,1,8,2:2:0:0:
106,42,77748,2,0,P|132:32|160:31,1,50,2|8,2:2|2:2,0:0:0:0:
175,76,78106,1,8,2:2:0:0:
271,57,78463,2,0,P|296:43|323:38,1,50,2|8,2:2|2:2,0:0:0:0:
366,41,78820,2,0,P|382:72|403:149,1,100,8|8,2:2|2:2,0:0:0:0:
247,262,79891,1,8,2:2:0:0:
299,347,80249,1,8,2:2:0:0:
478,259,80963,6,0,L|493:127,1,100,2|0,2:2|2:2,0:0:0:0:
473,112,81499,2,0,L|341:97,1,100,2|0,2:2|2:2,0:0:0:0:
328,121,82034,2,0,P|284:69|305:27,2,100,2|0|8,2:2|2:2|2:2,0:0:0:0:
291,214,83106,5,8,2:2:0:0:
325,307,83463,2,0,P|324:334|314:364,1,50,2|8,2:2|2:2,0:0:0:0:
270,373,83820,2,0,P|243:372|213:362,1,50,8|2,2:2|2:2,0:0:0:0:
174,348,84177,2,0,P|173:321|163:291,1,50,2|8,2:2|2:2,0:0:0:0:
118,285,84534,6,0,P|80:248|210:83,1,300,8|8,2:2|2:2,0:0:0:0:
120,0,85963,1,8,2:2:0:0:
174,192,86677,5,2,2:2:0:0:
221,279,87034,1,0,2:2:0:0:
221,279,87213,2,0,P|266:290|328:288,1,100,2|0,2:2|2:2,0:0:0:0:
353,253,87749,2,0,P|367:205|372:146,1,100,2|0,2:2|2:2,0:0:0:0:
463,115,88463,5,8,2:2:0:0:
418,25,88820,1,8,2:2:0:0:
323,57,89177,2,0,P|300:49|260:49,1,50,2|8,2:2|2:2,0:0:0:0:
236,79,89534,2,0,B|202:122|202:122|157:108,1,100,8|2,2:2|2:2,0:0:0:0:
113,87,90070,1,8,2:2:0:0:
71,114,90249,1,8,2:2:0:0:
121,200,90606,2,0,P|130:233|140:307,2,100,8|0|8,2:2|2:2|2:2,0:0:0:0:
41,261,91677,1,8,2:2:0:0:
52,360,92034,6,0,P|85:368|104:385,1,50,2|0,2:2|2:2,0:0:0:0:
147,383,92392,1,2,2:2:0:0:
240,347,92749,1,2,2:2:0:0:
288,336,92927,1,8,2:2:0:0:
336,323,93106,2,0,P|352:300|368:286,1,50,8|8,2:2|2:2,0:0:0:0:
418,283,93463,2,0,P|440:299|454:315,1,50,8|8,2:2|2:2,0:0:0:0:
377,187,94177,5,8,2:2:0:0:
279,165,94534,1,8,2:2:0:0:
292,65,94892,1,2,2:2:0:0:
259,26,95070,1,8,2:2:0:0:
208,28,95249,2,0,P|171:33|96:49,1,100,8|2,2:2|2:2,0:0:0:0:
94,92,95784,1,8,2:2:0:0:
47,108,95963,2,0,P|37:156|30:206,1,100,8|8,2:2|2:2,0:0:0:0:
203,306,97034,5,8,2:2:0:0:
293,349,97391,1,8,2:2:0:0:
374,291,97749,2,0,B|386:240|386:240|359:193,1,100,2|2,2:2|2:2,0:0:0:0:
397,163,98284,1,8,2:2:0:0:
355,77,98642,1,8,2:2:0:0:
355,77,98820,2,0,P|325:74|293:66,1,50,8|2,2:2|2:2,0:0:0:0:
294,21,99177,1,8,2:2:0:0:
244,24,99356,1,8,2:2:0:0:
187,106,99713,1,2,2:2:0:0:
187,106,99892,6,0,P|178:154|178:236,1,100,8|8,2:2|2:2,0:0:0:0:
92,260,100606,1,2,2:2:0:0:
90,309,100784,1,8,2:2:0:0:
124,345,100963,2,0,P|154:349|227:340,1,100,8|2,2:2|2:2,0:0:0:0:
276,337,101498,1,8,2:2:0:0:
276,337,101677,2,0,B|296:370|335:346|364:389,2,100,8|8|2,2:2|2:2|2:2,0:0:0:0:
307,241,102749,6,0,P|333:248|344:267,1,50,8|2,2:2|2:2,0:0:0:0:
394,270,103106,1,8,2:2:0:0:
427,175,103463,2,0,P|434:149|453:138,1,50,2|2,2:2|2:2,0:0:0:0:
456,88,103820,1,2,2:2:0:0:
424,49,103999,1,8,2:2:0:0:
338,99,104355,1,8,2:2:0:0:
292,81,104534,1,4,2:2:0:0:
190,298,105249,6,0,L|182:222,1,59.9999981689454,4|0,2:2|0:0,0:0:0:0:
128,213,105606,1,2,2:2:0:0:
39,131,105963,1,8,2:2:0:0:
102,29,106320,1,2,2:2:0:0:
161,18,106499,1,8,2:3:0:0:
220,11,106677,1,8,2:3:0:0:
308,92,107034,1,2,2:2:0:0:
419,46,107391,1,8,2:2:0:0:
487,145,107749,6,0,P|365:118|340:269,1,299.999990844727,2|0,2:2|2:2,0:0:0:0:
379,299,108820,1,8,2:2:0:0:
288,377,109177,2,0,P|265:361|235:351,1,59.9999981689454,2|8,2:2|2:3,0:0:0:0:
182,361,109534,1,8,2:3:0:0:
182,361,109713,1,0,2:2:0:0:
182,361,109892,1,2,2:2:0:0:
63,379,110249,1,8,2:2:0:0:
63,379,110963,5,8,2:3:0:0:
0,276,111320,1,2,2:2:0:0:
88,196,111677,1,8,2:2:0:0:
39,86,112034,1,2,2:2:0:0:
93,61,112213,1,8,2:3:0:0:
145,90,112391,1,8,2:3:0:0:
258,127,112748,1,2,2:2:0:0:
225,242,113106,1,8,2:2:0:0:
108,268,113463,6,0,B|287:282|199:328|399:330,1,299.999990844727,2|0,2:2|2:2,0:0:0:0:
446,365,114534,1,8,2:2:0:0:
496,256,114891,1,2,2:2:0:0:
477,205,115070,1,8,2:3:0:0:
469,151,115249,2,0,P|472:119|479:91,2,59.9999981689454,8|0|2,2:3|2:2|2:2,0:0:0:0:
351,174,115963,1,8,2:2:0:0:
212,381,116677,5,8,2:3:0:0:
139,285,117034,2,0,P|94:323|79:383,2,119.999996337891,2|8|2,2:2|2:2|2:2,0:0:0:0:
146,225,117927,1,8,2:3:0:0:
108,177,118106,1,8,2:3:0:0:
39,78,118463,1,2,2:2:0:0:
146,24,118820,2,0,B|202:20|202:53|281:45,1,119.999996337891,8|2,2:2|2:2,0:0:0:0:
272,165,119534,6,0,B|268:221|301:221|293:300,1,119.999996337891,8|2,2:3|2:2,0:0:0:0:
387,357,120249,1,8,2:2:0:0:
466,267,120606,2,0,P|471:232|487:211,1,59.9999981689454,2|8,2:2|2:3,0:0:0:0:
451,162,120963,1,8,2:3:0:0:
493,119,121142,1,0,2:2:0:0:
482,60,121320,1,2,2:2:0:0:
365,86,121677,1,8,2:2:0:0:
259,41,122034,1,2,2:2:0:0:
259,41,122213,1,0,2:2:0:0:
238,92,122392,6,0,P|208:79|114:72,1,119.999996337891,8|2,2:3|2:2,0:0:0:0:
82,120,122927,1,2,2:2:0:0:
27,145,123106,2,0,P|4:203|7:270,2,119.999996337891,8|2|8,2:2|2:2|2:3,0:0:0:0:
117,223,124177,2,0,P|147:236|234:235,1,119.999996337891,0|8,2:2|2:2,0:0:0:0:
265,292,124713,1,0,2:2:0:0:
265,292,124892,2,0,P|250:313|243:349,1,59.9999981689454,2|0,2:2|2:2,0:0:0:0:
511,384,131141,6,0,P|509:367|485:271,1,100,8|8,2:2|2:2,0:0:0:0:
460,246,131677,2,0,P|443:248|347:272,1,100,8|2,2:2|2:2,0:0:0:0:
342,314,132213,1,0,2:2:0:0:
342,314,132391,1,2,2:2:0:0:
202,368,132927,1,8,2:2:0:0:
117,314,133284,1,8,2:2:0:0:
117,314,133463,2,0,P|82:312|53:320,2,50,8|8|0,2:2|2:2|2:2,0:0:0:0:
165,226,134177,6,0,P|163:209|139:113,1,100,8|8,2:2|2:2,0:0:0:0:
191,40,134891,2,0,P|218:33|245:37,1,50,2|8,2:2|2:2,0:0:0:0:
280,64,135249,2,0,P|307:63|332:52,1,50,8|0,2:2|2:2,0:0:0:0:
365,22,135606,2,0,P|392:22|417:33,1,50,2|8,2:2|2:2,0:0:0:0:
446,67,135963,1,8,2:2:0:0:
385,146,136320,1,8,2:2:0:0:
409,344,137034,6,0,P|392:342|296:318,1,100,8|8,2:2|2:2,0:0:0:0:
270,352,137570,1,0,2:2:0:0:
170,358,137927,1,0,2:2:0:0:
142,316,138106,2,0,P|155:267|162:218,1,100,2|8,2:2|2:2,0:0:0:0:
116,200,138641,2,0,L|112:116,1,50,8|8,2:2|2:2,0:0:0:0:
82,54,139177,2,0,L|0:34,1,50,8|8,2:2|2:2,0:0:0:0:
179,8,139891,5,8,2:2:0:0:
263,61,140249,1,8,2:2:0:0:
217,150,140606,2,0,L|236:231,1,50,2|8,2:2|2:2,0:0:0:0:
191,231,140963,2,0,L|179:279,1,50,8|2,2:2|2:2,0:0:0:0:
207,327,141320,1,2,2:2:0:0:
247,357,141499,1,8,2:2:0:0:
294,340,141677,6,0,P|357:343|428:126,1,300,8|8,2:2|2:2,0:0:0:0:
426,62,143106,2,0,P|392:51|354:45,1,50,8|0,2:2|2:2,0:0:0:0:
285,87,143641,1,2,2:2:0:0:
254,47,143820,2,0,P|220:36|142:25,1,100,2|0,2:2|2:2,0:0:0:0:
113,46,144356,1,10,2:2:0:0:
113,46,144534,2,0,P|102:79|91:158,1,100,12|2,2:2|2:2,0:0:0:0:
256,192,145249,12,0,148820,2:2:0:0:
321,137,149356,5,8,2:2:0:0:
321,137,149534,2,0,L|313:197,1,50,8|8,2:2|2:2,0:0:0:0:
279,222,149891,1,8,2:2:0:0:
243,257,150069,2,0,L|183:265,1,50,8|8,2:2|2:2,0:0:0:0:
147,243,150427,1,8,2:2:0:0:
126,197,150605,1,8,2:2:0:0:
112,46,151141,6,0,P|90:34|65:31,2,50,2|8|2,2:2|2:2|2:2,0:0:0:0:
140,87,151677,2,0,P|180:75|242:76,1,100,8|0,2:2|2:2,0:0:0:0:
268,36,152213,1,2,2:2:0:0:
268,36,152391,1,8,2:2:0:0:
335,109,152749,2,0,P|345:134|348:169,1,50,2|8,2:2|2:2,0:0:0:0:
379,195,153106,6,0,P|396:198|488:210,2,100,8|8|0,2:2|2:2|2:2,0:0:0:0:
318,274,154177,1,8,2:2:0:0:
251,348,154534,1,8,2:2:0:0:
159,308,154891,2,0,L|150:208,1,100,2|2,2:2|2:2,0:0:0:0:
104,186,155427,1,8,2:2:0:0:
167,109,155784,1,8,2:2:0:0:
167,109,155963,2,0,L|219:117,1,50,8|2,2:2|2:2,0:0:0:0:
263,95,156320,1,8,2:2:0:0:
263,95,156499,1,8,2:2:0:0:
136,14,157034,5,8,2:2:0:0:
136,14,157213,1,2,2:2:0:0:
87,23,157391,2,0,P|67:74|66:133,1,100,8|2,2:2|2:2,0:0:0:0:
84,164,157927,1,10,2:2:0:0:
47,197,158106,1,8,2:2:0:0:
96,284,158463,2,0,P|123:292|161:291,1,50,2|10,2:2|2:2,0:0:0:0:
168,337,158820,1,8,2:2:0:0:
247,276,159177,1,8,2:2:0:0:
324,338,159534,6,0,P|322:360|314:381,2,33.3333333333333,2|2|2,2:2|2:2|2:2,0:0:0:0:
348,315,159891,2,0,B|388:295|402:326|449:295,1,100,8|8,2:2|2:2,0:0:0:0:
382,160,160784,1,2,2:2:0:0:
347,123,160963,6,0,P|325:121|304:113,2,33.3333333333333,2|2|2,2:2|2:2|2:2,0:0:0:0:
368,97,161320,1,2,0:0:0:0:
346,0,161677,1,8,2:2:0:0:
254,42,162034,2,0,P|193:33|151:34,1,100,2|4,2:2|2:2,0:0:0:0:
512,384,174177,5,2,2:2:0:0:
435,337,174534,1,2,2:2:0:0:
197,382,175606,1,2,2:2:0:0:
197,382,175963,2,0,P|177:300|179:204,1,179.999994506836,2|0,2:2|2:2,0:0:0:0:
102,157,177034,5,2,2:2:0:0:
55,80,177391,1,2,2:2:0:0:
125,24,177749,2,0,P|164:24|230:31,2,89.9999972534181,2|2|2,2:2|2:2|2:2,0:0:0:0:
55,80,178820,1,2,2:2:0:0:
102,157,179177,5,2,2:2:0:0:
29,209,179534,2,0,P|14:237|20:296,1,89.9999972534181,2|2,2:2|2:2,0:0:0:0:
79,360,180249,1,2,2:2:0:0:
164,333,180606,1,2,2:2:0:0:
249,361,180963,2,0,P|278:367|416:389,2,134.999995880127,2|2|2,2:2|2:2|2:2,0:0:0:0:
217,328,182213,1,2,2:2:0:0:
256,192,182391,12,4,184534,2:2:0:0:
284,30,185249,6,0,P|319:22|351:18,1,64.9999970245363,4|0,2:2|2:2,0:0:0:0:
411,33,185606,1,2,2:2:0:0:
397,162,185963,1,8,2:2:0:0:
451,279,186320,1,2,2:2:0:0:
392,308,186499,1,8,2:3:0:0:
338,271,186677,1,8,2:3:0:0:
215,314,187034,1,2,2:2:0:0:
91,353,187391,1,8,2:2:0:0:
126,227,187749,6,0,P|165:96|2:80,1,324.999985122681,2|0,2:2|2:2,0:0:0:0:
19,130,188820,1,8,2:2:0:0:
22,259,189177,2,0,P|32:288|59:311,1,64.9999970245363,2|8,2:2|2:3,0:0:0:0:
67,374,189534,1,8,2:3:0:0:
134,364,189713,1,0,2:2:0:0:
199,356,189892,1,2,2:2:0:0:
327,334,190249,1,8,2:2:0:0:
457,109,190963,5,8,2:3:0:0:
360,22,191320,1,2,2:2:0:0:
236,63,191677,1,8,2:2:0:0:
117,9,192034,1,2,2:2:0:0:
91,68,192213,1,8,2:3:0:0:
120,125,192391,1,8,2:3:0:0:
49,234,192748,1,2,2:2:0:0:
130,335,193106,1,8,2:2:0:0:
0,340,193463,6,0,B|201:324|102:272|327:270,1,324.999985122681,2|0,2:2|2:2,0:0:0:0:
361,315,194534,1,8,2:2:0:0:
466,239,194891,1,2,2:2:0:0:
481,175,195070,1,8,2:3:0:0:
448,118,195249,2,0,P|416:115|380:103,1,64.9999970245363,8|0,2:3|2:2,0:0:0:0:
325,78,195606,2,0,P|389:66|459:39,2,129.999994049073,2|8|2,2:2|2:2|2:2,0:0:0:0:
206,24,196677,5,8,2:3:0:0:
115,116,197034,2,0,P|59:70|42:4,2,129.999994049073,2|8|0,2:2|2:2|2:2,0:0:0:0:
150,170,197927,1,8,2:3:0:0:
112,218,198106,1,8,2:3:0:0:
226,280,198463,1,2,2:2:0:0:
144,381,198820,2,0,B|88:384|88:352|10:360,2,129.999994049073,8|2|8,2:2|2:2|2:3,0:0:0:0:
226,280,199891,5,2,2:2:0:0:
112,218,200249,1,8,2:2:0:0:
202,124,200606,2,0,P|234:128|260:146,1,64.9999970245363,2|8,2:2|2:3,0:0:0:0:
326,147,200963,1,8,2:3:0:0:
370,99,201142,1,2,2:2:0:0:
353,36,201320,1,2,2:2:0:0:
480,62,201677,1,8,2:2:0:0:
481,196,202034,1,2,2:2:0:0:
425,229,202213,1,0,2:2:0:0:
462,282,202392,6,0,P|433:339|382:387,1,129.999994049073,8|0,2:3|2:2,0:0:0:0:
327,356,202927,1,2,2:2:0:0:
271,321,203106,2,0,P|213:344|136:344,2,129.999994049073,8|2|8,2:2|2:2|2:3,0:0:0:0:
348,216,204177,2,0,P|361:186|362:83,1,129.999994049073,2|8,2:2|2:2,0:0:0:0:
355,30,204713,1,0,2:2:0:0:
355,30,204892,2,0,P|334:15|293:8,1,64.9999970245363,2|2,2:2|2:2,0:0:0:0:
0,2,206499,5,8,2:2:0:0:
0,2,206677,2,0,L|64:12,1,62.5,8|8,2:2|2:2,0:0:0:0:
102,59,207034,1,8,2:2:0:0:
137,95,207212,2,0,L|148:160,1,62.5,8|8,2:2|2:2,0:0:0:0:
108,206,207570,1,8,2:2:0:0:
51,232,207749,2,0,P|57:258|73:367,1,125,8|2,2:2|2:2,0:0:0:0:
171,367,208463,6,0,B|203:368|203:368|219:344,1,50,8|0,2:2|2:2,0:0:0:0:
229,305,208820,1,8,2:2:0:0:
198,209,209177,1,2,2:2:0:0:
229,170,209356,1,8,2:2:0:0:
267,138,209534,2,0,P|318:142|380:157,1,100,8|2,2:2|2:2,0:0:0:0:
405,182,210070,1,8,2:2:0:0:
446,154,210248,2,0,P|475:108|518:67,2,100,8|8|0,2:2|2:2|2:2,0:0:0:0:
477,249,211320,5,8,2:2:0:0:
386,290,211677,1,8,2:2:0:0:
325,369,212034,2,0,P|294:358|271:340,1,50,2|2,2:2|2:2,0:0:0:0:
230,344,212391,5,2,2:2:0:0:
183,325,212570,2,0,P|152:336|129:354,2,50,8|8|0,2:2|2:2|2:2,0:0:0:0:
197,277,213106,2,0,P|204:256|208:227,1,50,8|8,2:2|2:2,0:0:0:0:
176,189,213463,1,8,2:2:0:0:
129,172,213641,1,8,2:2:0:0:
109,73,213999,1,2,2:2:0:0:
151,45,214178,2,0,P|175:48|262:72,1,100,8|8,2:2|2:2,0:0:0:0:
344,27,214891,5,2,2:2:0:0:
344,27,215070,1,8,2:2:0:0:
344,27,215249,2,0,P|369:31|449:52,1,100,8|2,2:2|2:2,0:0:0:0:
465,99,215785,1,8,2:2:0:0:
465,99,215964,2,0,P|469:124|494:199,2,100,8|8|2,2:2|2:2|2:2,0:0:0:0:
372,136,217034,1,8,2:2:0:0:
301,206,217391,1,8,2:2:0:0:
214,155,217749,6,0,B|191:154|191:154|188:167|188:167|181:155|181:155|175:169|175:169|170:157|170:157|162:168|162:168|125:178|91:173,1,150,2|8,2:2|2:2,0:0:0:0:
44,254,218641,1,8,2:2:0:0:
20,298,218820,2,0,P|23:322|30:346,1,50,8|0,2:2|2:2,0:0:0:0:
64,382,219176,1,2,2:2:0:0:
112,368,219356,1,2,2:2:0:0:
167,286,219713,5,0,0:0:0:0:
167,286,219892,1,8,2:2:0:0:
194,189,220249,1,8,2:2:0:0:
146,107,220606,1,2,2:2:0:0:
127,60,220785,1,8,2:2:0:0:
159,22,220963,2,0,P|214:25|275:41,1,100,8|2,2:2|2:2,0:0:0:0:
283,77,221499,1,8,2:2:0:0:
318,111,221677,2,0,P|373:108|434:92,1,100,8|8,2:2|2:2,0:0:0:0:
382,295,222749,5,8,2:2:0:0:
451,366,223106,1,8,2:2:0:0:
