osu file format v14

[General]
AudioFilename: Owl City - Beautiful Times (featuring Lindsey Stirling).mp3
AudioLeadIn: 2000
PreviewTime: 77652
Countdown: 0
SampleSet: Soft
StackLeniency: 0.7
Mode: 0
LetterboxInBreaks: 0
WidescreenStoryboard: 1

[Editor]
DistanceSpacing: 1.4
BeatDivisor: 4
GridSize: 4
TimelineZoom: 1

[Metadata]
Title:Beautiful Times (feat. Lindsey Stirling)
TitleUnicode:Beautiful Times (feat. Lindsey Stirling)
Artist:Owl City
ArtistUnicode:Owl City
Creator:HootOwlStar
Version:j_a's Light Hard
Source:
Tags:Adam Young June 27 Ultraviolet EP Fort Gray Veyron Cerulean orza6006 VINXIS Mishima Yurara jinhang_ang Arcubin
BeatmapID:669222
BeatmapSetID:172788

[Difficulty]
HPDrainRate:5
CircleSize:4
OverallDifficulty:5
ApproachRate:6
SliderMultiplier:2.3
SliderTickRate:2

[Events]
//Background and Video events
0,0,"owl_city_by_chadatbethel.jpg",0,0
Video,0,"Owl City - Beautiful Times ft Lindsey Stirling.avi"
//Break Periods
2,106087,116969
//Storyboard Layer 0 (Background)
//Storyboard Layer 1 (Fail)
//Storyboard Layer 2 (Pass)
//Storyboard Layer 3 (Foreground)
//Storyboard Sound Samples

[TimingPoints]
5,882.352941176471,4,2,1,35,1,0
77652,-100,4,2,1,60,0,1
91549,-100,4,2,1,60,0,0
91769,-100,4,2,1,60,0,1
105887,-100,4,2,1,60,0,0
118019,-100,4,2,1,20,0,0
120225,-100,4,2,1,60,0,0
148240,-100,4,2,1,60,0,1
162137,-100,4,2,1,60,0,0
162357,-100,4,2,1,60,0,1
176475,-100,4,2,1,60,0,0
188607,-100,4,2,1,35,0,0

[Colours]
Combo1 : 217,0,0
Combo2 : 169,83,255
Combo3 : 0,128,255
Combo4 : 1,228,200
Combo5 : 190,252,3
Combo6 : 251,255,98
Combo7 : 255,211,79
Combo8 : 253,108,2

[HitObjects]
229,153,7063,5,4,0:0:0:0:
225,234,7284,1,0,0:0:0:0:
296,196,7505,2,0,P|304:118|264:84,1,115,0|2,0:0|0:0,0:0:0:0:
204,80,8166,2,0,P|144:72|112:24,2,115
184,12,9269,2,0,L|132:132,1,115,0|2,0:0|0:0,0:0:0:0:
192,176,9931,6,0,L|244:296,2,115
260,132,11034,2,0,P|312:96|324:24,2,115,0|2|0,0:0|0:0|0:0,0:0:0:0:
248,52,12137,2,0,P|324:92|336:124,1,115
312,192,12799,1,0,0:0:0:0:
348,264,13019,2,0,B|400:284|400:284|468:268,2,115,2|2|0,0:0|0:0|0:0,0:0:0:0:
312,192,14122,5,0,0:0:0:0:
244,232,14343,1,0,0:0:0:0:
232,152,14563,2,0,P|184:96|136:84,1,115,0|2,0:0|0:0,0:0:0:0:
76,124,15225,2,0,P|68:60|104:16,2,115
148,88,16328,2,0,L|256:148,1,115,0|2,0:0|0:0,0:0:0:0:
260,224,16990,6,0,P|312:196|328:136,2,115
180,220,18093,2,0,P|128:224|92:284,1,115,0|2,0:0|0:0,0:0:0:0:
168,296,18755,2,0,P|216:344|272:340,2,115
244,268,19857,1,0,0:0:0:0:
324,280,20078,2,0,P|372:216|372:168,1,115
400,108,20740,2,0,P|340:108|304:152,1,115,2|4,0:0|0:0,0:0:0:0:
305,146,21622,6,0,P|248:176|196:156,1,115,0|2,0:0|0:0,0:0:0:0:
136,116,22284,1,0,0:0:0:0:
132,196,22505,1,0,0:0:0:0:
148,276,22725,2,0,B|100:308|100:308|84:236|16:240,1,172.5
56,84,23828,1,2,0:0:0:0:
208,140,24269,2,0,P|260:112|276:48,1,115
196,60,24931,5,0,0:0:0:0:
208,140,25152,2,0,L|248:264,1,115,0|2,0:0|0:0,0:0:0:0:
312,292,25813,1,0,0:0:0:0:
312,212,26034,1,0,0:0:0:0:
372,156,26255,2,0,P|400:88|320:24,1,172.5
184,68,27357,2,0,P|108:72|76:32,2,115,2|0|4,0:0|0:0|0:0,0:0:0:0:
184,68,29122,5,8,0:0:0:0:
288,20,29563,2,0,L|320:76,1,57.5
280,144,30005,2,0,L|240:216,1,57.5
180,232,30446,2,0,L|212:288,1,57.5
288,268,30887,1,8,0:0:0:0:
376,196,31328,6,0,L|444:176,2,57.5,0|0|2,0:0|0:0|0:0,0:0:0:0:
268,156,32210,2,0,L|212:139,2,57.5,0|0|8,0:0|0:0|0:0,0:0:0:0:
292,44,33093,5,0,0:0:0:0:
292,44,33313,1,0,0:0:0:0:
292,44,33534,2,0,P|364:88|368:128,1,115
296,200,34416,2,0,P|224:156|220:116,2,115,8|0|4,0:0|0:0|0:0,0:0:0:0:
372,228,35519,5,0,0:0:0:0:
308,280,35740,2,0,L|196:328,1,115,0|8,0:0|0:0,0:0:0:0:
132,284,36402,2,0,B|72:244|96:184|96:184|52:148,1,172.5
64,68,37284,1,0,0:0:0:0:
140,100,37505,2,0,P|200:104|252:56,1,115,0|8,0:0|0:0,0:0:0:0:
280,144,38166,2,0,B|336:108|316:44|316:44|368:0,1,172.5,0|2,0:0|0:0,0:0:0:0:
408,72,39049,5,0,0:0:0:0:
388,152,39269,2,0,P|344:208|296:228,2,115,0|8|0,0:0|0:0|0:0,0:0:0:0:
448,204,40372,2,0,L|472:320,1,115
392,300,41034,1,0,0:0:0:0:
312,308,41255,2,0,B|256:332|256:332|184:308,1,115
164,244,41916,2,0,L|152:176,1,57.5
84,148,42357,5,0,0:0:0:0:
24,200,42578,1,0,0:0:0:0:
61,267,42799,2,0,P|134:269|173:227,1,115
100,196,43460,2,0,P|128:152|116:88,2,115
48,132,44563,6,0,L|172:100,1,115,0|8,0:0|0:0,0:0:0:0:
216,160,45225,2,0,P|216:240|248:272,2,115
288,196,46328,2,0,L|176:224,1,115,0|8,0:0|0:0,0:0:0:0:
156,300,46990,1,0,0:0:0:0:
96,153,47431,2,0,L|164:137,1,57.5
152,140,48534,1,0,0:0:0:0:
152,140,49416,6,0,P|232:172|276:152,1,115,4|0,0:0|0:0,0:0:0:0:
216,92,50078,1,0,0:0:0:0:
296,84,50299,2,0,B|324:96|336:120|336:120|384:92|384:92|448:120|444:220,1,230,8|0,0:0|0:0,0:0:0:0:
268,244,51622,1,0,0:0:0:0:
424,280,52063,1,8,0:0:0:0:
268,328,52505,2,0,P|204:300|188:256,1,115,0|2,0:0|0:0,0:0:0:0:
124,212,53166,5,0,0:0:0:0:
196,184,53387,2,0,B|228:136|228:136|208:72,2,115,0|8|0,0:0|0:0|0:0,0:0:0:0:
148,120,54490,2,0,B|32:128|32:128|84:92,1,172.5
92,256,55593,1,8,0:0:0:0:
172,116,56034,2,0,L|264:204,1,115,0|2,0:0|0:0,0:0:0:0:
312,136,56696,5,0,0:0:0:0:
336,212,56916,2,0,P|308:264|248:280,1,115,0|8,0:0|0:0,0:0:0:0:
192,232,57578,2,0,P|160:172|104:156,2,115
112,236,58681,2,0,P|61:211|38:160,1,115,0|8,0:0|0:0,0:0:0:0:
80,92,59343,2,0,B|188:48|188:48|156:104,1,172.5,0|2,0:0|0:0,0:0:0:0:
236,120,60225,5,0,0:0:0:0:
312,96,60446,2,0,P|308:164|264:196,1,115,0|8,0:0|0:0,0:0:0:0:
196,192,61107,1,0,0:0:0:0:
196,192,61549,2,0,L|164:216,2,28.75
196,192,63534,6,0,P|164:252|60:236,1,172.5,4|0,0:0|0:0,0:0:0:0:
120,180,64416,1,8,0:0:0:0:
176,120,64637,1,0,0:0:0:0:
256,116,64857,2,0,L|340:224,1,115
320,288,65519,1,0,0:0:0:0:
244,260,65740,2,0,L|128:296,2,115,0|8|0,0:0|0:0|0:0,0:0:0:0:
244,260,67063,5,2,0:0:0:0:
244,260,67505,2,0,B|252:200|252:200|216:152,2,115,0|8|0,0:0|0:0|0:0,0:0:0:0:
172,220,68607,1,0,0:0:0:0:
92,208,68828,2,0,L|112:144,1,57.5
56,96,69269,2,0,L|36:36,1,57.5
120,40,69710,2,0,P|200:68|236:56,1,115,8|0,0:0|0:0,0:0:0:0:
226,60,70593,6,0,L|204:184,1,115,2|0,0:0|0:0,0:0:0:0:
216,252,71255,1,0,0:0:0:0:
280,204,71475,2,0,P|324:196|344:168,1,57.5,8|0,0:0|0:0,0:0:0:0:
412,184,71916,2,0,P|392:132|324:108,1,115
260,92,72578,1,0,0:0:0:0:
196,140,72799,1,0,0:0:0:0:
160,68,73019,1,0,0:0:0:0:
116,136,73240,2,0,B|92:192|92:192|28:216,2,115,8|0|0,0:0|0:0|0:0,0:0:0:0:
116,136,74563,6,0,B|168:160|168:160|232:148,2,115,0|8|0,0:0|0:0|0:0,0:0:0:0:
176,80,75666,1,0,0:0:0:0:
256,80,75887,2,0,L|320:60,1,57.5
348,132,76328,2,0,L|412:148,1,57.5
360,216,76769,5,8,0:0:0:0:
288,252,76990,1,0,0:0:0:0:
216,216,77210,1,0,0:0:0:0:
212,136,77431,1,0,0:0:0:0:
180,64,77652,6,0,P|136:112|144:172,1,115,4|0,0:0|0:0,0:0:0:0:
92,224,78313,1,0,0:0:0:0:
172,236,78534,2,0,P|236:268|244:332,1,115,8|0,0:0|0:0,0:0:0:0:
168,316,79196,1,0,0:0:0:0:
172,236,79416,2,0,P|192:168|172:124,1,115
99,215,80299,6,0,P|191:235|295:143,1,230,8|2,0:0|0:0,0:0:0:0:
291,156,81622,1,0,0:0:0:0:
248,88,81843,1,0,0:0:0:0:
172,112,82063,2,0,P|224:208|196:328,1,230,8|0,0:0|0:0,0:0:0:0:
200,321,83387,1,0,0:0:0:0:
104,192,83828,2,0,P|196:164|332:232,1,230,8|2,0:0|0:0,0:0:0:0:
420,164,85152,6,0,L|448:104,2,57.5,0|0|8,0:0|0:0|0:0,0:0:0:0:
344,140,85813,1,0,0:0:0:0:
264,144,86034,2,0,P|212:88|236:56,1,115
148,36,86696,1,0,0:0:0:0:
120,112,86916,2,0,L|136:192,1,57.5
200,212,87357,2,0,P|140:252|96:244,2,115,8|0|2,0:0|0:0|0:0,0:0:0:0:
200,212,88681,6,0,B|248:244|248:244|312:236,2,115,0|8|0,0:0|0:0|0:0,0:0:0:0:
268,168,89784,1,0,0:0:0:0:
196,132,90005,2,0,L|208:76,1,57.5
132,96,90446,2,0,L|112:40,1,57.5
48,88,90887,2,0,P|76:184|28:316,1,230,8|4,0:0|0:0,0:0:0:0:
152,312,92210,6,0,L|216:284,2,57.5,0|0|8,0:0|0:0|0:0,0:0:0:0:
56,252,93093,2,0,L|-4:232,2,57.5
164,216,93975,6,0,P|192:180|184:148,1,57.5
112,152,94416,2,0,L|104:88,1,57.5,8|0,0:0|0:0,0:0:0:0:
180,68,94857,2,0,L|216:16,1,57.5
272,76,95299,6,0,P|284:160|252:200,1,115,2|0,0:0|0:0,0:0:0:0:
212,236,95960,1,0,0:0:0:0:
256,300,96181,2,0,L|372:268,1,115,8|0,0:0|0:0,0:0:0:0:
366,269,97063,2,0,L|340:212,1,57.5
264,232,97505,2,0,L|209:201,1,57.5
132,200,97946,2,0,L|106:143,1,57.5,8|0,0:0|0:0,0:0:0:0:
184,116,98387,2,0,L|196:54,1,57.5
268,96,98828,6,0,P|352:128|392:104,1,115,2|0,0:0|0:0,0:0:0:0:
332,48,99490,1,0,0:0:0:0:
268,96,99710,2,0,L|296:216,2,115,8|0|0,0:0|0:0|0:0,0:0:0:0:
192,68,100813,1,0,0:0:0:0:
160,144,101034,2,0,P|116:104|116:36,1,115,0|8,0:0|0:0,0:0:0:0:
32,72,101696,1,0,0:0:0:0:
24,152,101916,2,0,L|16:208,1,57.5,0|2,0:0|0:0,0:0:0:0:
96,224,102357,6,0,P|140:204|156:132,1,115
96,92,103019,1,0,0:0:0:0:
172,64,103240,2,0,L|236:80,1,57.5,8|0,0:0|0:0,0:0:0:0:
248,156,103681,2,0,L|312:144,1,57.5
364,200,104122,5,0,0:0:0:0:
400,272,104343,1,0,0:0:0:0:
328,304,104563,1,0,0:0:0:0:
292,232,104784,1,0,0:0:0:0:
222,189,105005,2,0,P|207:243|236:292,2,115,8|0|4,0:0|0:0|0:0,0:0:0:0:
256,192,118019,12,4,120005,0:0:0:0:
172,252,120446,6,0,B|192:216|188:196|188:196|240:184|240:184|224:112|296:116,1,172.5
320,168,121328,1,0,0:0:0:0:
316,248,121549,2,0,P|372:232|384:124,1,172.5
464,272,122652,1,8,0:0:0:0:
316,332,123093,2,0,P|248:304|236:248,1,115,0|2,0:0|0:0,0:0:0:0:
156,248,123755,5,0,0:0:0:0:
216,196,123975,2,0,P|207:131|144:92,1,115,0|8,0:0|0:0,0:0:0:0:
136,172,124637,1,0,0:0:0:0:
216,196,124857,1,0,0:0:0:0:
292,168,125078,2,0,L|464:196,1,172.5
336,96,126181,1,8,0:0:0:0:
184,144,126622,2,0,P|188:212|236:244,1,115,0|2,0:0|0:0,0:0:0:0:
260,168,127284,5,0,0:0:0:0:
184,144,127505,2,0,L|128:132,1,57.5
128,52,127946,1,0,0:0:0:0:
64,100,128166,2,0,P|64:168|108:200,2,115
140,76,129269,2,0,P|178:116|172:172,1,115
248,204,129931,2,0,B|256:268|312:284|312:284|264:328,1,172.5,0|2,0:0|0:0,0:0:0:0:
192,292,130813,1,0,0:0:0:0:
120,328,131034,2,0,P|116:256|168:216,1,115,0|8,0:0|0:0,0:0:0:0:
220,212,131696,2,0,B|200:144|136:144|136:144|176:96,1,172.5
171,101,134122,6,0,P|212:156|300:140,2,115,4|0|8,0:0|0:0|0:0,0:0:0:0:
248,84,135225,1,0,0:0:0:0:
254,163,135446,2,0,L|298:287,1,115
252,340,136107,1,0,0:0:0:0:
172,328,136328,2,0,B|125:362|125:362|66:349,2,115,0|8|0,0:0|0:0|0:0,0:0:0:0:
108,276,137431,1,0,0:0:0:0:
140,204,137652,6,0,L|128:80,2,115,2|0|8,0:0|0:0|0:0,0:0:0:0:
140,204,138975,2,0,L|208:176,1,57.5
244,244,139416,2,0,L|300:264,1,57.5
344,196,139857,2,0,L|412:168,1,57.5
480,176,140299,2,0,P|448:108|412:92,1,115
336,100,140960,1,0,0:0:0:0:
256,116,141181,6,0,P|184:136|144:120,2,115,2|0|8,0:0|0:0|0:0,0:0:0:0:
196,60,142284,1,0,0:0:0:0:
148,124,142505,2,0,P|112:168|124:232,1,115
176,272,143166,1,0,0:0:0:0:
192,192,143387,1,0,0:0:0:0:
252,248,143607,2,0,B|272:224|272:196|272:196|372:292|484:236,1,287.5,0|2,0:0|0:0,0:0:0:0:
482,236,145152,6,0,L|432:120,1,115,0|8,0:0|0:0,0:0:0:0:
320,20,146034,1,0,0:0:0:0:
244,52,146255,1,0,0:0:0:0:
272,136,146475,2,0,L|216:160,1,57.5
152,116,146916,2,0,L|96:92,1,57.5
60,164,147357,5,8,0:0:0:0:
88,240,147578,1,0,0:0:0:0:
152,292,147799,1,0,0:0:0:0:
232,288,148019,1,0,0:0:0:0:
304,328,148240,6,0,P|304:248|260:212,1,115,4|0,0:0|0:0,0:0:0:0:
212,184,148902,1,0,0:0:0:0:
280,140,149122,2,0,L|400:104,1,115,8|0,0:0|0:0,0:0:0:0:
340,44,149784,1,0,0:0:0:0:
264,64,150005,2,0,L|153:97,1,115
72,176,150887,6,0,P|72:256|200:320,1,230,8|2,0:0|0:0,0:0:0:0:
191,321,152210,1,0,0:0:0:0:
268,292,152431,1,0,0:0:0:0:
320,232,152652,2,0,P|320:152|192:88,1,230,8|0,0:0|0:0,0:0:0:0:
200,86,153975,1,0,0:0:0:0:
124,228,154416,2,0,P|232:220|176:176,1,230,8|2,0:0|0:0,0:0:0:0:
256,80,155740,6,0,L|284:24,2,57.5,0|0|8,0:0|0:0|0:0,0:0:0:0:
316,140,156402,1,0,0:0:0:0:
384,184,156622,2,0,P|340:224|288:216,1,115
224,168,157284,1,0,0:0:0:0:
144,188,157505,2,0,L|86:194,1,57.5
36,256,157946,2,0,L|56:372,1,115
136,364,158607,1,0,0:0:0:0:
180,296,158828,6,0,P|252:280|272:228,1,115,2|0,0:0|0:0,0:0:0:0:
196,216,159490,1,0,0:0:0:0:
120,188,159710,2,0,P|154:143|210:139,1,115,8|0,0:0|0:0,0:0:0:0:
284,164,160372,1,0,0:0:0:0:
364,190,160593,1,0,0:0:0:0:
413,127,160814,1,0,0:0:0:0:
368,60,161035,1,0,0:0:0:0:
290,83,161255,1,0,0:0:0:0:
224,132,161475,2,0,P|152:184|8:152,1,230,8|4,0:0|0:0,0:0:0:0:
20,164,162799,6,0,L|1:223,2,57.5,0|0|8,0:0|0:0|0:0,0:0:0:0:
116,100,163681,1,0,0:0:0:0:
176,152,163902,1,0,0:0:0:0:
232,96,164122,2,0,P|252:184|228:212,1,115
91,255,165005,6,0,P|215:315|299:267,1,230,8|2,0:0|0:0,0:0:0:0:
290,279,166328,1,0,0:0:0:0:
316,204,166549,1,0,0:0:0:0:
300,124,166769,2,0,P|176:64|92:112,1,230,8|0,0:0|0:0,0:0:0:0:
101,100,168093,1,0,0:0:0:0:
88,260,168534,2,0,P|149:333|184:243,1,230,8|2,0:0|0:0,0:0:0:0:
292,200,169857,6,0,L|368:228,2,57.5,0|0|8,0:0|0:0|0:0,0:0:0:0:
232,148,170519,1,0,0:0:0:0:
164,188,170740,2,0,P|156:128|188:80,1,115
116,40,171402,1,0,0:0:0:0:
52,88,171622,2,0,P|24:108|-8:112,1,57.5
8,192,172063,2,0,P|-12:244|4:300,1,115
76,336,172725,1,0,0:0:0:0:
116,268,172946,6,0,L|84:144,1,115
164,136,173607,1,0,0:0:0:0:
192,212,173828,2,0,P|240:168|232:104,1,115,8|0,0:0|0:0,0:0:0:0:
296,64,174490,1,0,0:0:0:0:
332,136,174710,2,0,L|396:152,2,57.5
276,192,175372,2,0,B|232:200|208:188|208:188|252:288|204:336|164:324|120:272|152:248|184:256,1,287.5,0|4,0:0|0:0,0:0:0:0:
132,184,176696,5,0,0:0:0:0:
52,184,176916,2,0,P|64:132|116:104,2,115,0|2|0,0:0|0:0|0:0,0:0:0:0:
132,184,178019,2,0,P|181:158|195:104,1,115
276,100,178681,2,0,L|356:204,2,115,0|2|0,0:0|0:0|0:0,0:0:0:0:
196,104,179784,2,0,P|220:40|276:24,1,115
336,52,180446,2,0,P|396:80|452:68,2,115,0|2|0,0:0|0:0|0:0,0:0:0:0:
276,104,181549,2,0,L|264:244,1,115
188,196,182210,1,0,0:0:0:0:
144,264,182431,2,0,B|104:224|104:224|112:144,2,115,2|2|0,0:0|0:0|0:0,0:0:0:0:
300,216,183755,5,0,0:0:0:0:
380,208,183975,2,0,P|360:152|300:136,2,115,0|2|0,0:0|0:0|0:0,0:0:0:0:
332,272,185078,2,0,P|252:288|232:328,1,115
308,344,185740,2,0,B|264:236|264:236|200:272|156:232,1,230,0|2,0:0|0:0,0:0:0:0:
112,300,186843,2,0,P|84:204|128:176,1,115
148,152,187505,2,0,P|196:104|188:36,2,115,0|2|0,0:0|0:0|0:0,0:0:0:0:
256,192,188607,12,4,190593,0:0:0:0:
