osu file format v14

[General]
AudioFilename: Owl City - Beautiful Times (featuring Lindsey Stirling).mp3
AudioLeadIn: 2000
PreviewTime: 77652
Countdown: 0
SampleSet: Soft
StackLeniency: 0.7
Mode: 0
LetterboxInBreaks: 0
WidescreenStoryboard: 1

[Editor]
DistanceSpacing: 1.2
BeatDivisor: 8
GridSize: 4
TimelineZoom: 1

[Metadata]
Title:Beautiful Times (feat. Lindsey Stirling)
TitleUnicode:Beautiful Times (feat. Lindsey Stirling)
Artist:Owl City
ArtistUnicode:Owl City
Creator:HootOwlStar
Version:Veyron's Normal
Source:
Tags:Adam Young June 27 Ultraviolet EP Fort Gray Veyron Cerulean orza6006 VINXIS Mishima Yurara jinhang_ang Arcubin
BeatmapID:559401
BeatmapSetID:172788

[Difficulty]
HPDrainRate:3
CircleSize:3.5
OverallDifficulty:3
ApproachRate:4
SliderMultiplier:1.8
SliderTickRate:2

[Events]
//Background and Video events
0,0,"owl_city_by_chadatbethel.jpg",0,0
Video,0,"Owl City - Beautiful Times ft Lindsey Stirling.avi"
//Break Periods
2,91969,101037
//Storyboard Layer 0 (Background)
//Storyboard Layer 1 (Fail)
//Storyboard Layer 2 (Pass)
//Storyboard Layer 3 (Foreground)
//Storyboard Sound Samples

[TimingPoints]
5,882.352941176471,4,2,1,50,1,0
35299,-100,4,2,1,60,0,0
63534,-100,4,2,1,50,0,0
77652,-100,4,2,1,70,0,1
91769,-100,4,2,1,60,0,0
134122,-100,4,2,1,50,0,0
148240,-100,4,2,1,70,0,1
162137,-100,4,2,1,70,0,0
162357,-100,4,2,1,80,0,1
176475,-100,4,2,1,50,0,0

[Colours]
Combo1 : 217,0,0
Combo2 : 169,83,255
Combo3 : 0,128,255
Combo4 : 1,228,200
Combo5 : 190,252,3
Combo6 : 251,255,98
Combo7 : 255,211,79
Combo8 : 253,108,2

[HitObjects]
420,132,7063,6,0,P|388:100|336:88,1,90,4|0,0:0|0:0,0:0:0:0:
296,104,7725,1,0,0:0:0:0:
248,128,7946,2,0,P|204:140|164:140,2,67.5,2|0|0,0:0|0:0|0:0,0:0:0:0:
296,104,8828,2,0,L|320:208,1,90,2|0,0:0|0:0,0:0:0:0:
348,296,9710,2,0,P|388:280|428:280,2,67.5,2|0|0,0:0|0:0|0:0,0:0:0:0:
300,324,10593,6,0,P|260:336|204:332,1,90,2|0,0:0|0:0,0:0:0:0:
204,228,11475,2,0,P|159:225|116:238,1,90,2|0,0:0|0:0,0:0:0:0:
68,264,12137,1,0,0:0:0:0:
24,232,12357,2,0,P|32:188|68:156,1,90,2|0,0:0|0:0,0:0:0:0:
116,140,13019,2,0,L|208:120,1,90
256,108,13681,1,2,0:0:0:0:
360,76,14122,6,0,P|360:120|388:164,1,90,2|0,0:0|0:0,0:0:0:0:
428,188,14784,1,0,0:0:0:0:
468,224,15005,2,0,P|484:268|484:296,2,67.5,2|0|0,0:0|0:0|0:0,0:0:0:0:
428,188,15887,2,0,L|340:236,1,90,2|0,0:0|0:0,0:0:0:0:
248,192,16769,2,0,L|160:240,1,90,2|0,0:0|0:0,0:0:0:0:
120,260,17431,1,0,0:0:0:0:
116,208,17652,6,0,P|116:168|92:124,1,90,2|0,0:0|0:0,0:0:0:0:
172,52,18534,2,0,P|140:44|96:48,2,67.5,2|0|0,0:0|0:0|0:0,0:0:0:0:
220,80,19416,2,0,P|260:100|312:100,1,90,2|0,0:0|0:0,0:0:0:0:
412,88,20299,2,0,P|410:132|390:172,1,90,2|0,0:0|0:0,0:0:0:0:
348,204,20960,1,0,0:0:0:0:
396,232,21181,6,0,L|484:288,1,90,4|0,0:0|0:0,0:0:0:0:
384,340,22063,2,0,L|308:291,1,90,4|0,0:0|0:0,0:0:0:0:
200,292,22946,2,0,L|124:340,2,90,4|0|4,0:0|0:0|0:0,0:0:0:0:
256,200,24269,1,0,0:0:0:0:
300,100,24710,6,0,P|256:88|212:100,1,90,4|0,0:0|0:0,0:0:0:0:
116,56,25593,2,0,L|116:148,1,90,4|0,0:0|0:0,0:0:0:0:
72,244,26475,2,0,P|116:256|160:244,1,90,4|0,0:0|0:0,0:0:0:0:
256,288,27357,2,0,L|256:196,1,90,4|0,0:0|0:0,0:0:0:0:
256,144,28019,1,0,0:0:0:0:
256,88,28240,6,0,P|292:64|344:64,1,90,4|0,0:0|0:0,0:0:0:0:
368,164,29122,2,0,P|330:188|286:189,1,90,2|0,3:0|0:0,0:0:0:0:
256,144,29784,1,0,0:0:0:0:
204,160,30005,2,0,L|104:184,1,90
48,264,30887,1,2,3:0:0:0:
156,276,31328,2,0,P|172:304|200:320,1,45
228,336,31769,6,0,L|324:360,1,90
392,280,32652,2,0,L|304:258,1,90,2|0,3:0|0:0,0:0:0:0:
288,152,33534,2,0,L|384:176,2,90,0|0|2,0:0|0:0|3:0,0:0:0:0:
216,72,34857,1,0,0:0:0:0:
144,152,35299,6,0,L|48:176,1,89.9999999999999,4|0,0:0|0:0,0:0:0:0:
28,220,35960,1,0,0:0:0:0:
72,252,36181,2,0,P|112:272|136:316,1,89.9999999999999,2|0,0:0|0:0,0:0:0:0:
240,336,37063,2,0,P|280:316|304:272,1,89.9999999999999,2|0,0:0|0:0,0:0:0:0:
312,172,37946,2,0,P|356:184|376:200,2,67.4999999999999,2|0|0,0:0|0:0|0:0,0:0:0:0:
260,180,38828,6,0,P|224:152|208:104,1,89.9999999999999,2|0,0:0|0:0,0:0:0:0:
120,52,39710,2,0,P|76:52|24:76,1,89.9999999999999,2|0,0:0|0:0,0:0:0:0:
24,120,40372,2,0,P|24:164|48:216,1,89.9999999999999,2|0,0:0|0:0,0:0:0:0:
84,240,41034,1,0,0:0:0:0:
192,256,41475,1,2,0:0:0:0:
224,212,41696,2,0,P|223:167|207:125,1,89.9999999999999
164,96,42357,5,2,0:0:0:0:
260,48,42799,2,0,P|304:48|348:68,2,89.9999999999999,0|2|0,0:0|0:0|0:0,0:0:0:0:
208,60,43902,1,0,0:0:0:0:
164,96,44122,2,0,L|76:80,1,89.9999999999999,2|0,0:0|0:0,0:0:0:0:
24,176,45005,2,0,L|112:192,1,89.9999999999999,2|0,0:0|0:0,0:0:0:0:
164,200,45666,1,0,0:0:0:0:
160,252,45887,6,0,P|172:300|204:324,1,89.9999999999999,2|0,0:0|0:0,0:0:0:0:
312,324,46769,2,0,P|345:295|354:252,1,89.9999999999999,2|0,0:0|0:0,0:0:0:0:
364,200,47431,1,0,0:0:0:0:
416,192,47652,2,0,L|504:176,1,89.9999999999999,2|0,0:0|0:0,0:0:0:0:
432,96,48534,2,0,L|344:112,1,89.9999999999999,2|0,0:0|0:0,0:0:0:0:
292,124,49196,1,0,0:0:0:0:
240,128,49416,6,0,P|196:124|152:112,1,89.9999999999999,4|0,0:0|0:0,0:0:0:0:
92,204,50299,2,0,P|117:240|149:272,1,89.9999999999999,4|0,0:0|0:0,0:0:0:0:
204,276,50960,1,0,0:0:0:0:
256,256,51181,1,4,0:0:0:0:
364,272,51622,2,0,P|395:240|421:203,1,89.9999999999999,0|4,0:0|0:0,0:0:0:0:
456,100,52505,1,0,0:0:0:0:
352,68,52946,6,0,P|308:60|264:68,1,89.9999999999999,4|0,0:0|0:0,0:0:0:0:
220,168,53828,2,0,P|264:176|308:168,1,89.9999999999999,4|0,0:0|0:0,0:0:0:0:
356,148,54490,1,0,0:0:0:0:
376,196,54710,2,0,P|404:230|443:252,2,89.9999999999999,4|0|4,0:0|0:0|0:0,0:0:0:0:
472,148,56034,1,0,0:0:0:0:
412,60,56475,6,0,P|372:44|320:52,1,89.9999999999999,4|0,0:0|0:0,0:0:0:0:
232,100,57357,2,0,L|140:120,1,89.9999999999999,2|0,3:0|0:0,0:0:0:0:
64,192,58240,1,0,0:0:0:0:
96,236,58460,1,0,0:0:0:0:
144,264,58681,2,0,L|231:283,1,89.9999999999999,0|2,0:0|3:0,0:0:0:0:
324,228,59563,1,0,0:0:0:0:
328,336,60005,6,0,P|372:341|413:325,1,89.9999999999999
356,232,60887,2,0,P|396:216|424:216,2,67.4999999999999,2|0|0,3:0|0:0|0:0,0:0:0:0:
304,244,61769,2,0,P|264:224|236:176,1,89.9999999999999
136,156,62652,2,0,P|156:116|204:88,1,89.9999999999999
300,92,63534,6,0,P|336:116|356:156,1,89.9999999999999,4|0,0:0|0:0,0:0:0:0:
388,260,64416,1,2,0:0:0:0:
284,236,64857,1,0,0:0:0:0:
232,252,65078,1,0,0:0:0:0:
180,248,65299,2,0,P|140:232|112:188,1,89.9999999999999,2|0,0:0|0:0,0:0:0:0:
8,168,66181,2,0,P|24:128|68:100,1,89.9999999999999,2|0,0:0|0:0,0:0:0:0:
112,88,66843,1,0,0:0:0:0:
164,76,67063,6,0,L|256:60,1,89.9999999999999,2|0,0:0|0:0,0:0:0:0:
276,168,67946,2,0,L|368:184,1,89.9999999999999,2|0,0:0|0:0,0:0:0:0:
416,196,68607,1,0,0:0:0:0:
468,208,68828,2,0,P|456:248|456:304,1,89.9999999999999,2|0,0:0|0:0,0:0:0:0:
364,356,69710,2,0,P|352:316|352:260,1,89.9999999999999,2|0,0:0|0:0,0:0:0:0:
344,216,70372,1,0,0:0:0:0:
344,216,70593,6,0,L|248:236,1,89.9999999999999,2|0,0:0|0:0,0:0:0:0:
152,256,71475,2,0,P|132:296|88:320,1,89.9999999999999,2|0,0:0|0:0,0:0:0:0:
52,220,72357,2,0,P|72:180|116:156,1,89.9999999999999,2|0,0:0|0:0,0:0:0:0:
164,156,73019,1,0,0:0:0:0:
164,156,73240,2,0,L|208:76,1,89.9999999999999,2|0,0:0|0:0,0:0:0:0:
311,85,74122,6,0,L|268:164,1,89.9999999999999,2|0,0:0|0:0,0:0:0:0:
376,168,75005,2,0,L|332:246,1,89.9999999999999,2|0,0:0|0:0,0:0:0:0:
304,292,75666,1,0,0:0:0:0:
268,332,75887,2,0,P|228:352|96:332,1,180,0|2,0:0|0:0,0:0:0:0:
40,244,77210,1,0,0:0:0:0:
80,144,77652,6,0,B|124:136|124:136|160:104,1,89.9999999999999,4|2,0:0|0:0,0:0:0:0:
228,24,78534,2,0,B|258:57|258:57|266:101,1,89.9999999999999,2|2,3:0|0:0,0:0:0:0:
276,156,79196,1,0,0:0:0:0:
284,208,79416,1,2,3:0:0:0:
392,224,79857,2,0,B|434:238|434:238|463:272,1,89.9999999999999,2|2,0:0|3:0,0:0:0:0:
372,328,80740,1,2,0:0:0:0:
372,328,81181,6,0,B|329:313|329:313|300:279,1,89.9999999999999,2|2,3:0|0:0,0:0:0:0:
192,280,82063,2,0,B|163:314|163:314|120:328,1,89.9999999999999,2|2,3:0|0:0,0:0:0:0:
32,268,82946,2,0,B|60:233|60:233|103:219,1,89.9999999999999,2|2,3:0|0:0,0:0:0:0:
208,192,83828,2,0,L|128:128,1,89.9999999999999,2|2,3:0|0:0,0:0:0:0:
168,32,84710,6,0,L|238:88,1,89.9999999999999,2|2,3:0|0:0,0:0:0:0:
324,152,85593,1,2,3:0:0:0:
376,148,85813,1,0,0:0:0:0:
420,116,86034,1,2,0:0:0:0:
472,212,86475,2,0,P|444:248|384:264,1,89.9999999999999,2|2,3:0|0:0,0:0:0:0:
316,328,87357,1,2,3:0:0:0:
208,328,87799,1,2,0:0:0:0:
120,264,88240,6,0,P|78:247|51:212,1,89.9999999999999,2|2,3:0|0:0,0:0:0:0:
56,104,89122,1,2,3:0:0:0:
144,164,89563,1,0,0:0:0:0:
196,148,89784,1,0,0:0:0:0:
248,152,90005,2,0,B|296:144|324:160|324:160|360:112|444:112|480:160|480:160|448:212|380:212,1,360,0|4,0:0|0:0,0:0:0:0:
256,192,102357,12,4,105887,0:0:0:0:
312,104,106769,6,0,P|356:104|380:100,2,67.4999999999999,2|0|0,0:0|0:0|0:0,0:0:0:0:
260,96,107652,2,0,P|216:96|168:104,1,89.9999999999999,2|0,0:0|0:0,0:0:0:0:
88,172,108534,2,0,L|20:136,2,67.4999999999999,2|0|0,0:0|0:0|0:0,0:0:0:0:
128,208,109416,6,0,P|172:216|216:208,1,89.9999999999999,2|0,0:0|0:0,0:0:0:0:
320,176,110299,2,0,B|352:164|352:164|388:136,2,67.4999999999999,2|0|0,0:0|0:0|0:0,0:0:0:0:
292,220,111181,2,0,L|336:308,1,89.9999999999999,2|0,0:0|0:0,0:0:0:0:
308,348,111843,2,0,P|264:360|208:360,1,89.9999999999999
168,344,112505,1,2,0:0:0:0:
64,312,112946,6,0,P|64:256|80:220,1,89.9999999999999,2|0,0:0|0:0,0:0:0:0:
88,116,113828,2,0,P|54:118|22:128,2,67.4999999999999,2|0|0,0:0|0:0|0:0,0:0:0:0:
140,132,114710,2,0,L|224:96,1,89.9999999999999,2|0,0:0|0:0,0:0:0:0:
228,204,115593,2,0,L|312:168,1,89.9999999999999,2|0,0:0|0:0,0:0:0:0:
360,148,116255,1,0,0:0:0:0:
412,168,116475,6,0,L|494:203,1,89.9999999999999,2|0,0:0|0:0,0:0:0:0:
432,292,117357,2,0,L|494:318,2,67.4999999999999,2|0|0,0:0|0:0|0:0,0:0:0:0:
380,280,118240,2,0,P|335:287|291:282,1,89.9999999999999,2|0,0:0|0:0,0:0:0:0:
328,180,119122,2,0,P|282:175|236:188,1,90,2|0,0:0|0:0,0:0:0:0:
200,220,119784,1,0,0:0:0:0:
148,200,120005,6,0,P|110:180|78:132,1,89.9999999999999,4|0,0:0|0:0,0:0:0:0:
180,96,120887,2,0,P|200:58|248:26,1,89.9999999999999,4|0,0:0|0:0,0:0:0:0:
284,128,121769,2,0,P|322:148|354:196,1,89.9999999999999,4|0,0:0|0:0,0:0:0:0:
252,232,122652,2,0,P|232:270|184:302,1,89.9999999999999,4|0,0:0|0:0,0:0:0:0:
140,288,123313,1,0,0:0:0:0:
88,296,123534,6,0,P|52:269|30:230,1,89.9999999999999,4|0,0:0|0:0,0:0:0:0:
100,148,124416,2,0,L|100:48,1,89.9999999999999,4|0,0:0|0:0,0:0:0:0:
200,96,125299,2,0,L|264:19,1,89.9999999999999,4|0,0:0|0:0,0:0:0:0:
312,120,126181,2,0,L|410:102,1,89.9999999999999,4|0,0:0|0:0,0:0:0:0:
472,184,127063,6,0,L|383:199,1,89.9999999999999,4|0,0:0|0:0,0:0:0:0:
332,212,127725,1,0,0:0:0:0:
328,264,127946,2,0,P|304:300|252:324,1,89.9999999999999,2|0,3:0|0:0,0:0:0:0:
164,276,128828,2,0,P|188:240|240:216,2,89.9999999999999,0|0|2,0:0|0:0|3:0,0:0:0:0:
132,320,129931,1,0,0:0:0:0:
80,336,130152,1,0,0:0:0:0:
72,228,130593,6,0,L|68:136,1,89.9999999999999
164,84,131475,2,0,L|167:173,1,89.9999999999999,2|0,3:0|0:0,0:0:0:0:
172,228,132137,1,0,0:0:0:0:
220,256,132357,2,0,B|264:268|264:268|312:260,1,89.9999999999999
404,308,133240,2,0,B|416:264|416:264|408:216,1,89.9999999999999
472,132,134122,6,0,P|432:116|380:116,1,89.9999999999999,4|0,0:0|0:0,0:0:0:0:
280,88,135005,2,0,P|296:128|296:180,1,89.9999999999999,2|0,0:0|0:0,0:0:0:0:
228,256,135887,2,0,L|132:292,1,89.9999999999999,2|0,0:0|0:0,0:0:0:0:
92,304,136549,1,0,0:0:0:0:
76,252,136769,2,0,P|84:200|112:168,1,90,2|0,0:0|0:0,0:0:0:0:
148,72,137652,6,0,P|104:64|56:76,2,89.9999999999999,2|0|2,0:0|0:0|0:0,0:0:0:0:
244,124,138975,1,0,0:0:0:0:
296,136,139196,1,0,0:0:0:0:
348,120,139416,2,0,B|392:112|392:112|436:120,1,89.9999999999999,2|0,0:0|0:0,0:0:0:0:
432,228,140299,2,0,B|388:236|388:236|344:228,1,89.9999999999999,2|0,0:0|0:0,0:0:0:0:
292,212,140960,1,0,0:0:0:0:
264,260,141181,6,0,L|212:344,1,89.9999999999999,2|0,0:0|0:0,0:0:0:0:
108,336,142063,2,0,L|155:259,1,89.9999999999999,2|0,0:0|0:0,0:0:0:0:
200,160,142946,2,0,P|156:152|112:160,1,89.9999999999999,2|0,0:0|0:0,0:0:0:0:
68,192,143607,1,0,0:0:0:0:
16,172,143828,2,0,P|23:127|46:89,1,89.9999999999999,2|0,0:0|0:0,0:0:0:0:
144,44,144710,6,0,P|188:51|226:74,1,89.9999999999999,2|0,0:0|0:0,0:0:0:0:
332,48,145593,2,0,P|347:89|347:134,1,89.9999999999999,2|0,0:0|0:0,0:0:0:0:
320,180,146255,1,0,0:0:0:0:
368,204,146475,2,0,B|432:268|432:268|432:316|376:348,1,180,2|2,0:0|0:0,0:0:0:0:
296,284,147799,1,0,0:0:0:0:
208,344,148240,6,0,B|164:336|164:336|128:304,1,89.9999999999999,4|2,0:0|0:0,0:0:0:0:
28,276,149122,2,0,B|45:234|45:234|81:209,1,89.9999999999999,2|2,3:0|0:0,0:0:0:0:
136,200,149784,1,0,0:0:0:0:
184,224,150005,1,2,3:0:0:0:
284,188,150446,2,0,B|298:146|298:146|332:117,1,89.9999999999999,2|2,0:0|3:0,0:0:0:0:
424,60,151328,1,2,0:0:0:0:
456,164,151769,6,0,B|441:207|441:207|407:236,1,89.9999999999999,2|2,3:0|0:0,0:0:0:0:
336,316,152652,2,0,B|306:281|306:281|298:237,1,89.9999999999999,2|2,3:0|0:0,0:0:0:0:
264,136,153534,2,0,B|308:127|308:127|350:142,1,89.9999999999999,2|2,3:0|0:0,0:0:0:0:
299,237,154416,2,0,B|254:245|254:245|212:230,1,89.9999999999999,2|2,3:0|0:0,0:0:0:0:
112,192,155299,6,0,L|71:272,2,89.9999999999999,2|2|2,3:0|0:0|3:0,0:0:0:0:
140,144,156402,1,0,0:0:0:0:
164,96,156622,1,2,0:0:0:0:
256,40,157063,2,0,P|292:68|308:128,1,89.9999999999999,2|2,3:0|0:0,0:0:0:0:
268,208,157946,1,2,3:0:0:0:
376,196,158387,1,2,0:0:0:0:
332,296,158828,6,0,P|315:338|280:365,1,89.9999999999999,2|2,3:0|0:0,0:0:0:0:
228,268,159710,1,2,3:0:0:0:
176,364,160152,1,0,0:0:0:0:
136,328,160372,1,0,0:0:0:0:
120,276,160593,2,0,B|120:232|120:232|80:204|80:204|72:128|128:84|188:100,1,270,0|0,0:0|0:0,0:0:0:0:
236,116,162137,1,0,0:0:0:0:
284,136,162357,6,0,B|328:128|364:96,1,89.9999999999999,4|2,0:0|0:0,0:0:0:0:
448,32,163240,2,0,B|478:65|484:112,1,89.9999999999999,2|2,3:0|0:0,0:0:0:0:
464,164,163902,1,0,0:0:0:0:
420,196,164122,1,2,3:0:0:0:
320,236,164563,2,0,B|306:278|264:308,1,89.9999999999999,2|2,0:0|3:0,0:0:0:0:
216,212,165446,1,2,0:0:0:0:
112,188,165887,6,0,B|126:146|168:116,1,89.9999999999999,2|2,3:0|0:0,0:0:0:0:
216,212,166769,2,0,B|202:254|160:284,1,89.9999999999999,2|2,3:0|0:0,0:0:0:0:
58,258,167652,2,0,B|72:216|114:186,1,89.9999999999999,2|2,3:0|0:0,0:0:0:0:
80,84,168534,2,0,B|123:75|170:96,1,89.9999999999999,2|2,3:0|0:0,0:0:0:0:
244,20,169416,6,0,B|273:53|278:104,1,89.9999999999999,2|2,3:0|0:0,0:0:0:0:
252,208,170299,1,2,3:0:0:0:
300,228,170519,1,0,0:0:0:0:
352,220,170740,1,2,0:0:0:0:
456,192,171181,2,0,P|461:237|430:290,1,89.9999999999999,2|2,3:0|0:0,0:0:0:0:
344,320,172063,1,2,3:0:0:0:
236,308,172505,1,2,0:0:0:0:
160,232,172946,6,0,P|153:187|170:146,1,89.9999999999999,2|2,3:0|0:0,0:0:0:0:
252,76,173828,1,2,3:0:0:0:
272,184,174269,1,2,0:0:0:0:
320,160,174490,1,0,0:0:0:0:
352,116,174710,2,0,B|388:132|424:120|424:120|412:172|412:172|452:204|464:264|436:312,1,270,2|2,3:0|0:0,0:0:0:0:
344,256,176475,6,0,P|332:304|344:348,1,90,4|0,0:0|0:0,0:0:0:0:
244,296,177357,2,0,P|224:324|192:344,2,67.4999999999999,0|0|0,0:0|0:0|0:0,0:0:0:0:
260,244,178240,2,0,L|288:152,1,89.9999999999999,2|0,0:0|0:0,0:0:0:0:
324,56,179122,2,0,L|392:48,2,67.4999999999999
272,64,180005,6,0,P|228:72|184:112,1,89.9999999999999,2|0,0:0|0:0,0:0:0:0:
104,160,180887,2,0,P|116:196|104:256,1,90
92,300,181549,1,0,0:0:0:0:
144,312,181769,2,0,L|240:332,1,89.9999999999999,2|0,0:0|0:0,0:0:0:0:
284,340,182431,2,0,P|316:308|364:288,1,89.9999999999999
412,284,183093,1,0,0:0:0:0:
468,192,183534,6,0,P|420:176|364:188,1,89.9999999999999,2|0,0:0|0:0,0:0:0:0:
276,164,184416,2,0,B|276:194|276:194|284:230,2,67.4999999999999
292,112,185299,2,0,L|200:96,1,89.9999999999999,2|0,0:0|0:0,0:0:0:0:
104,140,186181,2,0,P|96:176|104:216,2,67.4999999999999
256,192,187063,12,4,190593,1:0:0:0:
