osu file format v14

[General]
AudioFilename: Owl City - Beautiful Times (featuring Lindsey Stirling).mp3
AudioLeadIn: 2000
PreviewTime: 77652
Countdown: 0
SampleSet: Soft
StackLeniency: 0.7
Mode: 0
LetterboxInBreaks: 0
WidescreenStoryboard: 1

[Editor]
Bookmarks: 120005
DistanceSpacing: 1.4
BeatDivisor: 4
GridSize: 4
TimelineZoom: 3.099999

[Metadata]
Title:Beautiful Times (feat. Lindsey Stirling)
TitleUnicode:Beautiful Times (feat. Lindsey Stirling)
Artist:Owl City
ArtistUnicode:Owl City
Creator:HootOwlStar
Version:VINXIS' Hard
Source:
Tags:Adam Young June 27 Ultraviolet EP Fort Gray Veyron Cerulean orza6006 VINXIS Mishima Yurara jinhang_ang Arcubin
BeatmapID:659321
BeatmapSetID:172788

[Difficulty]
HPDrainRate:5
CircleSize:3.3
OverallDifficulty:6
ApproachRate:7
SliderMultiplier:2.6
SliderTickRate:2

[Events]
//Background and Video events
0,0,"owl_city_by_chadatbethel.jpg",0,0
Video,0,"Owl City - Beautiful Times ft Lindsey Stirling.avi"
//Break Periods
2,91969,104987
2,118219,118884
2,176675,182634
//Storyboard Layer 0 (Background)
//Storyboard Layer 1 (Fail)
//Storyboard Layer 2 (Pass)
//Storyboard Layer 3 (Foreground)
//Storyboard Sound Samples

[TimingPoints]
5,882.352941176471,4,2,1,65,1,0
21181,-90.9090909090909,4,2,1,65,0,0
49416,-83.3333333333333,4,2,1,65,0,0
77652,-76.9230769230769,4,2,1,65,0,1
91549,-76.9230769230769,4,2,1,65,0,0
105887,-100,4,2,1,65,0,0
132357,-200,4,2,1,65,0,0
134122,-90.9090909090909,4,2,1,65,0,0
148240,-76.9230769230769,4,2,1,65,0,1
162137,-76.9230769230769,4,2,1,65,0,0
162357,-76.9230769230769,4,2,1,65,0,1
176475,-100,4,2,1,65,0,0
183534,-133.333333333333,4,2,1,65,0,0
197652,-133.333333333333,4,2,1,5,0,0

[Colours]
Combo1 : 217,0,0
Combo2 : 169,83,255
Combo3 : 0,128,255
Combo4 : 1,228,200
Combo5 : 190,252,3
Combo6 : 251,255,98
Combo7 : 255,211,79
Combo8 : 253,108,2

[HitObjects]
264,132,225,6,0,L|344:104,1,65
320,216,666,2,0,L|240:244,1,65,2|0,0:0|0:0,0:0:0:0:
156,220,1107,1,0,0:0:0:0:
176,120,1328,1,0,0:0:0:0:
280,124,1549,1,2,0:0:0:0:
228,32,1769,1,0,0:0:0:0:
156,112,1990,6,0,L|72:140,1,65
96,224,2431,2,0,L|180:196,1,65,2|0,0:0|0:0,0:0:0:0:
248,208,2872,1,0,0:0:0:0:
248,208,3093,1,0,0:0:0:0:
284,124,3313,1,2,0:0:0:0:
284,124,3534,1,0,0:0:0:0:
352,64,3755,6,0,P|384:44|440:32,1,65
420,128,4196,2,0,P|388:148|332:160,1,65,2|0,0:0|0:0,0:0:0:0:
280,116,4637,1,0,0:0:0:0:
192,136,4857,1,0,0:0:0:0:
176,224,5078,2,0,P|176:256|183:288,1,65,2|0,0:0|0:0,0:0:0:0:
260,236,5519,6,0,P|259:203|252:171,1,65
232,84,5960,1,2,0:0:0:0:
164,144,6181,1,0,0:0:0:0:
252,171,6402,5,0,0:0:0:0:
252,171,6622,2,0,P|284:171|380:243,1,130,2|4,0:0|0:0,0:0:0:0:
96,144,8828,5,2,0:0:0:0:
404,288,10593,5,2,0:0:0:0:
184,320,12357,6,0,B|104:336|80:288|80:288|104:260|152:244|152:244|120:184,2,260,2|2|4,0:0|0:0|0:0,0:0:0:0:
404,108,15887,5,2,0:0:0:0:
196,328,17652,5,2,0:0:0:0:
248,148,19416,6,0,B|288:80|288:80|324:96|344:176|280:248,2,260,2|2|4,0:0|0:0|0:0,0:0:0:0:
112,296,21622,5,2,0:0:0:0:
4,128,22063,1,0,0:0:0:0:
192,196,22505,1,2,0:0:0:0:
24,304,22946,1,0,0:0:0:0:
108,120,23387,1,2,0:0:0:0:
224,284,23828,2,0,P|264:304|364:312,1,143.000004364014
500,172,24710,5,2,0:0:0:0:
376,16,25152,1,2,0:0:0:0:
280,192,25593,1,0,0:0:0:0:
440,72,26034,1,2,0:0:0:0:
352,252,26475,1,0,0:0:0:0:
252,80,26916,1,2,0:0:0:0:
140,248,27357,2,0,P|92:276|0:312,1,143.000004364014,0|2,0:0|0:0,0:0:0:0:
100,128,28240,6,0,P|160:120|244:168,1,143.000004364014,4|0,0:0|0:0,0:0:0:0:
296,232,28902,1,0,0:0:0:0:
360,308,29122,2,0,P|424:340|500:344,1,143.000004364014,8|0,0:0|0:0,0:0:0:0:
452,248,29784,1,2,0:0:0:0:
296,232,30005,2,0,L|128:232,1,143.000004364014,2|0,0:0|0:0,0:0:0:0:
308,120,30887,2,0,L|451:120,1,143.000004364014,8|0,0:0|0:0,0:0:0:0:
324,252,31769,6,0,L|396:300,1,71.5000021820069,4|0,0:0|0:0,0:0:0:0:
400,308,32100,1,0,0:0:0:0:
416,324,32210,1,0,0:0:0:0:
300,348,32431,1,2,0:0:0:0:
324,252,32652,2,0,P|356:204|448:160,1,143.000004364014,10|0,0:0|0:0,0:0:0:0:
368,84,33313,1,0,0:0:0:0:
272,108,33534,6,0,L|180:92,1,71.5000021820069,2|0,0:0|0:0,0:0:0:0:
120,156,33975,2,0,L|36:196,1,71.5000021820069,2|0,0:0|0:0,0:0:0:0:
92,280,34416,1,8,0:0:0:0:
192,284,34637,1,2,0:0:0:0:
307,258,34857,2,0,L|264:328,1,71.5000021820069,2|2,0:0|0:0,0:0:0:0:
368,344,35299,5,4,0:0:0:0:
436,268,35519,1,0,0:0:0:0:
436,160,35740,2,0,P|416:120|384:84,1,71.5000021820069,0|0,0:0|0:0,0:0:0:0:
280,108,36181,2,0,P|258:136|243:168,1,71.5000021820069,8|0,0:0|0:0,0:0:0:0:
344,216,36622,1,0,0:0:0:0:
360,116,36843,6,0,P|336:52|244:36,1,143.000004364014,2|0,0:0|0:0,0:0:0:0:
176,68,37505,1,2,0:0:0:0:
72,76,37725,1,0,0:0:0:0:
176,104,37946,1,8,0:0:0:0:
72,76,38166,1,0,0:0:0:0:
104,172,38387,1,2,0:0:0:0:
188,224,38607,1,0,0:0:0:0:
332,136,38828,6,0,P|280:100|268:96,1,71.5000021820069
168,116,39269,2,0,P|120:156|64:252,1,143.000004364014,0|8,0:0|0:0,0:0:0:0:
64,324,39931,1,0,0:0:0:0:
152,276,40152,1,0,0:0:0:0:
236,332,40372,6,0,P|284:344|376:340,1,143.000004364014,2|0,0:0|0:0,0:0:0:0:
460,284,41034,1,2,0:0:0:0:
448,184,41255,2,0,P|424:152|376:120,1,71.5000021820069,0|8,0:0|0:0,0:0:0:0:
300,140,41696,2,0,P|252:164|220:172,1,71.5000021820069,2|2,0:0|0:0,0:0:0:0:
280,340,42357,5,4,0:0:0:0:
280,340,42578,1,0,0:0:0:0:
308,244,42799,2,0,L|364:160,1,71.5000021820069,0|0,0:0|0:0,0:0:0:0:
304,96,43240,2,0,L|248:180,1,71.5000021820069,8|0,0:0|0:0,0:0:0:0:
212,240,43681,1,0,0:0:0:0:
160,156,43902,2,0,P|104:104|12:108,1,143.000004364014,2|2,0:0|0:0,0:0:0:0:
64,196,44563,5,2,0:0:0:0:
116,280,44784,1,0,0:0:0:0:
212,240,45005,2,0,L|292:192,1,71.5000021820069,8|0,0:0|0:0,0:0:0:0:
372,200,45446,1,2,0:0:0:0:
304,288,45666,6,0,L|232:332,1,71.5000021820069,2|4,0:0|0:0,0:0:0:0:
116,280,46107,1,0,0:0:0:0:
128,180,46328,2,0,P|136:116|128:80,1,71.5000021820069,0|2,0:0|0:0,0:0:0:0:
224,64,46769,2,0,P|240:108|324:136,2,107.25000327301,8|0|2,0:0|0:0|0:0,0:0:0:0:
216,206,47652,5,2,0:0:0:0:
484,368,48534,1,4,0:0:0:0:
212,244,49196,1,0,0:0:0:0:
212,244,49306,1,0,0:0:0:0:
212,244,49416,6,0,L|108:248,1,77.999997619629,4|0,0:0|0:0,0:0:0:0:
68,160,49857,2,0,L|176:160,1,77.999997619629,0|2,0:0|0:0,0:0:0:0:
256,160,50299,2,0,P|300:208|288:300,1,155.999995239258,8|2,0:0|0:0,0:0:0:0:
212,244,50960,1,0,0:0:0:0:
272,148,51181,2,0,L|432:96,1,155.999995239258,2|2,0:0|0:0,0:0:0:0:
332,300,52063,2,0,L|172:352,1,155.999995239258,8|2,0:0|0:0,0:0:0:0:
144,132,52946,5,2,0:0:0:0:
240,84,53166,2,0,L|188:60,2,38.9999988098145,0|0|2,0:0|0:0|0:0,0:0:0:0:
348,92,53607,1,0,0:0:0:0:
440,156,53828,2,0,P|480:196|512:296,1,155.999995239258,8|2,0:0|0:0,0:0:0:0:
432,364,54490,1,2,0:0:0:0:
356,288,54710,2,0,P|324:268|284:256,1,77.999997619629,0|2,0:0|0:0,0:0:0:0:
176,248,55152,2,0,P|108:240|20:184,1,155.999995239258,2|8,0:0|0:0,0:0:0:0:
244,136,56034,1,2,0:0:0:0:
420,264,56475,6,0,L|488:316,1,77.999997619629,4|0,0:0|0:0,0:0:0:0:
481,311,56806,1,0,0:0:0:0:
481,311,56916,1,2,0:0:0:0:
376,344,57137,1,0,0:0:0:0:
268,348,57357,2,0,L|168:348,1,77.999997619629,8|0,0:0|0:0,0:0:0:0:
132,256,57799,1,0,0:0:0:0:
208,180,58019,6,0,P|284:180|352:260,1,155.999995239258,2|0,0:0|0:0,0:0:0:0:
248,272,58681,2,0,L|116:252,1,116.999996429443,2|0,0:0|0:0,0:0:0:0:
96,212,59122,2,0,L|56:136,2,77.999997619629,10|2|0,0:0|0:0|0:0,0:0:0:0:
148,308,59784,1,2,0:0:0:0:
188,208,60005,6,0,P|224:164|248:144,1,77.999997619629,4|0,0:0|0:0,0:0:0:0:
239,150,60335,1,0,0:0:0:0:
239,150,60446,1,2,0:0:0:0:
276,252,60666,1,0,0:0:0:0:
180,200,60887,2,0,L|84:120,2,116.999996429443,8|0|0,0:0|0:0|0:0,0:0:0:0:
180,200,61659,1,0,0:0:0:0:
180,200,61769,5,0,0:0:0:0:
440,64,62652,1,2,0:0:0:0:
288,312,63534,6,0,P|164:328|104:312,1,155.999995239258,4|0,0:0|0:0,0:0:0:0:
208,240,64196,2,0,L|288:208,1,77.999997619629,2|8,0:0|0:0,0:0:0:0:
380,168,64637,1,0,0:0:0:0:
312,84,64857,2,0,P|256:116|204:116,1,116.999996429443,0|0,0:0|0:0,0:0:0:0:
160,84,65299,1,2,0:0:0:0:
56,52,65519,1,0,0:0:0:0:
32,160,65740,2,0,L|108:232,1,77.999997619629,2|0,0:0|0:0,0:0:0:0:
196,240,66181,1,8,0:0:0:0:
400,164,66622,1,2,0:0:0:0:
180,136,67063,6,0,P|116:164|32:160,1,155.999995239258,4|0,0:0|0:0,0:0:0:0:
60,264,67725,1,0,0:0:0:0:
144,332,67946,2,0,L|268:332,1,116.999996429443,8|0,0:0|0:0,0:0:0:0:
308,300,68387,2,0,L|376:232,1,77.999997619629,2|2,0:0|0:0,0:0:0:0:
408,144,68828,5,2,0:0:0:0:
336,64,69049,1,0,0:0:0:0:
312,172,69269,1,2,0:0:0:0:
212,128,69490,2,0,P|176:112|132:104,1,77.999997619629,2|8,0:0|0:0,0:0:0:0:
96,320,70152,1,2,0:0:0:0:
224,144,70593,6,0,P|276:104|372:60,1,155.999995239258,4|0,0:0|0:0,0:0:0:0:
332,172,71255,2,0,L|248:240,1,77.999997619629,2|8,0:0|0:0,0:0:0:0:
164,212,71696,1,0,0:0:0:0:
72,152,71916,2,0,P|44:104|48:40,1,116.999996429443,0|0,0:0|0:0,0:0:0:0:
100,28,72357,6,0,P|136:36|212:40,1,77.999997619629,2|0,0:0|0:0,0:0:0:0:
288,44,72799,1,2,0:0:0:0:
216,124,73019,2,0,P|192:160|168:208,1,77.999997619629,2|8,0:0|0:0,0:0:0:0:
300,372,73681,1,2,0:0:0:0:
288,100,74122,6,0,P|240:44|160:32,1,155.999995239258,4|0,0:0|0:0,0:0:0:0:
60,76,74784,1,2,0:0:0:0:
8,172,75005,2,0,P|32:236|68:268,1,116.999996429443,10|0,0:0|0:0,0:0:0:0:
120,276,75446,2,0,P|160:308|180:344,1,77.999997619629,2|0,0:0|0:0,0:0:0:0:
68,364,75887,1,2,0:0:0:0:
172,328,76107,1,0,0:0:0:0:
280,340,76328,1,2,0:0:0:0:
376,288,76549,1,2,0:0:0:0:
288,224,76769,6,0,L|196:200,1,77.999997619629,8|0,0:0|0:0,0:0:0:0:
168,88,77210,2,0,L|260:112,1,77.999997619629,2|0,0:0|0:0,0:0:0:0:
243,107,77541,1,0,0:0:0:0:
243,107,77652,5,4,0:0:0:0:
352,356,78093,1,2,0:0:0:0:
424,240,78313,1,0,0:0:0:0:
292,276,78534,2,0,P|248:272|192:252,1,84.4999961318971,8|0,0:0|0:0,0:0:0:0:
92,196,78975,1,2,0:0:0:0:
72,64,79196,1,0,0:0:0:0:
188,136,79416,2,0,P|248:160|288:164,1,84.4999961318971,2|0,0:0|0:0,0:0:0:0:
384,92,79857,2,0,P|324:68|284:64,1,84.4999961318971
188,136,80299,6,0,P|136:188|44:220,1,168.999992263794,8|0,0:0|0:0,0:0:0:0:
304,300,81181,6,0,L|396:300,1,84.4999961318971,4|0,0:0|0:0,0:0:0:0:
388,300,81512,1,0,0:0:0:0:
388,300,81622,1,2,0:0:0:0:
284,216,81843,1,0,0:0:0:0:
172,292,82063,2,0,P|128:312|8:324,1,168.999992263794,8|2,0:0|0:0,0:0:0:0:
80,208,82725,1,0,0:0:0:0:
184,296,82946,2,0,L|276:312,1,84.4999961318971,2|0,0:0|0:0,0:0:0:0:
372,224,83387,2,0,L|256:200,1,84.4999961318971,2|0,0:0|0:0,0:0:0:0:
164,160,83828,2,0,P|112:104|132:20,1,168.999992263794,8|2,0:0|0:0,0:0:0:0:
264,256,84710,6,0,L|312:336,1,84.4999961318971,4|2,0:0|0:0,0:0:0:0:
307,328,85041,1,0,0:0:0:0:
307,328,85152,1,2,0:0:0:0:
176,300,85372,1,0,0:0:0:0:
228,176,85593,2,0,P|264:144|312:120,1,84.4999961318971,8|0,0:0|0:0,0:0:0:0:
432,132,86034,2,0,P|396:164|348:188,1,84.4999961318971,2|0,0:0|0:0,0:0:0:0:
228,176,86475,2,0,L|140:160,1,84.4999961318971,2|0,0:0|0:0,0:0:0:0:
92,284,86916,2,0,L|180:300,1,84.4999961318971,0|2,0:0|0:0,0:0:0:0:
296,240,87357,2,0,P|320:176|260:84,1,168.999992263794,8|0,0:0|0:0,0:0:0:0:
92,292,88240,6,0,L|24:356,1,84.4999961318971,4|0,0:0|0:0,0:0:0:0:
30,349,88571,1,0,0:0:0:0:
30,349,88681,1,2,0:0:0:0:
164,364,88902,1,0,0:0:0:0:
72,264,89122,2,0,P|48:200|92:108,1,168.999992263794,8|0,0:0|0:0,0:0:0:0:
204,48,89784,1,0,0:0:0:0:
316,124,90005,6,0,L|396:184,2,84.4999961318971,2|0|2,0:0|0:0|0:0,0:0:0:0:
220,220,90666,1,0,0:0:0:0:
332,296,90887,2,0,L|412:356,1,84.4999961318971,8|0,0:0|0:0,0:0:0:0:
264,356,91328,2,0,L|184:296,1,84.4999961318971,2|0,0:0|0:0,0:0:0:0:
176,308,91659,1,0,0:0:0:0:
176,308,91769,5,4,0:0:0:0:
156,152,105887,5,4,0:0:0:0:
156,152,106107,2,0,P|180:128|208:116,1,65,0|2,0:0|0:0,0:0:0:0:
312,108,106549,1,0,0:0:0:0:
380,188,106769,1,2,0:0:0:0:
308,264,106990,2,0,P|248:296|160:296,1,130,0|2,0:0|0:0,0:0:0:0:
187,301,107872,5,2,0:0:0:0:
136,208,108093,2,0,P|124:148|128:116,1,65,2|0,0:0|0:0,0:0:0:0:
208,84,108534,1,2,0:0:0:0:
276,160,108755,2,0,P|332:208|404:236,1,130,0|2,0:0|0:0,0:0:0:0:
382,230,109637,5,2,0:0:0:0:
304,300,109857,2,0,P|276:324|244:340,1,65,2|0,0:0|0:0,0:0:0:0:
148,336,110299,1,2,0:0:0:0:
48,304,110519,2,0,P|24:240|32:160,1,130,0|2,0:0|0:0,0:0:0:0:
26,179,111402,5,2,0:0:0:0:
116,228,111622,1,0,0:0:0:0:
104,124,111843,2,0,L|56:60,1,65,2|0,0:0|0:0,0:0:0:0:
168,56,112284,2,0,L|253:169,1,130,2|0,0:0|0:0,0:0:0:0:
304,248,112946,5,2,0:0:0:0:
240,328,113166,1,0,0:0:0:0:
140,296,113387,2,0,L|60:268,1,65,2|0,0:0|0:0,0:0:0:0:
20,188,113828,1,2,0:0:0:0:
88,108,114049,2,0,P|128:72|208:60,1,130,0|2,0:0|0:0,0:0:0:0:
201,58,114931,5,2,0:0:0:0:
268,136,115152,2,0,L|324:176,1,65,2|0,0:0|0:0,0:0:0:0:
408,232,115593,1,2,0:0:0:0:
480,156,115813,2,0,P|492:88|464:32,1,130,0|2,0:0|0:0,0:0:0:0:
466,34,116696,5,2,0:0:0:0:
384,96,116916,2,0,L|308:96,1,65,2|0,0:0|0:0,0:0:0:0:
224,140,117357,1,2,0:0:0:0:
292,220,117578,2,0,P|332:268|344:336,1,130,0|2,0:0|0:0,0:0:0:0:
144,144,119784,5,0,0:0:0:0:
144,144,119894,1,0,0:0:0:0:
144,144,120005,6,0,P|204:164|296:152,1,130,4|0,0:0|0:0,0:0:0:0:
220,68,120666,1,2,0:0:0:0:
120,36,120887,2,0,L|36:16,1,65,8|0,0:0|0:0,0:0:0:0:
48,124,121328,1,2,0:0:0:0:
92,220,121549,2,0,P|156:272|216:292,1,130,0|0,0:0|0:0,0:0:0:0:
304,304,122210,2,0,L|436:304,2,130,2|8|2,0:0|0:0|0:0,0:0:0:0:
176,140,123534,6,0,P|200:112|240:80,1,65,2|0,0:0|0:0,0:0:0:0:
221,93,123865,1,0,0:0:0:0:
221,93,123975,1,0,0:0:0:0:
312,44,124196,1,2,0:0:0:0:
332,148,124416,2,0,L|276:184,1,65,8|0,0:0|0:0,0:0:0:0:
200,252,124857,1,2,0:0:0:0:
300,284,125078,2,0,P|352:308|396:368,1,130,0|0,0:0|0:0,0:0:0:0:
292,376,125740,2,0,L|216:344,1,65,2|0,0:0|0:0,0:0:0:0:
200,252,126181,2,0,P|224:192|276:124,1,130,8|0,0:0|0:0,0:0:0:0:
128,300,127063,6,0,L|40:316,1,65,4|0,0:0|0:0,0:0:0:0:
64,311,127394,1,0,0:0:0:0:
64,311,127505,1,0,0:0:0:0:
100,212,127725,1,2,0:0:0:0:
200,236,127946,2,0,L|288:244,1,65,8|0,0:0|0:0,0:0:0:0:
360,204,128387,1,2,0:0:0:0:
264,160,128607,2,0,P|196:144|124:164,1,130,0|2,0:0|0:0,0:0:0:0:
36,168,129269,2,0,L|16:88,1,65,2|0,0:0|0:0,0:0:0:0:
112,56,129710,1,8,0:0:0:0:
212,76,129931,2,0,P|296:88|344:88,1,130,2|2,0:0|0:0,0:0:0:0:
372,188,130593,6,0,P|372:228|376:256,1,65,2|2,0:0|0:0,0:0:0:0:
375,252,130924,1,0,0:0:0:0:
375,252,131034,1,2,0:0:0:0:
436,336,131255,1,0,0:0:0:0:
332,344,131475,2,0,P|256:336|196:312,1,130,8|2,0:0|0:0,0:0:0:0:
144,252,132137,2,0,L|120:224,3,21.6666666666667
256,192,132468,12,4,134122,0:0:0:0:
132,104,134563,5,2,0:0:0:0:
324,232,135005,2,0,L|412:232,1,71.5000021820069,8|0,0:0|0:0,0:0:0:0:
332,328,135446,2,0,P|260:328|196:264,1,143.000004364014,2|2,0:0|0:0,0:0:0:0:
144,188,136107,1,0,0:0:0:0:
224,104,136328,1,2,0:0:0:0:
256,212,136549,1,0,0:0:0:0:
172,288,136769,2,0,P|104:320|28:332,1,143.000004364014,8|0,0:0|0:0,0:0:0:0:
200,168,137652,6,0,P|248:112|276:48,1,143.000004364014,4|2,0:0|0:0,0:0:0:0:
360,264,138534,2,0,P|308:308|256:368,1,143.000004364014,8|2,0:0|0:0,0:0:0:0:
168,296,139196,1,0,0:0:0:0:
164,180,139416,2,0,P|168:136|176:96,1,71.5000021820069,2|0,0:0|0:0,0:0:0:0:
268,172,139857,2,0,P|264:216|256:256,1,71.5000021820069,2|0,0:0|0:0,0:0:0:0:
168,296,140299,2,0,P|112:268|32:292,1,143.000004364014,8|0,0:0|0:0,0:0:0:0:
264,260,141181,6,0,L|408:248,1,143.000004364014,4|2,0:0|0:0,0:0:0:0:
504,40,142063,1,8,0:0:0:0:
504,40,142284,1,0,0:0:0:0:
504,40,142505,2,0,P|448:88|380:120,1,143.000004364014,2|2,0:0|0:0,0:0:0:0:
276,144,143166,1,0,0:0:0:0:
316,36,143387,1,2,0:0:0:0:
384,128,143607,1,0,0:0:0:0:
320,220,143828,2,0,P|252:232|192:168,1,143.000004364014,8|0,0:0|0:0,0:0:0:0:
198,187,144710,6,0,P|256:144|348:148,2,143.000004364014,4|0|8,0:0|0:0|0:0,0:0:0:0:
300,266,145813,1,0,0:0:0:0:
198,187,146034,2,0,L|134:139,1,71.5000021820069,2|0,0:0|0:0,0:0:0:0:
48,220,146475,2,0,P|88:272|96:304,1,71.5000021820069,2|0,0:0|0:0,0:0:0:0:
132,384,146916,1,0,0:0:0:0:
212,300,147137,1,0,0:0:0:0:
316,348,147357,2,0,L|392:356,1,71.5000021820069,8|0,0:0|0:0,0:0:0:0:
484,292,147799,1,0,0:0:0:0:
408,208,148019,1,0,0:0:0:0:
408,208,148130,1,0,0:0:0:0:
408,208,148240,6,0,P|328:172|240:160,1,168.999992263794,4|2,0:0|0:0,0:0:0:0:
116,192,148902,1,0,0:0:0:0:
188,76,149122,2,0,L|304:72,1,84.4999961318971,8|0,0:0|0:0,0:0:0:0:
200,189,149563,2,0,L|84:193,1,84.4999961318971,2|0,0:0|0:0,0:0:0:0:
76,324,150005,2,0,P|156:324|248:352,1,168.999992263794,0|2,0:0|0:0,0:0:0:0:
488,240,150887,2,0,P|460:152|464:56,1,168.999992263794,8|0,0:0|0:0,0:0:0:0:
228,212,151769,6,0,P|172:224|136:228,1,84.4999961318971,4|0,0:0|0:0,0:0:0:0:
145,227,152100,1,0,0:0:0:0:
145,227,152210,1,0,0:0:0:0:
20,172,152431,1,2,0:0:0:0:
148,132,152652,2,0,L|328:112,1,168.999992263794,8|2,0:0|0:0,0:0:0:0:
444,152,153313,1,0,0:0:0:0:
344,244,153534,2,0,P|304:296|292:344,1,84.4999961318971,2|0,0:0|0:0,0:0:0:0:
192,228,153975,2,0,L|12:232,1,168.999992263794,0|8,0:0|0:0,0:0:0:0:
220,48,154857,1,2,0:0:0:0:
444,204,155299,6,0,P|476:232|496:272,1,84.4999961318971,4|0,0:0|0:0,0:0:0:0:
495,268,155630,1,0,0:0:0:0:
495,268,155740,1,0,0:0:0:0:
368,320,155960,1,2,0:0:0:0:
324,192,156181,2,0,P|352:136|460:76,1,168.999992263794,8|2,0:0|0:0,0:0:0:0:
236,256,157063,6,0,L|128:260,1,84.4999961318971,2|0,0:0|0:0,0:0:0:0:
68,152,157505,1,2,0:0:0:0:
68,152,157725,2,0,L|176:148,1,84.4999961318971,0|8,0:0|0:0,0:0:0:0:
424,144,158387,1,2,0:0:0:0:
232,336,158828,6,0,L|320:336,1,84.4999961318971,4|0,0:0|0:0,0:0:0:0:
316,336,159159,1,0,0:0:0:0:
316,336,159269,1,0,0:0:0:0:
220,240,159490,1,2,0:0:0:0:
112,160,159710,2,0,P|60:136|28:124,1,84.4999961318971,8|0,0:0|0:0,0:0:0:0:
104,244,160152,1,0,0:0:0:0:
192,144,160372,1,2,0:0:0:0:
308,216,160593,6,0,P|352:248|376:276,2,84.4999961318971,2|0|2,0:0|0:0|0:0,0:0:0:0:
192,144,161255,1,0,0:0:0:0:
80,72,161475,2,0,P|36:40|12:12,1,84.4999961318971,8|0,0:0|0:0,0:0:0:0:
152,24,161916,2,0,P|196:56|220:84,1,84.4999961318971,2|0,0:0|0:0,0:0:0:0:
215,78,162247,1,0,0:0:0:0:
215,78,162357,5,4,0:0:0:0:
376,296,162799,2,0,L|472:292,1,84.4999961318971,2|0,0:0|0:0,0:0:0:0:
352,212,163240,2,0,P|308:240|312:356,1,168.999992263794,0|2,0:0|0:0,0:0:0:0:
180,296,163902,1,2,0:0:0:0:
208,164,164122,2,0,L|224:80,1,84.4999961318971,2|0,0:0|0:0,0:0:0:0:
320,128,164563,1,0,0:0:0:0:
88,192,165005,2,0,L|88:16,1,168.999992263794,8|0,0:0|0:0,0:0:0:0:
88,23,165887,5,4,0:0:0:0:
216,60,166107,1,0,0:0:0:0:
216,60,166218,1,0,0:0:0:0:
216,60,166328,1,0,0:0:0:0:
136,172,166549,1,2,0:0:0:0:
252,236,166769,2,0,P|336:264|432:240,1,168.999992263794,8|2,0:0|0:0,0:0:0:0:
308,164,167431,1,0,0:0:0:0:
176,196,167652,2,0,P|116:212|60:216,1,84.4999961318971,2|0,0:0|0:0,0:0:0:0:
36,352,168093,1,2,0:0:0:0:
36,352,168534,2,0,B|112:264|112:264|92:156|92:156|184:76,1,337.999984527589,8|4,0:0|0:0,0:0:0:0:
304,32,169637,5,0,0:0:0:0:
304,32,169747,1,0,0:0:0:0:
304,32,169857,1,0,0:0:0:0:
416,108,170078,1,2,0:0:0:0:
404,244,170299,2,0,P|368:292|340:316,1,84.4999961318971,8|0,0:0|0:0,0:0:0:0:
220,264,170740,2,0,P|144:240|68:248,1,126.749994197846,2|0,0:0|0:0,0:0:0:0:
64,248,171181,2,0,L|16:168,1,84.4999961318971,2|2,0:0|0:0,0:0:0:0:
28,40,171622,1,2,0:0:0:0:
28,40,171843,2,0,P|68:56|112:56,1,84.4999961318971,2|10,0:0|0:0,0:0:0:0:
380,28,172505,1,2,0:0:0:0:
380,28,172946,6,0,P|396:64|396:112,1,84.4999961318971,4|0,0:0|0:0,0:0:0:0:
396,108,173277,1,0,0:0:0:0:
396,108,173387,1,0,0:0:0:0:
316,216,173607,1,2,0:0:0:0:
188,260,173828,2,0,P|112:296|32:360,1,168.999992263794,8|2,0:0|0:0,0:0:0:0:
176,380,174490,1,0,0:0:0:0:
300,324,174710,2,0,L|392:280,2,84.4999961318971,2|0|2,0:0|0:0|0:0,0:0:0:0:
176,380,175372,1,0,0:0:0:0:
80,284,175593,6,0,L|48:192,1,84.4999961318971,8|0,0:0|0:0,0:0:0:0:
96,76,176034,2,0,P|160:68|204:84,1,84.4999961318971,2|0,0:0|0:0,0:0:0:0:
212,84,176365,1,0,0:0:0:0:
236,96,176475,5,4,0:0:0:0:
36,56,183534,6,0,P|132:48|232:72,1,195.00000743866,2|0,0:0|0:0,0:0:0:0:
272,132,184857,1,0,0:0:0:0:
316,196,185299,2,0,P|368:228|504:256,1,195.00000743866,2|0,0:0|0:0,0:0:0:0:
448,316,186622,1,0,0:0:0:0:
372,340,187063,6,0,P|272:336|164:348,1,195.00000743866,2|0,0:0|0:0,0:0:0:0:
100,336,188387,1,0,0:0:0:0:
28,360,188828,1,2,0:0:0:0:
470,351,190593,5,4,0:0:0:0:
256,192,190703,12,0,197652,0:0:0:0:
