osu file format v14

[General]
AudioFilename: Owl City - Beautiful Times (featuring Lindsey Stirling).mp3
AudioLeadIn: 2000
PreviewTime: 77652
Countdown: 0
SampleSet: Soft
StackLeniency: 0.7
Mode: 0
LetterboxInBreaks: 0
WidescreenStoryboard: 1

[Editor]
Bookmarks: 121328
DistanceSpacing: 1.3
BeatDivisor: 16
GridSize: 4
TimelineZoom: 3.099999

[Metadata]
Title:Beautiful Times (feat. Lindsey Stirling)
TitleUnicode:Beautiful Times (feat. Lindsey Stirling)
Artist:Owl City
ArtistUnicode:Owl City
Creator:HootOwlStar
Version:Fort's Insane
Source:
Tags:Adam Young June 27 Ultraviolet EP Fort Gray Veyron Cerulean orza6006 VINXIS Mishima Yurara jinhang_ang Arcubin
BeatmapID:486824
BeatmapSetID:172788

[Difficulty]
HPDrainRate:7
CircleSize:4
OverallDifficulty:7
ApproachRate:8
SliderMultiplier:2.3
SliderTickRate:2

[Events]
//Background and Video events
0,0,"owl_city_by_chadatbethel.jpg",0,0
Video,0,"Owl City - Beautiful Times ft Lindsey Stirling.avi"
//Break Periods
2,109616,117490
2,176675,182784
//Storyboard Layer 0 (Background)
//Storyboard Layer 1 (Fail)
//Storyboard Layer 2 (Pass)
//Storyboard Layer 3 (Foreground)
//Storyboard Sound Samples

[TimingPoints]
5,882.352941176471,4,2,1,100,1,0
49416,-83.3333333333333,4,2,1,100,0,0
77652,-76.9230769230769,4,2,1,100,0,1
91549,-76.9230769230769,4,2,1,100,0,0
91769,-83.3333333333333,4,2,1,100,0,0
105997,-100,4,2,1,20,0,0
116475,-100,4,2,1,100,0,0
132357,-200,4,2,1,100,0,0
134122,-90.9090909090909,4,2,1,100,0,0
148240,-76.9230769230769,4,2,1,100,0,1
162137,-76.9230769230769,4,2,1,100,0,0
162357,-76.9230769230769,4,2,1,100,0,1
176475,-100,4,2,1,100,0,0
183534,-133.333333333333,4,2,1,100,0,0
190703,-133.333333333333,4,2,1,20,0,0

[Colours]
Combo1 : 217,0,0
Combo2 : 169,83,255
Combo3 : 0,128,255
Combo4 : 1,228,200
Combo5 : 190,252,3
Combo6 : 251,255,98
Combo7 : 255,211,79
Combo8 : 253,108,2

[HitObjects]
408,120,225,5,0,0:0:0:0:
344,168,446,1,0,0:0:0:0:
312,96,666,2,0,P|272:137|276:207,1,115,2|0,0:0|0:0,0:0:0:0:
320,248,1328,1,0,0:0:0:0:
392,234,1549,2,0,P|387:279|321:322,1,115,2|0,0:0|0:0,0:0:0:0:
264,304,2210,1,0,0:0:0:0:
208,352,2431,2,0,P|192:320|192:288,1,57.5,2|0,0:0|0:0,0:0:0:0:
192,224,2872,1,0,0:0:0:0:
128,256,3093,1,0,0:0:0:0:
64,216,3313,2,0,L|56:144,1,57.5,2|0,0:0|0:0,0:0:0:0:
72,88,3755,5,0,0:0:0:0:
144,56,3975,1,0,0:0:0:0:
200,104,4196,2,0,P|232:128|320:96,1,115,2|0,0:0|0:0,0:0:0:0:
360,72,4857,1,0,0:0:0:0:
432,64,5078,2,0,L|416:184,1,115,2|0,0:0|0:0,0:0:0:0:
456,240,5740,1,0,0:0:0:0:
488,312,5960,2,0,P|456:320|408:304,1,57.5,2|0,0:0|0:0,0:0:0:0:
368,272,6402,1,0,0:0:0:0:
320,328,6622,1,2,0:0:0:0:
320,328,6843,1,2,0:0:0:0:
320,328,7063,6,0,L|192:312,1,115,4|0,0:0|0:0,0:0:0:0:
72,248,7946,1,0,0:0:0:0:
72,248,8166,2,0,P|104:256|144:280,1,57.5,2|2,0:0|0:0,0:0:0:0:
264,200,8607,2,0,P|232:192|192:168,1,57.5,2|0,0:0|0:0,0:0:0:0:
160,128,9049,1,0,0:0:0:0:
312,136,9269,2,0,P|336:168|344:208,1,57.5,2|0,0:0|0:0,0:0:0:0:
336,256,9710,2,0,P|304:288|216:288,1,115,2|0,0:0|0:0,0:0:0:0:
176,344,10372,2,0,P|162:314|161:288,1,57.5,2|0,0:0|0:0,0:0:0:0:
88,272,10813,5,2,0:0:0:0:
128,208,11034,2,0,P|104:176|96:144,1,57.5,2|0,0:0|0:0,0:0:0:0:
24,144,11475,2,0,P|40:112|70:92,1,57.5,2|0,0:0|0:0,0:0:0:0:
56,98,11916,1,2,0:0:0:0:
96,32,12137,2,0,P|144:56|208:40,1,115,2|2,0:0|0:0,0:0:0:0:
248,104,12799,1,2,0:0:0:0:
320,80,13019,2,0,L|336:160,1,57.5,2|0,0:0|0:0,0:0:0:0:
408,128,13460,2,0,L|424:208,1,57.5,2|0,0:0|0:0,0:0:0:0:
432,256,13902,1,0,0:0:0:0:
392,320,14122,6,0,P|352:320|288:264,1,115,4|2,0:0|0:0,0:0:0:0:
280,204,14784,1,0,0:0:0:0:
220,248,15005,2,0,L|152:240,1,57.5,2|2,0:0|0:0,0:0:0:0:
88,256,15446,1,0,0:0:0:0:
36,204,15666,2,0,P|32:168|40:136,1,57.5,2|0,0:0|0:0,0:0:0:0:
68,80,16107,1,2,0:0:0:0:
140,64,16328,2,0,L|254:78,1,115,2|2,0:0|0:0,0:0:0:0:
318,42,16990,2,0,P|328:83|317:116,1,57.5,2|0,0:0|0:0,0:0:0:0:
276,152,17431,2,0,B|316:176|316:176|396:152,1,115,2|2,0:0|0:0,0:0:0:0:
452,184,18093,5,2,0:0:0:0:
376,312,18534,1,2,0:0:0:0:
376,312,18755,2,0,P|328:320|296:320,1,57.5,2|0,0:0|0:0,0:0:0:0:
168,312,19196,2,0,P|200:296|240:288,1,57.5,2|0,0:0|0:0,0:0:0:0:
256,356,19637,1,2,0:0:0:0:
72,264,19857,1,2,0:0:0:0:
112,368,20078,1,2,0:0:0:0:
152,224,20299,1,0,0:0:0:0:
0,216,20519,2,0,P|-8:256|-8:280,2,57.5,2|0|0,0:0|0:0|0:0,0:0:0:0:
216,160,21181,6,0,P|240:208|216:288,1,115,4|2,0:0|0:0,0:0:0:0:
176,320,21843,1,0,0:0:0:0:
104,296,22063,2,0,P|80:280|72:232,1,57.5,0|2,0:0|0:0,0:0:0:0:
72,176,22505,1,2,0:0:0:0:
120,116,22725,2,0,L|256:140,1,115,2|0,0:0|0:0,0:0:0:0:
289,82,23387,2,0,P|310:122|305:154,1,57.5,2|0,0:0|0:0,0:0:0:0:
296,204,23828,2,0,L|272:276,1,57.5,2|0,0:0|0:0,0:0:0:0:
248,324,24269,1,0,0:0:0:0:
304,372,24490,1,0,0:0:0:0:
336,304,24710,6,0,B|298:300|298:300|259:308|259:308|216:304,1,115,4|2,0:0|0:0,0:0:0:0:
168,260,25372,1,0,0:0:0:0:
176,178,25593,2,0,B|207:193|207:193|245:184,1,57.5,0|2,0:0|0:0,0:0:0:0:
295,152,26034,1,2,0:0:0:0:
104,128,26255,2,0,P|90:189|112:240,1,115,2|0,0:0|0:0,0:0:0:0:
184,120,26916,2,0,P|176:88|160:64,1,57.5,2|0,0:0|0:0,0:0:0:0:
96,40,27357,2,0,L|224:0,1,115,2|2,0:0|0:0,0:0:0:0:
272,48,28019,1,2,0:0:0:0:
276,124,28240,6,0,P|324:104|348:44,1,115,4|0,0:0|0:0,0:0:0:0:
428,176,29122,2,0,P|380:196|356:256,1,115,8|0,0:0|0:0,0:0:0:0:
355,251,29784,1,2,0:0:0:0:
355,251,30005,1,2,0:0:0:0:
232,336,30446,1,0,0:0:0:0:
96,272,30887,2,0,P|88:232|96:192,1,57.5,8|0,0:0|0:0,0:0:0:0:
104,144,31328,1,4,0:0:0:0:
104,144,31549,1,2,0:0:0:0:
328,112,31769,6,0,L|208:120,1,115,4|0,0:0|0:0,0:0:0:0:
213,119,32431,1,2,0:0:0:0:
424,192,32652,2,0,L|304:200,1,115,10|0,0:0|0:0,0:0:0:0:
256,248,33313,1,0,0:0:0:0:
292,316,33534,6,0,P|308:304|332:264,1,57.5,2|0,0:0|0:0,0:0:0:0:
220,180,33975,2,0,P|204:192|180:232,1,57.5,2|0,0:0|0:0,0:0:0:0:
184,296,34416,1,8,0:0:0:0:
272,88,34637,1,2,0:0:0:0:
272,88,34858,1,2,0:0:0:0:
136,144,35078,1,2,0:0:0:0:
136,144,35188,1,0,0:0:0:0:
136,144,35299,6,0,L|305:195,1,172.5,4|0,0:0|0:0,0:0:0:0:
301,194,36181,2,0,P|336:179|352:155,1,57.5,8|0,0:0|0:0,0:0:0:0:
368,88,36622,1,0,0:0:0:0:
408,232,37063,1,0,0:0:0:0:
296,328,37505,2,0,P|256:328|224:312,1,57.5,2|0,0:0|0:0,0:0:0:0:
168,304,37946,2,0,P|188:269|217:249,1,57.5,8|0,0:0|0:0,0:0:0:0:
256,200,38387,2,0,P|276:234|278:270,1,57.5,2|0,0:0|0:0,0:0:0:0:
168,144,38828,6,0,P|192:112|280:104,1,115,4|0,0:0|0:0,0:0:0:0:
328,128,39490,1,0,0:0:0:0:
384,80,39710,2,0,P|400:120|368:192,1,115,8|0,0:0|0:0,0:0:0:0:
376,184,40372,1,0,0:0:0:0:
440,224,40593,2,0,P|424:248|416:280,1,57.5
344,256,41034,2,0,B|304:248|304:248|224:272,1,115,2|8,0:0|0:0,0:0:0:0:
168,304,41696,1,2,0:0:0:0:
120,248,41916,2,0,P|88:256|48:256,1,57.5,2|0,0:0|0:0,0:0:0:0:
72,184,42357,6,0,B|48:152|48:152|112:88,1,115,4|0,0:0|0:0,0:0:0:0:
160,144,43019,1,0,0:0:0:0:
200,80,43240,2,0,P|232:112|240:136,1,57.5,8|0,0:0|0:0,0:0:0:0:
224,196,43681,1,0,0:0:0:0:
260,264,43902,1,0,0:0:0:0:
336,264,44122,1,0,0:0:0:0:
376,200,44343,1,2,0:0:0:0:
344,128,44563,2,0,P|312:152|304:192,1,57.5,2|0,0:0|0:0,0:0:0:0:
416,280,45005,2,0,P|464:240|464:184,1,115,8|2,0:0|0:0,0:0:0:0:
432,120,45666,1,2,0:0:0:0:
480,64,45887,6,0,L|352:48,1,115,4|0,0:0|0:0,0:0:0:0:
296,72,46549,1,0,0:0:0:0:
272,144,46769,2,0,L|288:200,1,57.5,8|0,0:0|0:0,0:0:0:0:
288,272,47210,1,0,0:0:0:0:
240,328,47431,1,0,0:0:0:0:
168,328,47652,2,0,P|172:298|206:265,1,57.5
144,216,48093,1,2,0:0:0:0:
144,216,48313,1,2,0:0:0:0:
144,216,48534,2,0,B|152:160|152:160|112:48,1,172.5,4|2,0:0|0:0,0:0:0:0:
113,50,49306,1,0,0:0:0:0:
113,50,49416,6,0,L|272:80,1,137.999995788574,4|0,0:0|0:0,0:0:0:0:
312,144,50078,1,0,0:0:0:0:
320,232,50299,2,0,P|272:224|248:208,2,68.9999978942872,8|2|2,0:0|0:0|0:0,0:0:0:0:
324,112,50960,1,0,0:0:0:0:
208,144,51181,2,0,P|180:180|176:208,1,68.9999978942872,2|0,0:0|0:0,0:0:0:0:
376,296,51622,2,0,P|404:260|408:232,1,68.9999978942872,4|0,0:0|0:0,0:0:0:0:
440,156,52063,6,0,B|432:132|432:132|456:76,1,68.9999978942872,8|0,0:0|0:0,0:0:0:0:
376,20,52505,2,0,B|384:44|384:44|360:100,1,68.9999978942872,2|2,0:0|0:0,0:0:0:0:
344,176,52945,5,2,0:0:0:0:
432,192,53166,1,0,0:0:0:0:
256,200,53387,2,0,P|256:152|272:128,1,68.9999978942872,2|0,0:0|0:0,0:0:0:0:
384,272,53828,1,8,0:0:0:0:
384,96,54049,1,2,0:0:0:0:
312,256,54269,1,2,0:0:0:0:
440,40,54490,2,0,P|464:80|464:112,1,68.9999978942872,2|0,0:0|0:0,0:0:0:0:
408,176,54931,1,2,0:0:0:0:
320,152,55152,2,0,P|302:118|299:87,1,68.9999978942872,2|0,0:0|0:0,0:0:0:0:
456,256,55593,2,0,L|304:280,1,137.999995788574,8|2,0:0|0:0,0:0:0:0:
240,240,56255,1,2,0:0:0:0:
312,188,56475,5,4,0:0:0:0:
256,328,56696,1,0,0:0:0:0:
176,288,56916,2,0,P|160:256|168:216,1,68.9999978942872
72,216,57357,1,8,0:0:0:0:
104,136,57578,2,0,P|112:96|96:40,1,68.9999978942872,2|2,0:0|0:0,0:0:0:0:
44,8,58019,2,0,L|196:40,1,137.999995788574,2|0,0:0|0:0,0:0:0:0:
236,108,58681,2,0,P|268:76|276:52,1,68.9999978942872,2|0,0:0|0:0,0:0:0:0:
360,88,59122,1,10,0:0:0:0:
320,168,59343,2,0,P|288:200|288:248,1,68.9999978942872,2|0,0:0|0:0,0:0:0:0:
320,304,59784,1,2,0:0:0:0:
408,336,60005,6,0,P|440:320|464:272,1,68.9999978942872,4|0,0:0|0:0,0:0:0:0:
456,200,60446,2,0,B|440:152|440:152|472:56,1,137.999995788574,2|8,0:0|0:0,0:0:0:0:
392,16,61107,1,2,0:0:0:0:
328,80,61328,1,2,0:0:0:0:
352,168,61549,1,2,0:0:0:0:
352,168,61659,1,0,0:0:0:0:
352,168,61769,1,8,0:0:0:0:
288,232,61990,2,0,P|248:232|216:216,1,68.9999978942872,2|2,0:0|0:0,0:0:0:0:
144,264,62431,2,2,B|128:216|128:216|144:104,2,137.999995788574,2|0|2,0:0|0:0|0:0,0:0:0:0:
112,344,63534,6,0,P|164:347|226:290,1,137.999995788574,4|0,0:0|0:0,0:0:0:0:
296,344,64196,1,2,0:0:0:0:
384,320,64416,2,0,B|360:280|360:280|336:176,1,137.999995788574,8|0,0:0|0:0,0:0:0:0:
368,104,65078,1,0,0:0:0:0:
448,64,65299,2,0,P|456:112|448:152,1,68.9999978942872,2|0,0:0|0:0,0:0:0:0:
272,144,65740,2,0,P|264:96|272:56,1,68.9999978942872,2|0,0:0|0:0,0:0:0:0:
384,208,66181,2,0,L|224:232,1,137.999995788574,8|2,0:0|0:0,0:0:0:0:
176,168,66843,1,2,0:0:0:0:
352,304,67063,6,0,L|192:328,1,137.999995788574,4|0,0:0|0:0,0:0:0:0:
136,288,67725,1,0,0:0:0:0:
56,328,67946,2,0,B|48:272|48:272|0:192,1,137.999995788574,8|2,0:0|0:0,0:0:0:0:
16,112,68607,1,2,0:0:0:0:
96,152,68828,2,0,L|144:232,1,68.9999978942872,2|0,0:0|0:0,0:0:0:0:
216,232,69269,1,2,0:0:0:0:
288,184,69490,2,0,P|264:160|224:152,1,68.9999978942872,2|8,0:0|0:0,0:0:0:0:
152,312,69931,1,4,0:0:0:0:
280,280,70152,1,4,0:0:0:0:
104,248,70372,1,2,0:0:0:0:
304,360,70593,6,0,P|344:336|344:240,1,137.999995788574,4|0,0:0|0:0,0:0:0:0:
440,232,71255,1,2,0:0:0:0:
472,152,71475,2,0,L|320:112,1,137.999995788574,10|0,0:0|0:0,0:0:0:0:
256,152,72137,1,0,0:0:0:0:
192,96,72357,2,0,P|168:136|168:176,1,68.9999978942872,2|0,0:0|0:0,0:0:0:0:
80,168,72799,2,0,L|96:248,1,68.9999978942872,2|0,0:0|0:0,0:0:0:0:
48,312,73240,2,0,L|192:304,1,137.999995788574,8|0,0:0|0:0,0:0:0:0:
272,296,73902,1,2,0:0:0:0:
344,240,74122,6,0,P|312:216|280:208,1,68.9999978942872,4|0,0:0|0:0,0:0:0:0:
200,240,74563,1,0,0:0:0:0:
272,296,74784,1,2,0:0:0:0:
360,320,75005,2,0,P|407:299|418:278,1,68.9999978942872,10|0,0:0|0:0,0:0:0:0:
424,200,75446,1,2,0:0:0:0:
272,296,75666,1,0,0:0:0:0:
416,120,75887,2,0,P|464:128|488:152,1,68.9999978942872,2|0,0:0|0:0,0:0:0:0:
504,224,76328,1,2,0:0:0:0:
336,160,76549,2,0,P|320:112|320:80,1,68.9999978942872,2|8,0:0|0:0,0:0:0:0:
384,32,76990,5,2,0:0:0:0:
384,32,77210,1,2,0:0:0:0:
472,56,77431,1,0,0:0:0:0:
472,56,77541,1,0,0:0:0:0:
472,56,77652,6,0,L|448:152,1,74.7499965782167,4|0,0:0|0:0,0:0:0:0:
400,208,78093,1,2,0:0:0:0:
456,288,78313,1,2,0:0:0:0:
456,288,78534,2,0,L|384:304,1,74.7499965782167,4|0,0:0|0:0,0:0:0:0:
296,256,78975,1,2,0:0:0:0:
240,336,79196,1,0,0:0:0:0:
152,296,79416,2,0,P|104:256|96:224,1,74.7499965782167,2|0,0:0|0:0,0:0:0:0:
72,152,79857,2,0,L|168:168,1,74.7499965782167,4|0,0:0|0:0,0:0:0:0:
192,80,80299,2,0,P|240:96|344:80,1,149.499993156433,6|0,0:0|0:0,0:0:0:0:
424,40,80960,1,0,0:0:0:0:
464,128,81181,6,0,L|440:288,1,149.499993156433,4|0,0:0|0:0,0:0:0:0:
368,344,81843,1,0,0:0:0:0:
272,328,82063,2,0,L|288:256,1,74.7499965782167,4|0,0:0|0:0,0:0:0:0:
256,160,82505,1,4,0:0:0:0:
168,336,82725,1,0,0:0:0:0:
168,336,82946,2,0,L|184:264,1,74.7499965782167,4|0,0:0|0:0,0:0:0:0:
88,248,83387,2,0,L|104:176,1,74.7499965782167,2|0,0:0|0:0,0:0:0:0:
136,80,83828,5,4,0:0:0:0:
48,112,84049,1,2,0:0:0:0:
240,128,84269,1,2,0:0:0:0:
72,32,84490,1,2,0:0:0:0:
240,208,84710,6,0,P|280:200|312:168,1,74.7499965782167,4|2,0:0|0:0,0:0:0:0:
305,178,85041,1,0,0:0:0:0:
305,178,85152,1,2,0:0:0:0:
312,80,85372,1,2,0:0:0:0:
152,192,85593,2,0,L|160:272,1,74.7499965782167,4|0,0:0|0:0,0:0:0:0:
232,328,86034,1,2,0:0:0:0:
320,288,86255,1,0,0:0:0:0:
320,288,86475,2,0,B|352:320|352:320|456:304,1,149.499993156433,2|0,0:0|0:0,0:0:0:0:
480,208,87137,1,2,0:0:0:0:
424,128,87357,2,0,L|352:144,1,74.7499965782167,4|0,0:0|0:0,0:0:0:0:
272,88,87799,2,0,L|200:104,1,74.7499965782167,2|0,0:0|0:0,0:0:0:0:
136,32,88240,6,0,L|168:192,1,149.499993156433,4|0,0:0|0:0,0:0:0:0:
165,178,88902,1,2,0:0:0:0:
48,24,89122,2,0,L|80:184,1,149.499993156433,6|0,0:0|0:0,0:0:0:0:
128,256,89784,1,0,0:0:0:0:
224,248,90005,1,2,0:0:0:0:
256,160,90225,1,0,0:0:0:0:
240,64,90446,2,0,L|400:88,1,149.499993156433,2|4,0:0|0:0,0:0:0:0:
448,160,91107,1,2,0:0:0:0:
408,248,91328,1,2,0:0:0:0:
312,264,91549,5,8,0:0:0:0:
304,280,91659,1,0,0:0:0:0:
296,296,91769,2,0,L|144:280,1,137.999995788574,12|0,0:0|0:0,0:0:0:0:
80,328,92431,1,2,0:0:0:0:
40,248,92652,2,0,B|56:200|56:200|40:112,1,137.999995788574,4|0,0:0|0:0,0:0:0:0:
72,32,93313,1,0,0:0:0:0:
120,104,93534,2,0,L|136:192,1,68.9999978942872
216,216,93975,5,2,0:0:0:0:
296,176,94196,1,2,0:0:0:0:
328,88,94416,1,4,0:0:0:0:
256,40,94637,1,0,0:0:0:0:
224,124,94857,1,0,0:0:0:0:
296,176,95078,1,0,0:0:0:0:
384,152,95299,6,0,P|408:120|416:64,1,68.9999978942872,6|0,0:0|0:0,0:0:0:0:
328,88,95740,1,2,0:0:0:0:
296,176,95960,1,0,0:0:0:0:
360,240,96181,1,8,0:0:0:0:
448,224,96402,1,0,0:0:0:0:
416,304,96622,2,0,P|376:320|336:312,1,68.9999978942872,2|0,0:0|0:0,0:0:0:0:
280,264,97063,5,2,0:0:0:0:
208,320,97284,2,0,P|192:280|192:248,1,68.9999978942872,2|0,0:0|0:0,0:0:0:0:
192,168,97725,1,2,0:0:0:0:
248,96,97946,2,0,L|336:88,1,68.9999978942872,10|0,0:0|0:0,0:0:0:0:
392,136,98387,1,2,0:0:0:0:
128,72,98607,2,0,L|80:80,2,34.4999989471436,2|0|4,0:0|0:0|0:0,0:0:0:0:
272,176,99049,5,2,0:0:0:0:
256,216,99160,1,0,0:0:0:0:
216,240,99270,1,2,0:0:0:0:
128,232,99490,1,2,0:0:0:0:
88,152,99710,1,4,0:0:0:0:
128,72,99931,1,2,0:0:0:0:
216,64,100152,1,2,0:0:0:0:
296,96,100372,1,0,0:0:0:0:
384,112,100593,5,0,0:0:0:0:
456,56,100813,1,0,0:0:0:0:
480,144,101034,2,0,L|488:232,1,68.9999978942872,2|0,0:0|0:0,0:0:0:0:
400,224,101475,2,0,L|408:312,1,68.9999978942872,6|0,0:0|0:0,0:0:0:0:
328,340,101916,1,2,0:0:0:0:
240,340,102137,1,2,0:0:0:0:
160,296,102357,6,0,L|176:216,1,68.9999978942872,4|0,0:0|0:0,0:0:0:0:
88,208,102799,2,0,L|128:144,1,68.9999978942872,2|0,0:0|0:0,0:0:0:0:
72,72,103240,2,0,L|152:64,1,68.9999978942872,4|0,0:0|0:0,0:0:0:0:
208,8,103681,2,0,L|248:80,1,68.9999978942872
328,40,104122,1,2,0:0:0:0:
336,128,104343,1,2,0:0:0:0:
416,80,104563,1,2,0:0:0:0:
416,168,104784,1,2,0:0:0:0:
336,216,105005,2,0,P|296:208|248:112,1,137.999995788574,4|0,0:0|0:0,0:0:0:0:
184,64,105666,1,2,0:0:0:0:
184,64,105777,1,0,0:0:0:0:
184,64,105887,1,4,0:0:0:0:
256,192,105997,12,2,109416,0:0:0:0:
432,272,118240,5,2,0:0:0:0:
416,264,119784,1,8,0:0:0:0:
416,264,119894,1,0,0:0:0:0:
416,264,120005,6,0,L|288:280,1,115,4|0,0:0|0:0,0:0:0:0:
256,336,120666,1,2,0:0:0:0:
424,184,120887,2,0,P|464:200|480:224,1,57.5,4|0,0:0|0:0,0:0:0:0:
376,96,121328,2,0,P|369:53|382:27,1,57.5,2|0,0:0|0:0,0:0:0:0:
320,184,121769,2,0,P|286:210|257:212,1,57.5,2|0,0:0|0:0,0:0:0:0:
136,152,122210,5,2,0:0:0:0:
248,136,122431,1,2,0:0:0:0:
128,232,122652,2,0,P|80:216|64:192,1,57.5,8|0,0:0|0:0,0:0:0:0:
136,72,123093,2,0,P|176:80|192:96,1,57.5,2|0,0:0|0:0,0:0:0:0:
240,232,123534,6,0,P|280:232|336:176,1,115,6|0,0:0|0:0,0:0:0:0:
336,112,124196,1,2,0:0:0:0:
296,48,124416,2,0,P|272:72|264:96,1,57.5,8|0,0:0|0:0,0:0:0:0:
400,160,124857,2,0,L|472:152,2,57.5,2|0|0,0:0|0:0|0:0,0:0:0:0:
400,160,125519,1,0,0:0:0:0:
496,280,125740,2,0,L|424:288,1,57.5,2|0,0:0|0:0,0:0:0:0:
392,344,126181,2,0,P|368:312|384:232,1,115,8|0,0:0|0:0,0:0:0:0:
328,184,126843,1,2,0:0:0:0:
328,184,127063,6,0,L|248:192,1,57.5,4|0,0:0|0:0,0:0:0:0:
270,189,127394,1,0,0:0:0:0:
270,189,127505,1,0,0:0:0:0:
224,248,127725,1,2,0:0:0:0:
192,176,127946,1,8,0:0:0:0:
192,176,129049,5,2,0:0:0:0:
192,176,129269,2,0,L|64:160,1,115,4|8,0:0|0:0,0:0:0:0:
216,104,129931,2,2,L|88:88,2,115
272,152,131034,1,2,0:0:0:0:
312,88,131255,1,0,0:0:0:0:
312,88,131475,2,0,L|368:96,1,57.5,4|2,0:0|0:0,0:0:0:0:
368,96,131916,1,2,0:0:0:0:
432,136,132137,2,0,L|448:104,2,19.1666666666667,8|8|8,3:0|3:0|3:0,3:0:0:0:
432,160,132357,6,0,L|456:288,2,115,0|2|4,0:0|0:0|0:0,0:0:0:0:
352,128,134343,5,2,0:0:0:0:
288,184,134563,1,2,0:0:0:0:
240,120,134784,1,2,0:0:0:0:
240,120,135005,2,0,L|168:128,1,63.2500019302369,8|2,0:0|0:0,0:0:0:0:
112,72,135446,2,0,P|96:120|128:200,1,126.500003860474,2|0,0:0|0:0,0:0:0:0:
200,208,136107,2,2,L|184:272,2,63.2500019302369
248,136,136769,2,0,L|384:120,1,126.500003860474,4|0,0:0|0:0,0:0:0:0:
448,160,137431,1,2,0:0:0:0:
448,160,137652,6,0,P|464:120|456:96,1,63.2500019302369,4|0,0:0|0:0,0:0:0:0:
448,264,138093,2,0,P|474:297|499:302,1,63.2500019302369,2|0,0:0|0:0,0:0:0:0:
360,208,138534,2,0,P|317:214|300:233,1,63.2500019302369,8|0,0:0|0:0,0:0:0:0:
280,304,138975,1,0,0:0:0:0:
360,288,139196,1,0,0:0:0:0:
208,352,139416,2,0,P|192:304|200:272,1,63.2500019302369,2|0,0:0|0:0,0:0:0:0:
344,368,139857,1,2,0:0:0:0:
360,288,140078,1,0,0:0:0:0:
280,304,140299,5,4,0:0:0:0:
440,336,140519,1,0,0:0:0:0:
360,192,140740,1,2,0:0:0:0:
432,240,140960,1,0,0:0:0:0:
320,120,141181,6,0,P|288:152|288:192,1,63.2500019302369,6|0,0:0|0:0,0:0:0:0:
432,240,141622,2,0,P|464:208|464:168,1,63.2500019302369,2|0,0:0|0:0,0:0:0:0:
424,120,142063,2,0,B|400:104|400:104|352:0,1,126.500003860474,8|2,0:0|0:0,0:0:0:0:
288,48,142725,1,2,0:0:0:0:
496,72,142946,2,0,P|512:120|504:152,1,63.2500019302369,2|0,0:0|0:0,0:0:0:0:
368,192,143387,1,2,0:0:0:0:
368,192,143828,2,0,L|240:184,1,126.500003860474,8|0,0:0|0:0,0:0:0:0:
176,232,144490,1,2,0:0:0:0:
392,120,144711,6,0,P|432:144|440:184,1,63.2500019302369,4|0,0:0|0:0,0:0:0:0:
424,240,145152,2,0,P|382:264|343:259,1,63.2500019302369
296,216,145593,2,0,L|288:80,1,126.500003860474,8|0,0:0|0:0,0:0:0:0:
216,48,146255,1,0,0:0:0:0:
152,96,146475,2,0,L|160:168,1,63.2500019302369,2|0,0:0|0:0,0:0:0:0:
168,240,146916,1,2,0:0:0:0:
48,128,147137,2,0,L|56:200,1,63.2500019302369,2|4,0:0|0:0,0:0:0:0:
88,264,147578,1,2,0:0:0:0:
152,320,147799,1,2,0:0:0:0:
232,304,148019,1,0,0:0:0:0:
232,304,148130,1,0,0:0:0:0:
232,304,148240,6,0,P|256:272|256:224,1,74.7499965782167,4|0,0:0|0:0,0:0:0:0:
224,152,148681,2,0,L|312:136,1,74.7499965782167,2|0,0:0|0:0,0:0:0:0:
360,64,149122,2,0,P|384:104|368:208,1,149.499993156433,4|2,0:0|0:0,0:0:0:0:
464,240,149784,1,0,0:0:0:0:
456,336,150005,2,0,B|384:320|384:320|296:336,1,149.499993156433,4|0,0:0|0:0,0:0:0:0:
296,240,150666,1,2,0:0:0:0:
208,288,150887,2,0,P|195:209|304:136,1,224.24998973465,4|0,0:0|0:0,0:0:0:0:
376,200,151769,6,0,L|336:40,1,149.499993156433,4|0,0:0|0:0,0:0:0:0:
240,40,152431,1,2,0:0:0:0:
144,56,152652,2,0,P|96:96|72:184,1,149.499993156433,4|0,0:0|0:0,0:0:0:0:
96,272,153313,1,2,0:0:0:0:
152,352,153534,2,0,B|208:368|208:368|304:344,1,149.499993156433,4|0,0:0|0:0,0:0:0:0:
392,368,154196,1,2,0:0:0:0:
472,312,154416,2,4,L|432:160,1,149.499993156433,4|0,0:0|0:0,0:0:0:0:
456,72,155078,1,2,0:0:0:0:
360,48,155299,6,0,B|336:80|336:80|280:104|216:64,1,149.499993156433,4|0,0:0|0:0,0:0:0:0:
136,80,155960,1,2,0:0:0:0:
64,144,156181,2,0,P|104:176|136:176,1,74.7499965782167,8|0,0:0|0:0,0:0:0:0:
320,200,156622,2,0,P|272:218|256:246,1,74.7499965782167,2|0,0:0|0:0,0:0:0:0:
256,336,157063,2,0,P|296:360|336:360,1,74.7499965782167,2|0,0:0|0:0,0:0:0:0:
400,296,157505,2,0,L|416:128,1,149.499993156433,0|8,0:0|0:0,0:0:0:0:
344,80,158166,1,2,0:0:0:0:
256,120,158387,1,2,0:0:0:0:
184,56,158607,1,2,0:0:0:0:
104,112,158828,6,0,L|128:272,1,149.499993156433,4|0,0:0|0:0,0:0:0:0:
208,312,159490,1,2,0:0:0:0:
296,272,159710,2,0,B|360:256|360:256|464:296,1,149.499993156433,8|0,0:0|0:0,0:0:0:0:
368,352,160372,1,2,0:0:0:0:
208,312,160593,2,0,P|200:272|216:224,1,74.7499965782167,2|0,0:0|0:0,0:0:0:0:
280,176,161034,1,2,0:0:0:0:
88,184,161255,2,0,P|128:184|168:168,1,74.7499965782167,2|8,0:0|0:0,0:0:0:0:
216,96,161696,1,2,0:0:0:0:
120,88,161916,1,4,0:0:0:0:
248,24,162137,1,2,0:0:0:0:
272,40,162247,1,0,0:0:0:0:
288,64,162357,5,4,0:0:0:0:
384,32,162578,1,0,0:0:0:0:
352,128,162799,2,0,P|392:136|432:128,1,74.7499965782167,4|0,0:0|0:0,0:0:0:0:
280,264,163240,2,0,P|208:248|136:280,1,149.499993156433,4|2,0:0|0:0,0:0:0:0:
140,276,163902,1,2,0:0:0:0:
328,328,164122,2,0,P|360:288|360:256,1,74.7499965782167,4|0,0:0|0:0,0:0:0:0:
304,192,164563,1,4,0:0:0:0:
416,352,164784,1,2,0:0:0:0:
224,200,165005,2,0,P|256:128|384:176,1,224.24998973465,4|0,0:0|0:0,0:0:0:0:
400,248,165887,6,0,L|456:104,1,149.499993156433,6|2,0:0|0:0,0:0:0:0:
392,32,166549,1,2,0:0:0:0:
376,128,166769,2,0,B|408:168|408:168|448:184|448:184|488:232,1,149.499993156433,4|2,0:0|0:0,0:0:0:0:
448,320,167431,1,2,0:0:0:0:
352,320,167652,2,0,P|320:288|312:256,1,74.7499965782167,4|0,0:0|0:0,0:0:0:0:
216,88,168093,2,0,P|248:120|256:152,1,74.7499965782167,4|0,0:0|0:0,0:0:0:0:
216,240,168534,2,0,P|176:256|64:208,1,149.499993156433,4|2,0:0|0:0,0:0:0:0:
72,80,169196,1,2,0:0:0:0:
168,184,169416,6,0,L|104:328,1,149.499993156433,4|2,0:0|0:0,0:0:0:0:
208,328,170078,1,2,0:0:0:0:
296,280,170299,2,0,P|304:224|288:184,1,74.7499965782167,8|0,0:0|0:0,0:0:0:0:
264,120,170740,2,0,L|416:96,1,149.499993156433,2|0,0:0|0:0,0:0:0:0:
411,96,171402,1,2,0:0:0:0:
223,48,171622,2,0,P|196:72|184:107,1,74.7499965782167,2|2,0:0|0:0,0:0:0:0:
184,204,172063,2,0,P|196:238|223:263,1,74.7499965782167,10|2,0:0|0:0,0:0:0:0:
320,264,172505,2,0,L|402:252,1,74.7499965782167,2|0,0:0|0:0,0:0:0:0:
456,328,172946,6,0,L|280:352,1,149.499993156433,4|0,0:0|0:0,0:0:0:0:
232,288,173607,1,2,0:0:0:0:
160,224,173828,1,8,0:0:0:0:
256,192,174049,12,4,176475,0:0:0:0:
408,104,183534,6,0,P|368:128|256:64,1,172.500006580353,2|0,0:0|0:0,0:0:0:0:
48,144,185299,2,0,P|88:120|200:184,1,172.500006580353,2|0,0:0|0:0,0:0:0:0:
320,352,187063,2,0,L|144:320,2,172.500006580353,2|0|2,0:0|0:0|0:0,0:0:0:0:
336,336,189710,1,0,0:0:0:0:
352,304,190593,5,4,0:0:0:0:
256,192,190703,12,0,194122,0:0:0:0:
