osu file format v14

[General]
AudioFilename: Owl City - Beautiful Times (featuring Lindsey Stirling).mp3
AudioLeadIn: 2000
PreviewTime: 77652
Countdown: 0
SampleSet: Soft
StackLeniency: 0.7
Mode: 0
LetterboxInBreaks: 0
WidescreenStoryboard: 1

[Editor]
DistanceSpacing: 1.2
BeatDivisor: 4
GridSize: 4
TimelineZoom: 1

[Metadata]
Title:Beautiful Times (feat. Lindsey Stirling)
TitleUnicode:Beautiful Times (feat. Lindsey Stirling)
Artist:Owl City
ArtistUnicode:Owl City
Creator:HootOwlStar
Version:Easy
Source:
Tags:Adam Young June 27 Ultraviolet EP Fort Gray Veyron Cerulean orza6006 VINXIS Mishima Yurara jinhang_ang Arcubin
BeatmapID:449352
BeatmapSetID:172788

[Difficulty]
HPDrainRate:2
CircleSize:2.5
OverallDifficulty:3
ApproachRate:3
SliderMultiplier:1.5
SliderTickRate:2

[Events]
//Background and Video events
0,0,"owl_city_by_chadatbethel.jpg",0,0
Video,0,"Owl City - Beautiful Times ft Lindsey Stirling.avi"
//Break Periods
2,109616,116800
2,176675,182094
//Storyboard Layer 0 (Background)
//Storyboard Layer 1 (Fail)
//Storyboard Layer 2 (Pass)
//Storyboard Layer 3 (Foreground)
//Storyboard Sound Samples

[TimingPoints]
5,882.352941176471,4,2,1,60,1,0
77652,-100,4,2,1,60,0,1
91549,-100,4,2,1,60,0,0
91769,-100,4,2,1,60,0,1
105887,-100,4,2,1,20,0,0
118019,-100,4,2,1,60,0,0
148240,-100,4,2,1,60,0,1
162137,-100,4,2,1,60,0,0
162357,-100,4,2,1,60,0,1
176475,-100,4,2,1,60,0,0
190813,-100,4,2,1,20,0,0

[Colours]
Combo1 : 217,0,0
Combo2 : 169,83,255
Combo3 : 0,128,255
Combo4 : 1,228,200
Combo5 : 190,252,3
Combo6 : 251,255,98
Combo7 : 255,211,79
Combo8 : 253,108,2

[HitObjects]
20,88,7063,6,0,B|92:104|92:104|180:80,1,150,4|2,0:0|0:0,0:0:0:0:
232,24,8387,1,0,0:0:0:0:
296,88,8828,2,0,P|304:132|296:176,1,75
236,224,9710,2,0,P|228:268|236:312,1,75,2|0,0:0|0:0,0:0:0:0:
304,348,10593,6,0,L|460:356,2,150,0|2|0,0:0|0:0|0:0,0:0:0:0:
231,297,12799,1,0,0:0:0:0:
156,348,13240,2,0,P|116:356|72:356,1,75,2|0,0:0|0:0,0:0:0:0:
24,288,14122,6,0,L|16:132,1,150,0|2,0:0|0:0,0:0:0:0:
60,60,15446,1,0,0:0:0:0:
140,104,15887,2,0,P|188:108|228:96,1,75
284,44,16769,2,0,B|320:40|320:40|372:52,1,75,2|0,0:0|0:0,0:0:0:0:
412,120,17652,6,0,L|420:296,2,150,0|2|0,0:0|0:0|0:0,0:0:0:0:
357,45,19857,1,0,0:0:0:0:
276,88,20299,2,0,P|244:100|184:96,1,75,2|0,0:0|0:0,0:0:0:0:
120,132,21181,6,0,P|100:200|140:284,1,150,4|2,0:0|0:0,0:0:0:0:
204,324,22505,1,0,0:0:0:0:
124,360,22946,2,0,L|32:368,2,75,0|0|2,0:0|0:0|0:0,0:0:0:0:
280,272,24710,6,0,L|436:284,1,150,0|2,0:0|0:0,0:0:0:0:
504,232,26034,1,0,0:0:0:0:
456,156,26475,2,0,L|448:72,1,75
364,48,27357,2,0,L|356:132,1,75,2|0,0:0|0:0,0:0:0:0:
300,192,28240,6,0,P|220:188|176:132,1,150,4|8,0:0|0:0,0:0:0:0:
140,56,29563,1,0,0:0:0:0:
84,128,30005,2,0,L|76:224,1,75
104,288,30887,2,0,B|140:300|140:300|184:296,1,75,8|0,0:0|0:0,0:0:0:0:
256,252,31769,6,0,P|336:256|380:312,1,150,2|8,0:0|0:0,0:0:0:0:
292,336,33093,1,0,0:0:0:0:
204,328,33534,2,0,L|112:312,1,75
96,232,34416,2,0,L|188:216,1,75,8|0,0:0|0:0,0:0:0:0:
248,172,35299,5,4,0:0:0:0:
228,84,35740,1,0,0:0:0:0:
152,132,36181,2,0,B|84:144|84:144|24:132,2,112.5,8|0|0,0:0|0:0|0:0,0:0:0:0:
228,84,37946,2,0,P|268:76|304:80,1,75,8|0,0:0|0:0,0:0:0:0:
376,128,38828,6,0,P|420:136|508:84,2,150,2|8|0,0:0|0:0|0:0,0:0:0:0:
301,79,41034,1,0,0:0:0:0:
236,140,41475,2,0,B|228:176|228:176|232:220,1,75,8|0,0:0|0:0,0:0:0:0:
264,296,42357,6,0,L|416:304,1,150,2|8,0:0|0:0,0:0:0:0:
496,340,43681,1,0,0:0:0:0:
484,252,44122,2,0,P|480:212|488:168,1,75
512,92,45005,2,0,P|497:54|470:18,1,75,8|0,0:0|0:0,0:0:0:0:
388,16,45887,6,0,L|236:32,1,150,2|8,0:0|0:0,0:0:0:0:
156,64,47210,1,0,0:0:0:0:
68,40,47652,1,0,0:0:0:0:
68,40,49416,6,0,L|56:196,1,150,4|8,0:0|0:0,0:0:0:0:
28,276,50740,1,0,0:0:0:0:
80,348,51181,2,0,P|128:356|228:328,1,150,0|8,0:0|0:0,0:0:0:0:
276,256,52505,1,0,0:0:0:0:
352,304,52946,6,0,L|504:320,2,150,2|8|0,0:0|0:0|0:0,0:0:0:0:
276,256,55152,2,0,P|272:200|284:164,1,75,0|8,0:0|0:0,0:0:0:0:
316,104,56034,1,0,0:0:0:0:
400,132,56475,6,0,P|447:122|485:99,1,75,2|0,0:0|0:0,0:0:0:0:
496,24,57357,2,0,L|512:264,1,225,8|0,0:0|0:0,0:0:0:0:
476,332,59122,1,8,0:0:0:0:
388,308,59563,1,0,0:0:0:0:
304,340,60005,6,0,L|152:352,1,150,2|8,0:0|0:0,0:0:0:0:
68,328,61328,1,0,0:0:0:0:
132,264,61769,1,0,0:0:0:0:
132,264,63534,6,0,P|184:272|272:200,1,150,4|8,0:0|0:0,0:0:0:0:
288,136,64857,1,0,0:0:0:0:
352,200,65299,2,0,L|360:292,1,75
384,360,66181,2,0,B|420:364|420:364|464:352,1,75,8|0,0:0|0:0,0:0:0:0:
496,272,67063,6,0,L|504:112,1,150,2|8,0:0|0:0,0:0:0:0:
460,44,68387,1,0,0:0:0:0:
384,88,68828,2,0,P|332:100|296:96,1,75
240,44,69710,2,0,P|188:32|152:36,1,75,8|0,0:0|0:0,0:0:0:0:
92,84,70593,6,0,L|8:92,2,75,2|0|8,0:0|0:0|0:0,0:0:0:0:
166,33,71916,1,0,0:0:0:0:
240,84,72357,2,0,P|248:144|240:176,1,75
188,228,73240,2,0,P|180:288|188:320,1,75,8|0,0:0|0:0,0:0:0:0:
252,356,74122,6,0,B|328:360|328:360|416:336,2,150,2|8|0,0:0|0:0|0:0,0:0:0:0:
180,300,76328,1,0,0:0:0:0:
112,360,76769,2,0,P|70:361|32:344,1,75,8|0,0:0|0:0,0:0:0:0:
20,260,77652,6,0,L|8:108,1,150,4|8,0:0|0:0,0:0:0:0:
44,28,78975,1,0,0:0:0:0:
120,80,79416,2,0,P|164:88|224:80,1,75
272,40,80299,2,0,P|316:32|376:40,1,75,8|0,0:0|0:0,0:0:0:0:
416,92,81181,6,0,L|428:264,1,150,2|8,0:0|0:0,0:0:0:0:
284,348,82946,2,0,L|294:198,1,150,0|8,0:0|0:0,0:0:0:0:
424,76,84710,6,0,L|436:248,1,150,2|8,0:0|0:0,0:0:0:0:
408,312,86034,1,0,0:0:0:0:
320,288,86475,2,0,B|244:280|244:280|168:304,1,150,0|8,0:0|0:0,0:0:0:0:
100,352,87799,1,0,0:0:0:0:
24,304,88240,6,0,P|20:248|32:208,1,75,2|0,0:0|0:0,0:0:0:0:
84,164,89122,2,0,P|88:108|76:68,1,75,8|0,0:0|0:0,0:0:0:0:
8,44,90005,2,0,L|168:56,1,150,0|8,0:0|0:0,0:0:0:0:
240,88,91328,1,0,0:0:0:0:
168,144,91769,6,0,P|144:216|176:300,2,150,4|8|0,0:0|0:0|0:0,0:0:0:0:
240,88,93975,1,0,0:0:0:0:
324,124,94416,2,0,P|360:128|400:120,1,75,8|0,0:0|0:0,0:0:0:0:
448,48,95299,5,2,0:0:0:0:
488,128,95740,1,0,0:0:0:0:
436,204,96181,2,0,L|440:280,1,75,8|0,0:0|0:0,0:0:0:0:
380,344,97063,2,0,P|332:356|288:348,1,75
231,303,97946,2,0,P|196:292|159:294,1,75,8|0,0:0|0:0,0:0:0:0:
84,348,98828,6,0,P|68:276|108:216,1,150,2|8,0:0|0:0,0:0:0:0:
184,168,100152,1,0,0:0:0:0:
260,212,100593,2,0,P|320:224|420:180,1,150,0|8,0:0|0:0,0:0:0:0:
448,120,101916,1,0,0:0:0:0:
496,196,102357,6,0,L|508:356,2,150,2|8|0,0:0|0:0|0:0,0:0:0:0:
448,120,104563,1,0,0:0:0:0:
476,36,105005,1,8,0:0:0:0:
256,192,105887,12,2,109416,0:0:0:0:
48,216,118240,6,0,P|12:280|164:284,1,300,2|4,0:0|0:0,0:0:0:0:
140,208,120446,5,0,0:0:0:0:
216,156,120887,2,0,L|296:148,1,75,8|0,0:0|0:0,0:0:0:0:
376,180,121769,2,0,P|424:176|472:148,1,75
448,76,122652,2,0,P|412:63|375:61,1,75,8|0,0:0|0:0,0:0:0:0:
300,112,123534,6,0,P|276:160|308:256,1,150,2|8,0:0|0:0,0:0:0:0:
376,300,124857,1,0,0:0:0:0:
296,340,125299,2,0,L|140:352,1,150,0|8,0:0|0:0,0:0:0:0:
52,200,127063,6,0,L|130:206,1,75,2|0,0:0|0:0,0:0:0:0:
192,144,127946,2,0,P|208:80|192:20,2,112.5,8|0|0,0:0|0:0|0:0,0:0:0:0:
126,205,129710,2,0,P|124:244|136:280,1,75,8|0,0:0|0:0,0:0:0:0:
200,340,130593,6,0,L|372:348,1,150,2|8,0:0|0:0,0:0:0:0:
424,300,131916,1,0,0:0:0:0:
496,352,132357,1,0,0:0:0:0:
496,352,134122,6,0,L|508:248,1,75,4|0,0:0|0:0,0:0:0:0:
464,196,135005,2,0,L|452:92,1,75,8|0,0:0|0:0,0:0:0:0:
380,72,135887,2,0,B|332:76|332:76|277:60|277:60|216:68,1,150,0|8,0:0|0:0,0:0:0:0:
64,132,137652,6,0,L|56:284,1,150,2|8,0:0|0:0,0:0:0:0:
88,368,138975,1,0,0:0:0:0:
168,324,139416,2,0,P|208:316|248:320,1,75
324,360,140299,1,8,0:0:0:0:
368,284,140740,1,0,0:0:0:0:
288,240,141181,6,0,P|280:172|320:104,1,150,2|8,0:0|0:0,0:0:0:0:
396,56,142505,1,0,0:0:0:0:
316,16,142946,2,0,L|152:36,1,150,0|8,0:0|0:0,0:0:0:0:
56,176,144710,6,0,L|220:196,1,150,2|8,0:0|0:0,0:0:0:0:
292,168,146034,1,0,0:0:0:0:
364,224,146475,2,0,P|368:268|356:304,1,75
292,356,147357,2,0,B|252:364|252:364|204:356,1,75,8|0,0:0|0:0,0:0:0:0:
140,312,148240,5,4,0:0:0:0:
56,348,148681,1,0,0:0:0:0:
8,272,149122,2,0,L|0:112,1,150,8|0,0:0|0:0,0:0:0:0:
36,40,150446,1,0,0:0:0:0:
104,100,150887,2,0,P|148:104|196:84,1,75,8|0,0:0|0:0,0:0:0:0:
260,68,151769,6,0,L|420:60,1,150,2|8,0:0|0:0,0:0:0:0:
468,232,153534,2,0,L|308:224,1,150,0|8,0:0|0:0,0:0:0:0:
276,48,155299,6,0,L|436:40,1,150,2|8,0:0|0:0,0:0:0:0:
508,80,156622,1,0,0:0:0:0:
432,132,157063,2,0,P|424:168|436:216,1,75
504,260,157946,2,0,P|512:296|500:344,1,75,8|0,0:0|0:0,0:0:0:0:
420,364,158828,5,2,0:0:0:0:
340,324,159269,1,0,0:0:0:0:
256,352,159710,2,0,L|92:360,2,150,8|0|8,0:0|0:0|0:0,0:0:0:0:
340,324,161916,1,0,0:0:0:0:
272,264,162357,6,0,P|264:228|276:180,1,75,4|0,0:0|0:0,0:0:0:0:
328,120,163240,2,0,P|326:83|302:39,1,75,8|0,0:0|0:0,0:0:0:0:
224,24,164122,2,0,L|124:32,1,75
76,80,165005,2,0,B|64:116|64:116|72:160,1,75,8|0,0:0|0:0,0:0:0:0:
132,220,165887,6,0,P|152:268|136:372,2,150,2|8|0,0:0|0:0|0:0,0:0:0:0:
70,152,168093,2,0,P|66:116|74:72,2,75,0|8|0,0:0|0:0|0:0,0:0:0:0:
132,220,169416,6,0,L|304:208,1,150,2|8,0:0|0:0,0:0:0:0:
356,160,170740,1,0,0:0:0:0:
412,228,171181,2,0,P|420:272|408:316,1,75
340,352,172063,1,8,0:0:0:0:
256,324,172505,1,0,0:0:0:0:
172,360,172946,6,0,B|132:366|132:366|88:360,1,75,2|0,0:0|0:0,0:0:0:0:
20,316,173828,2,0,P|12:260|24:224,1,75,8|0,0:0|0:0,0:0:0:0:
84,184,174710,2,0,L|164:196,1,75
240,156,175593,2,0,P|240:100|228:72,1,75,8|0,0:0|0:0,0:0:0:0:
164,24,176475,1,4,0:0:0:0:
164,24,183534,6,0,B|236:40|236:40|388:24,1,225,2|0,0:0|0:0,0:0:0:0:
472,56,185299,2,0,B|496:112|456:172|456:172|496:228|468:292,1,225,2|0,0:0|0:0,0:0:0:0:
428,348,187063,6,0,B|352:360|352:360|280:340|280:340|200:352,1,225,2|0,0:0|0:0,0:0:0:0:
128,308,188828,2,0,P|152:180|204:288,1,300,2|4,0:0|0:0,0:0:0:0:
256,192,190813,12,0,194122,0:0:0:0:
