osu file format v14

[General]
AudioFilename: Owl City - Beautiful Times (featuring Lindsey Stirling).mp3
AudioLeadIn: 2000
PreviewTime: 77652
Countdown: 0
SampleSet: Soft
StackLeniency: 0.4
Mode: 0
LetterboxInBreaks: 0
WidescreenStoryboard: 1

[Editor]
DistanceSpacing: 1.2
BeatDivisor: 8
GridSize: 4
TimelineZoom: 1.2

[Metadata]
Title:Beautiful Times (feat. Lindsey Stirling)
TitleUnicode:Beautiful Times (feat. Lindsey Stirling)
Artist:Owl City
ArtistUnicode:Owl City
Creator:HootOwlStar
Version:6006's Light Insane
Source:
Tags:Adam Young June 27 Ultraviolet EP Fort Gray Veyron Cerulean orza6006 VINXIS Mishima Yurara jinhang_ang Arcubin
BeatmapID:659319
BeatmapSetID:172788

[Difficulty]
HPDrainRate:5.5
CircleSize:4
OverallDifficulty:6.5
ApproachRate:7.5
SliderMultiplier:3.2
SliderTickRate:2

[Events]
//Background and Video events
0,0,"owl_city_by_chadatbethel.jpg",0,0
Video,0,"Owl City - Beautiful Times ft Lindsey Stirling.avi"
//Break Periods
2,109616,118959
//Storyboard Layer 0 (Background)
//Storyboard Layer 1 (Fail)
//Storyboard Layer 2 (Pass)
//Storyboard Layer 3 (Foreground)
//Storyboard Sound Samples

[TimingPoints]
5,882.352941176471,4,2,1,70,1,0
61769,-133.333333333333,4,2,1,70,0,0
63534,-100,4,2,1,70,0,0
77652,-100,4,2,1,70,0,1
91549,-100,4,2,1,70,0,0
91769,-100,4,2,1,70,0,1
105887,-100,4,2,1,20,0,0
120005,-100,4,2,1,70,0,0
148240,-100,4,2,1,70,0,1
162137,-100,4,2,1,70,0,0
162357,-100,4,2,1,70,0,1
176475,-100,4,2,1,70,0,0
183534,-100,4,2,1,70,0,0
190593,-100,4,2,1,20,0,0

[Colours]
Combo1 : 217,0,0
Combo2 : 169,83,255
Combo3 : 0,128,255
Combo4 : 1,228,200
Combo5 : 190,252,3
Combo6 : 251,255,98
Combo7 : 255,211,79
Combo8 : 253,108,2

[HitObjects]
88,208,7063,5,4,0:0:0:0:
148,132,7284,1,0,0:0:0:0:
183,221,7505,2,0,P|252:262|325:234,1,160,0|2,0:0|0:0,0:0:0:0:
352,144,8166,2,0,L|372:66,1,80
468,52,8607,2,0,L|426:206,1,160
396,296,9269,2,0,B|356:312|316:296|316:296|276:280|236:296,1,160,0|2,0:0|0:0,0:0:0:0:
148,328,9931,1,0,0:0:0:0:
100,244,10152,1,0,0:0:0:0:
28,183,10372,6,0,P|97:149|168:181,1,160
252,228,11034,2,0,L|268:148,1,80
344,56,11475,2,0,L|360:136,2,80,2|0|0,0:0|0:0|0:0,0:0:0:0:
248,40,12137,2,0,B|208:32|176:56|176:56|140:32|96:40,1,160
16,92,12799,1,0,0:0:0:0:
84,160,13019,2,0,P|117:241|81:306,1,160
24,232,13681,1,2,0:0:0:0:
84,160,13902,1,0,0:0:0:0:
176,132,14122,6,0,L|336:148,1,160
432,156,14784,1,0,0:0:0:0:
488,76,15005,2,0,P|496:36|484:0,2,80,2|0|0,0:0|0:0|0:0,0:0:0:0:
432,156,15666,2,0,P|400:232|420:308,1,160
496,360,16328,1,0,0:0:0:0:
312,300,16769,2,0,L|296:216,2,80,2|0|0,0:0|0:0|0:0,0:0:0:0:
228,348,17431,6,0,B|172:352|172:352|129:324|129:324|77:329,1,160
104,236,18093,2,0,B|155:231|155:231|198:259|198:259|254:254,1,160,0|2,0:0|0:0,0:0:0:0:
332,196,18755,2,0,P|336:156|320:112,1,80
244,68,19196,1,0,0:0:0:0:
156,108,19416,2,0,L|144:188,1,80
244,244,19857,2,0,L|232:164,1,80
244,68,20299,2,0,P|284:56|324:60,1,80,2|0,0:0|0:0,0:0:0:0:
384,132,20740,2,0,P|344:144|304:140,1,80
244,68,21181,5,4,0:0:0:0:
436,64,21622,2,0,P|469:138|432:203,1,160,0|2,0:0|0:0,0:0:0:0:
344,232,22284,2,0,P|304:256|284:284,1,80
372,324,22725,1,0,0:0:0:0:
437,254,22946,2,0,L|429:173,1,80
360,72,23387,2,0,L|352:152,1,80
257,145,23828,2,0,B|263:65|263:65|216:57|200:15,1,160,2|0,0:0|0:0,0:0:0:0:
133,87,24490,1,0,0:0:0:0:
50,37,24710,6,0,P|37:78|40:115,1,80
108,184,25152,2,0,P|188:173|246:224,1,160,0|2,0:0|0:0,0:0:0:0:
160,264,25813,1,0,0:0:0:0:
108,184,26034,1,0,0:0:0:0:
133,87,26255,2,0,B|184:76|236:100|236:100|252:72|288:64,1,160
368,92,26916,2,0,P|352:124|314:153,1,80
369,232,27357,2,0,P|428:178|458:103,1,160,2|0,0:0|0:0,0:0:0:0:
272,52,28240,6,0,B|152:56|152:56|192:72,1,160,4|0,0:0|0:0,0:0:0:0:
240,152,28902,1,0,0:0:0:0:
180,228,29122,2,0,P|144:252|96:256,1,80,8|0,0:0|0:0,0:0:0:0:
112,160,29563,1,0,0:0:0:0:
180,228,29784,2,0,L|204:306,1,80
196,140,30225,1,0,0:0:0:0:
256,212,30446,2,0,L|280:290,1,80
360,340,30887,2,0,B|416:304|468:336|468:336|464:288,1,160,8|0,0:0|0:0,0:0:0:0:
400,180,31549,1,0,0:0:0:0:
324,124,31769,6,0,P|308:164|312:208,1,80,2|0,0:0|0:0,0:0:0:0:
476,236,32210,2,0,P|492:196|488:152,1,80
400,84,32652,2,0,L|240:92,1,160,8|0,0:0|0:0,0:0:0:0:
144,96,33313,1,0,0:0:0:0:
92,180,33534,2,0,P|80:220|80:260,1,80
172,328,33975,2,0,P|184:288|184:248,1,80
80,258,34416,2,0,L|-4:262,1,80,8|0,0:0|0:0,0:0:0:0:
184,250,34857,2,0,L|263:246,1,80,0|0,0:0|3:0,0:0:0:0:
280,272,35188,1,0,3:0:0:0:
280,272,35299,6,0,P|320:256|356:256,1,80,4|0,0:0|0:0,0:0:0:0:
440,276,35740,1,0,0:0:0:0:
440,276,36181,2,0,P|420:192|444:120,1,160,8|0,0:0|0:0,0:0:0:0:
388,44,36843,2,0,B|348:60|308:44|308:44|272:28|228:44,1,160
112,116,37505,2,0,B|152:100|192:116|192:116|228:132|272:116,1,160,0|8,0:0|0:0,0:0:0:0:
280,212,38166,2,0,P|240:220|200:216,1,80
104,220,38607,6,0,B|56:236|56:300|56:300|116:292,1,160
208,308,39269,2,0,L|288:320,1,80,2|0,0:0|0:0,0:0:0:0:
384,328,39710,2,0,P|416:252|392:176,1,160,8|0,0:0|0:0,0:0:0:0:
304,152,40372,2,0,P|380:144|422:76,1,160
332,64,41034,1,0,0:0:0:0:
240,92,41255,2,0,P|218:129|218:166,1,80,0|8,0:0|0:0,0:0:0:0:
281,225,41696,2,0,P|302:191|304:152,1,80
240,92,42137,1,0,0:0:0:0:
148,68,42357,5,2,0:0:0:0:
56,96,42578,1,0,0:0:0:0:
128,160,42799,2,0,L|116:244,1,80
148,68,43240,1,8,0:0:0:0:
56,96,43460,2,0,L|44:180,1,80
40,280,43902,2,0,P|98:324|178:301,1,160
336,300,44563,2,0,L|416:316,1,80
388,224,45005,1,8,0:0:0:0:
292,232,45225,2,0,P|260:268|256:312,1,80
196,220,45666,6,0,P|256:164|332:148,1,160
388,224,46328,2,0,P|360:148|404:80,1,160,2|8,0:0|0:0,0:0:0:0:
488,156,46990,2,0,L|472:240,1,80
448,328,47431,2,0,B|400:332|400:332|348:292|348:292|300:296,1,160
160,352,48093,1,0,0:0:0:0:
160,352,48313,2,0,B|232:340|232:340|208:296|232:256,1,160
300,192,48975,2,0,L|384:180,1,80
396,180,49306,1,0,0:0:0:0:
396,180,49416,6,0,P|380:136|388:96,1,80,4|0,0:0|0:0,0:0:0:0:
460,44,49857,2,0,P|384:72|312:48,1,160,0|8,0:0|0:0,0:0:0:0:
169,45,50519,1,0,0:0:0:0:
168,128,50740,1,0,0:0:0:0:
240,88,50960,2,0,P|240:168|169:210,1,160
168,128,51622,2,0,L|92:100,1,80
100,208,52063,2,0,P|180:236|192:304,1,160,8|0,0:0|0:0,0:0:0:0:
192,302,52946,5,2,0:0:0:0:
272,252,53166,1,0,0:0:0:0:
354,302,53387,2,0,P|426:262|446:190,1,160,0|8,0:0|0:0,0:0:0:0:
388,112,54049,1,0,0:0:0:0:
344,200,54269,1,0,0:0:0:0:
292,120,54490,2,0,B|248:116|248:116|200:160|200:160|149:155,1,160
56,180,55152,2,0,P|36:216|36:256,1,80
132,240,55593,2,0,P|200:288|180:352,1,160,8|0,0:0|0:0,0:0:0:0:
180,351,56475,5,2,0:0:0:0:
88,324,56696,1,0,0:0:0:0:
132,240,56916,2,0,P|188:184|264:192,1,160,0|8,0:0|0:0,0:0:0:0:
340,248,57578,1,0,0:0:0:0:
316,124,57799,1,0,0:0:0:0:
268,280,58019,2,0,P|331:327|403:296,1,160
392,188,58681,2,0,P|403:110|474:78,1,160,0|8,0:0|0:0,0:0:0:0:
469,161,59343,1,0,0:0:0:0:
344,56,59563,1,0,0:0:0:0:
308,144,59784,6,0,P|320:228|368:292,1,160
388,116,60446,2,0,L|228:124,1,160,2|8,0:0|0:0,0:0:0:0:
132,128,61107,2,0,P|120:168|128:204,1,80
188,280,61549,1,0,3:0:0:0:
188,280,61659,1,0,3:0:0:0:
188,280,61769,6,0,B|280:296|320:208|320:208|356:220|400:204,2,240.000009155274,0|0|4,0:0|0:0|0:0,0:0:0:0:
160,20,63975,6,0,P|199:27|233:48,1,80
280,132,64416,2,0,P|312:152|360:160,1,80,8|0,0:0|0:0,0:0:0:0:
448,164,64857,2,0,L|432:324,1,160
340,352,65519,1,0,0:0:0:0:
252,312,65740,1,0,0:0:0:0:
168,356,65960,2,0,B|156:316|168:276|168:276|180:236|168:196,1,160
72,200,66622,2,0,P|76:240|64:280,1,80
20,135,67063,6,0,P|56:119|95:120,1,80,2|0,0:0|0:0,0:0:0:0:
164,192,67505,2,0,P|248:192|320:152,2,160,0|8|0,0:0|0:0|0:0,0:0:0:0:
96,121,68607,1,0,0:0:0:0:
68,215,68828,1,0,0:0:0:0:
136,286,69049,1,0,0:0:0:0:
232,263,69269,1,0,0:0:0:0:
164,192,69490,1,0,0:0:0:0:
68,215,69710,2,0,P|40:296|72:360,1,160,8|0,0:0|0:0,0:0:0:0:
232,263,70593,6,0,P|299:245|371:296,1,160,2|0,0:0|0:0,0:0:0:0:
288,340,71255,1,0,0:0:0:0:
288,340,71475,2,0,L|312:178,1,160,8|0,0:0|0:0,0:0:0:0:
380,112,72137,1,0,0:0:0:0:
452,176,72357,2,0,P|460:216|452:256,2,80
380,112,73019,2,0,L|212:144,1,160
126,144,73681,2,0,P|110:104|110:64,1,80
176,208,74122,6,0,L|168:288,1,80,2|0,0:0|0:0,0:0:0:0:
160,384,74563,2,0,B|226:385|253:333|253:333|312:344,1,160,0|8,0:0|0:0,0:0:0:0:
396,340,75225,1,0,0:0:0:0:
484,300,75446,2,0,P|488:256|480:220,1,80
392,184,75887,2,0,P|388:228|396:264,2,80
388,88,76549,1,0,0:0:0:0:
292,104,76769,2,0,P|248:108|212:100,1,80,8|0,0:0|0:0,0:0:0:0:
124,60,77210,1,0,0:0:0:0:
68,140,77431,1,0,3:0:0:0:
68,140,77541,1,0,3:0:0:0:
68,140,77652,6,0,P|44:224|64:296,1,160,4|0,0:0|0:0,0:0:0:0:
148,336,78313,1,0,0:0:0:0:
232,288,78534,2,0,B|272:260|312:276|312:276|300:316|320:356,1,160,8|0,0:0|0:0,0:0:0:0:
404,308,79196,1,0,0:0:0:0:
448,224,79416,2,0,P|460:184|460:144,1,80
344,76,79857,2,0,P|332:116|332:156,1,80
424,48,80299,2,0,B|264:56|264:56|248:96|248:136,1,240,8|0,0:0|0:0,0:0:0:0:
280,224,81181,6,0,P|288:296|224:344,1,160,2|0,0:0|0:0,0:0:0:0:
132,316,81843,1,0,0:0:0:0:
44,348,82063,2,0,B|28:256|112:224|112:224|140:144,1,240,8|0,0:0|0:0,0:0:0:0:
96,60,82946,2,0,P|156:112|248:112,1,160,2|0,0:0|0:0,0:0:0:0:
324,88,83607,1,0,0:0:0:0:
416,56,83828,2,0,B|436:144|355:181|355:181|312:204|324:256,1,240,8|0,0:0|0:0,0:0:0:0:
412,292,84710,6,0,L|248:304,1,160,2|0,0:0|0:0,0:0:0:0:
148,308,85372,1,0,0:0:0:0:
88,232,85593,2,0,P|74:187|80:152,1,80,8|0,0:0|0:0,0:0:0:0:
202,46,86034,2,0,P|218:122|172:184,1,160
88,232,86696,1,0,0:0:0:0:
88,135,86916,1,0,0:0:0:0:
172,280,87137,2,0,P|236:248|292:172,1,160
296,20,87799,2,0,P|288:60|300:104,1,80
372,156,88240,6,0,L|452:168,1,80,2|0,0:0|0:0,0:0:0:0:
404,252,88681,2,0,L|324:240,1,80
420,340,89122,2,0,L|259:316,1,160,8|0,0:0|0:0,0:0:0:0:
172,276,89784,1,0,0:0:0:0:
120,196,90005,2,0,P|112:156|120:108,2,80
172,276,90666,1,0,0:0:0:0:
236,128,90887,1,8,0:0:0:0:
352,178,91107,1,0,0:0:0:0:
262,231,91328,1,0,0:0:0:0:
304,80,91549,1,0,3:0:0:0:
304,80,91659,1,0,3:0:0:0:
304,80,91769,6,0,B|341:132|341:132|336:183|336:183|370:225|349:284|349:284|417:286|428:353,2,320
160,208,93975,1,0,0:0:0:0:
232,144,94196,1,0,0:0:0:0:
252,239,94416,2,0,P|296:248|332:240,1,80,8|0,0:0|0:0,0:0:0:0:
356,148,94857,2,0,P|395:140|433:149,1,80
488,228,95299,6,0,L|476:68,1,160,2|0,0:0|0:0,0:0:0:0:
380,52,95960,1,0,0:0:0:0:
284,84,96181,2,0,L|296:244,1,160,8|0,0:0|0:0,0:0:0:0:
252,328,96843,1,0,0:0:0:0:
164,292,97063,2,0,P|120:288|84:296,1,80
12,232,97505,2,0,P|4:188|8:152,1,80
160,32,97946,1,8,0:0:0:0:
192,148,98166,1,0,0:0:0:0:
60,40,98387,1,0,0:0:0:0:
246,88,98607,1,0,3:0:0:0:
246,88,98718,1,0,3:0:0:0:
246,88,98828,6,0,P|324:112|400:84,1,160,2|0,0:0|0:0,0:0:0:0:
464,20,99490,1,0,0:0:0:0:
396,88,99710,2,0,B|380:128|396:164|396:164|416:204|396:244,1,160,8|0,0:0|0:0,0:0:0:0:
312,288,100372,1,0,0:0:0:0:
224,248,100593,2,0,P|184:248|147:266,2,80
204,344,101255,2,0,P|80:332|60:232,1,240
284,88,102357,6,0,B|332:88|332:88|372:36|372:36|424:36,1,160,2|0,0:0|0:0,0:0:0:0:
500,88,103019,1,0,0:0:0:0:
412,128,103240,2,0,P|400:168|408:208,1,80,8|0,0:0|0:0,0:0:0:0:
348,344,103681,2,0,P|360:304|352:264,1,80
264,300,104122,1,0,0:0:0:0:
204,224,104343,1,0,0:0:0:0:
300,210,104563,1,0,0:0:0:0:
264,300,104784,2,0,P|184:320|120:272,1,160
84,192,105446,1,0,0:0:0:0:
256,192,105887,12,2,109416,0:0:0:0:
152,96,119784,5,0,3:0:0:0:
152,96,119894,1,0,3:0:0:0:
152,96,120005,6,0,P|144:136|152:180,1,80,4|0,0:0|0:0,0:0:0:0:
224,236,120446,2,0,L|384:248,1,160,0|8,0:0|0:0,0:0:0:0:
468,296,121107,2,0,P|480:256|476:216,1,80
400,156,121549,2,0,L|240:144,1,160
192,60,122210,2,0,L|272:48,1,80
116,52,122652,2,0,B|115:102|152:125|152:125|143:160|167:196,1,160,8|0,0:0|0:0,0:0:0:0:
248,244,123313,1,0,0:0:0:0:
344,236,123534,6,0,P|384:244|412:276,1,80,2|0,0:0|0:0,0:0:0:0:
447,359,123975,2,0,L|471:195,1,160,0|8,0:0|0:0,0:0:0:0:
396,140,124637,1,0,0:0:0:0:
488,106,124857,1,0,0:0:0:0:
412,43,125078,2,0,P|334:65|298:131,1,160
340,292,125740,2,0,P|348:252|336:216,1,80
240,196,126181,2,0,B|200:180|164:196|164:196|124:212|84:196,1,160,8|0,0:0|0:0,0:0:0:0:
64,44,127063,5,2,0:0:0:0:
124,120,127284,1,0,0:0:0:0:
159,30,127505,2,0,P|196:58|214:92,1,80
286,26,127946,2,0,P|312:100|316:185,1,160,8|0,0:0|0:0,0:0:0:0:
244,244,128607,2,0,B|320:216|320:216|356:245|401:239,1,160
384,144,129269,2,0,P|364:100|448:100,1,160,0|8,0:0|0:0,0:0:0:0:
480,180,129931,1,0,0:0:0:0:
472,276,130152,1,0,0:0:0:0:
408,348,130372,6,0,B|384:332|384:332|364:348|364:348|320:312|260:336,1,160
176,300,131034,2,0,P|164:260|172:216,1,80
251,172,131475,2,0,P|175:196|115:148,1,160,8|0,0:0|0:0,0:0:0:0:
120,48,132137,2,0,L|126:18,3,26.6666666666667
120,48,134122,6,0,P|190:21|264:70,1,160,4|0,0:0|0:0,0:0:0:0:
184,116,134784,1,0,0:0:0:0:
272,156,135005,2,0,P|312:140|340:112,1,80,8|0,0:0|0:0,0:0:0:0:
184,116,135446,2,0,P|188:200|244:248,1,160
272,156,136107,1,0,0:0:0:0:
262,59,136328,1,0,0:0:0:0:
184,116,136549,2,0,P|108:140|40:96,1,160
120,48,137210,2,0,P|155:26|196:23,1,80
272,156,137652,5,2,0:0:0:0:
272,156,138093,2,0,P|304:138|351:134,1,80
488,264,138534,2,0,L|333:222,1,160,8|0,0:0|0:0,0:0:0:0:
240,248,139196,1,0,0:0:0:0:
176,176,139416,2,0,P|177:129|194:96,2,80
240,248,140078,1,0,0:0:0:0:
196,332,140299,2,0,L|116:340,1,80,8|0,0:0|0:0,0:0:0:0:
25,251,140740,2,0,L|105:243,1,80
176,176,141181,6,0,P|208:96|172:28,1,160,2|0,0:0|0:0,0:0:0:0:
112,104,141843,1,0,0:0:0:0:
19,84,142063,2,0,P|19:123|36:160,1,80,8|0,0:0|0:0,0:0:0:0:
112,104,142505,1,0,0:0:0:0:
176,176,142725,1,0,0:0:0:0:
272,164,142946,2,0,L|352:156,2,80
224,80,143607,2,0,L|384:64,1,160
480,56,144269,2,0,P|496:96|492:136,1,80
456,220,144710,6,0,P|453:259|469:296,1,80,2|0,0:0|0:0,0:0:0:0:
396,360,145152,2,0,P|362:338|323:333,1,80
304,238,145593,2,0,P|365:188|368:109,1,160,8|0,0:0|0:0,0:0:0:0:
280,144,146255,1,0,0:0:0:0:
208,208,146475,2,0,P|204:252|217:290,1,80
280,144,146916,2,0,P|248:120|210:111,1,80
124,152,147357,1,8,0:0:0:0:
132,56,147578,1,0,0:0:0:0:
208,208,147799,1,0,0:0:0:0:
284,56,148019,1,0,3:0:0:0:
284,56,148130,1,0,3:0:0:0:
284,56,148240,6,0,L|364:48,1,80,4|0,0:0|0:0,0:0:0:0:
420,144,148681,2,0,L|340:152,1,80
466,66,149122,2,0,B|454:234,1,160,8|0,0:0|0:0,0:0:0:0:
444,332,149784,1,0,0:0:0:0:
356,296,150005,2,0,P|316:288|276:296,1,80
200,348,150446,2,0,P|160:355|121:347,1,80
92,256,150887,2,0,B|140:188|108:104|108:104|148:124|188:116,1,240,8|0,0:0|0:0,0:0:0:0:
268,68,151769,6,0,P|216:128|240:208,1,160,2|0,0:0|0:0,0:0:0:0:
324,240,152431,1,0,0:0:0:0:
296,148,152652,2,0,P|360:112|444:124,1,160,8|0,0:0|0:0,0:0:0:0:
484,212,153313,1,0,0:0:0:0:
412,276,153534,2,0,L|400:356,1,80,2|0,0:0|0:0,0:0:0:0:
312,319,153975,2,0,L|324:239,1,80
244,184,154416,2,0,B|212:192|212:192|176:184|176:184|140:192|140:192|68:204|24:144,1,240,8|0,0:0|0:0,0:0:0:0:
96,52,155299,6,0,P|112:120|152:76,1,160,2|0,0:0|0:0,0:0:0:0:
240,40,155960,1,0,0:0:0:0:
304,112,156181,2,0,P|268:132|224:132,1,80,8|0,0:0|0:0,0:0:0:0:
334,20,156622,2,0,P|396:80|388:160,1,160
316,204,157284,1,0,0:0:0:0:
402,243,157505,1,0,0:0:0:0:
248,256,157725,2,0,P|232:214|236:176,1,80,0|8,0:0|0:0,0:0:0:0:
327,288,158166,1,0,0:0:0:0:
327,288,158387,2,0,P|304:320|264:340,1,80
132,292,158828,6,0,L|160:132,1,160,2|0,0:0|0:0,0:0:0:0:
224,64,159490,1,0,0:0:0:0:
304,116,159710,2,0,P|344:128|384:120,1,80,8|0,0:0|0:0,0:0:0:0:
426,36,160152,2,0,P|386:24|346:32,1,80
324,208,160593,1,0,0:0:0:0:
304,116,160813,1,0,0:0:0:0:
416,232,161034,2,0,P|448:217|478:185,1,80
396,140,161475,1,8,0:0:0:0:
340,304,161696,1,0,0:0:0:0:
304,116,161916,1,0,0:0:0:0:
232,184,162137,1,0,3:0:0:0:
232,184,162247,1,0,3:0:0:0:
232,184,162357,6,0,P|189:178|152:188,1,80,4|0,0:0|0:0,0:0:0:0:
116,276,162799,2,0,P|159:282|196:272,1,80
232,184,163240,2,0,P|256:108|220:36,1,160,8|0,0:0|0:0,0:0:0:0:
132,68,163902,1,0,0:0:0:0:
64,136,164122,2,0,B|64:216|64:216|32:252|40:292,1,160
112,356,164784,1,0,0:0:0:0:
204,324,165005,2,0,B|260:304|316:324|316:324|380:352|440:324,1,240,8|0,0:0|0:0,0:0:0:0:
456,232,165887,6,0,P|440:152|472:80,1,160,2|0,0:0|0:0,0:0:0:0:
408,8,166549,1,0,0:0:0:0:
320,48,166769,2,0,B|280:64|256:96|256:96|232:64|192:48,1,160,8|0,0:0|0:0,0:0:0:0:
100,36,167431,1,0,0:0:0:0:
56,120,167652,2,0,P|48:160|52:200,1,80,2|0,0:0|0:0,0:0:0:0:
108,276,168093,1,0,0:0:0:0:
68,364,168313,1,0,0:0:0:0:
165,354,168534,2,0,B|224:304|192:228|192:228|168:172|184:128,1,240,8|0,0:0|0:0,0:0:0:0:
208,36,169416,6,0,B|288:32|288:32|264:64|276:116,1,160,2|0,0:0|0:0,0:0:0:0:
320,192,170078,1,0,0:0:0:0:
414,175,170299,2,0,P|398:137|367:108,1,80,8|0,0:0|0:0,0:0:0:0:
320,192,170740,2,0,P|364:256|444:266,1,160
414,175,171402,1,0,0:0:0:0:
456,88,171622,2,0,P|414:79|374:86,1,80
284,108,172063,2,0,P|200:104|128:68,1,160,8|0,0:0|0:0,0:0:0:0:
60,8,172725,1,0,0:0:0:0:
44,104,172946,6,0,P|36:148|44:188,1,80,2|0,0:0|0:0,0:0:0:0:
128,224,173387,2,0,P|136:180|128:140,1,80
56,264,173828,2,0,P|126:307|196:272,1,160,8|0,0:0|0:0,0:0:0:0:
252,200,174490,1,0,0:0:0:0:
336,152,174710,2,0,P|376:144|420:152,1,80
464,232,175152,2,0,P|424:240|380:232,1,80
336,152,175593,2,0,L|328:72,1,80,8|0,0:0|0:0,0:0:0:0:
464,232,176034,2,0,L|472:312,1,80
452,336,176365,1,0,0:0:0:0:
452,336,176475,6,0,L|364:328,1,80,4|0,0:0|0:0,0:0:0:0:
300,264,176916,2,0,P|284:184|312:108,1,160,0|2,0:0|0:0,0:0:0:0:
400,80,177578,2,0,P|373:40|340:21,1,80
376,164,178019,2,0,P|448:152|487:78,1,160
400,80,178681,1,0,0:0:0:0:
192,92,179122,2,0,L|112:84,2,80,2|0|0,0:0|0:0|0:0,0:0:0:0:
252,168,179784,6,0,P|276:244|248:320,1,160
156,312,180446,2,0,P|132:236|160:160,1,160,0|2,0:0|0:0,0:0:0:0:
252,168,181107,2,0,L|332:172,1,80
380,256,181549,2,0,L|216:248,1,160
124,244,182210,1,0,0:0:0:0:
28,232,182431,2,0,P|72:164|146:149,1,160
124,244,183093,2,0,P|112:284|84:312,1,80,2|0,0:0|0:0,0:0:0:0:
0,352,183534,6,0,P|80:336|152:364,1,160,2|0,0:0|0:0,0:0:0:0:
244,344,184196,1,0,0:0:0:0:
264,252,184416,2,0,L|280:172,2,80,2|0|0,0:0|0:0|0:0,0:0:0:0:
336,316,185078,2,0,B|420:304|420:304|448:332|492:328,1,160
484,232,185740,2,0,P|460:156|484:80,1,160,0|2,0:0|0:0,0:0:0:0:
428,0,186402,2,0,L|348:16,1,80
376,108,186843,6,0,L|216:92,1,160
148,24,187505,2,0,P|120:104|160:172,1,160,0|2,0:0|0:0,0:0:0:0:
244,196,188166,2,0,P|224:232|191:255,1,80
220,348,188607,1,0,0:0:0:0:
296,288,188828,6,0,P|332:216|336:136,1,160,2|0,0:0|0:0,0:0:0:0:
316,44,189490,1,0,0:0:0:0:
412,52,189710,2,0,P|441:125|439:205,1,160,2|0,0:0|0:0,0:0:0:0:
409,295,190372,1,0,0:0:0:0:
256,192,190593,1,4,0:0:0:0:
256,192,190703,12,0,194122,0:0:0:0:
