osu file format v14

[General]
AudioFilename: audio.mp3
AudioLeadIn: 0
PreviewTime: 134212
Countdown: 1
SampleSet: None
StackLeniency: 0.7
Mode: 0
LetterboxInBreaks: 0
WidescreenStoryboard: 1

[Editor]
DistanceSpacing: 1
BeatDivisor: 4
GridSize: 8
TimelineZoom: 1.3

[Metadata]
Title:Anderutse
TitleUnicode:アンデルツェ
Artist:Owata-P
ArtistUnicode:Owata-P
Creator:Swerro
Version:Sunberujan
Source:
Tags:megurine luka 善 Happy Saturday Festival Bonus \(^o^)/
BeatmapID:2714642
BeatmapSetID:838635

[Difficulty]
HPDrainRate:5
CircleSize:5
OverallDifficulty:8
ApproachRate:8
SliderMultiplier:1.4
SliderTickRate:1

[Events]
//Background and Video events
0,0,"6965193-snowstorm-art.jpg",0,0
//Break Periods
2,89212,102862
2,165911,169462
2,235912,242362
//Storyboard Layer 0 (Background)
//Storyboard Layer 1 (Fail)
//Storyboard Layer 2 (Pass)
//Storyboard Layer 3 (Foreground)
//Storyboard Layer 4 (Overlay)
//Storyboard Sound Samples

[TimingPoints]
1912,300,3,2,0,30,1,0
1912,-200,3,2,3,30,0,0
16312,-200,3,2,3,40,0,0
30712,-200,3,2,3,50,0,0
44212,-100,3,2,4,40,0,0
45112,-100,3,2,4,70,0,0
73912,-100,3,2,4,60,0,0
88312,-100,3,2,4,40,0,0
89212,-100,3,2,4,70,0,0
103612,-100,3,2,4,60,0,0
118012,-100,3,2,4,40,0,0
118912,-100,3,2,4,60,0,0
133312,-100,3,2,4,40,0,0
134212,-100,3,2,4,80,0,1
165712,-100,3,2,4,70,0,0
191812,-100,3,2,4,60,0,0
206212,-100,3,2,4,70,0,0
220612,-100,3,2,4,80,0,1
235012,-100,3,2,4,40,0,0
235912,-100,3,2,4,60,0,0
252112,-80,3,2,4,80,0,1
280912,-100,3,2,4,70,0,0
295312,-100,3,2,4,40,0,0
296212,-100,3,2,4,80,0,1
310612,-100,3,2,4,70,0,0
338512,-100,3,2,4,70,0,0

[HitObjects]
52,23,1912,6,0,P|33:128|29:238,1,210,6|2,2:2|2:2,2:2:0:0:
226,247,3112,1,0,2:2:0:0:
115,214,3712,1,2,2:2:0:0:
111,231,4012,1,0,2:2:0:0:
136,79,4612,1,2,2:2:0:0:
139,96,4912,1,0,2:2:0:0:
432,345,5512,6,0,P|454:247|455:130,1,210,6|2,2:2|2:2,2:2:0:0:
423,54,6712,1,0,2:2:0:0:
353,45,7012,1,0,2:2:0:0:
213,30,7312,2,0,P|250:30|295:35,2,70,2|0|0,2:2|2:2|2:2,2:2:0:0:
338,185,8212,2,0,P|337:163|339:111,1,70,2|0,2:2|2:2,2:2:0:0:
505,125,8812,1,0,1:2:0:0:
480,328,9112,5,4,1:1:0:0:
452,296,9412,1,0,2:2:0:0:
466,335,9712,1,0,2:2:0:0:
370,342,10012,5,2,2:2:0:0:
316,310,10312,1,0,2:2:0:0:
261,342,10612,1,0,2:2:0:0:
273,224,10912,2,0,P|313:222|352:225,2,70,2|0|0,2:2|2:2|2:2,2:2:0:0:
148,260,11812,1,2,2:2:0:0:
140,289,12112,1,0,2:2:0:0:
133,313,12412,1,0,2:2:0:0:
9,353,12712,6,0,P|2:313|-1:271,1,70,6|0,2:2|2:2,2:2:0:0:
92,109,13312,1,0,2:2:0:0:
28,197,13612,1,2,2:2:0:0:
55,205,13912,1,0,2:2:0:0:
83,215,14212,1,0,2:2:0:0:
176,144,14512,5,2,2:2:0:0:
204,176,14812,1,0,2:2:0:0:
190,137,15112,1,0,2:2:0:0:
185,296,15412,6,8,L|220:298,1,35,4|0,1:1|2:2,2:2:0:0:
135,273,15712,2,0,L|158:306,2,35,0|0|0,2:2|2:2|2:2,2:2:0:0:
344,279,16312,6,0,P|342:299|340:320,1,35,4|0,1:1|2:2,2:2:0:0:
343,38,16762,2,0,L|343:90,2,35,2|0|0,2:2|2:2|2:2,2:2:0:0:
280,16,17212,1,2,2:2:0:0:
276,120,17512,2,0,P|276:97|279:68,1,35,2|0,2:2|2:2,2:2:0:0:
282,361,17962,2,0,P|281:326|281:292,2,70,0|2|0,2:2|2:2|2:2,2:2:0:0:
147,356,18862,1,0,2:2:0:0:
107,346,19012,1,2,2:2:0:0:
68,334,19162,1,0,2:2:0:0:
236,213,19462,2,0,P|233:236|237:261,1,35,0|2,2:2|2:2,2:2:0:0:
13,224,19912,5,4,1:1:0:0:
29,233,20062,1,0,2:2:0:0:
41,50,20362,2,0,P|27:73|12:96,1,35,2|0,2:2|2:2,2:2:0:0:
103,56,20662,2,0,P|80:44|62:26,1,35,0|2,2:2|2:2,2:2:0:0:
218,27,21112,1,2,2:2:0:0:
229,19,21262,1,0,2:2:0:0:
177,131,21562,1,0,2:2:0:0:
296,65,21862,2,0,P|252:86|230:100,1,70,2|0,2:2|2:2,2:2:0:0:
84,189,22462,1,0,2:2:0:0:
99,188,22612,1,2,2:2:0:0:
115,188,22762,1,0,2:2:0:0:
304,138,23062,1,0,2:2:0:0:
298,179,23212,1,2,2:2:0:0:
497,114,23512,6,0,P|494:87|493:72,1,35,4|0,1:1|2:2,2:2:0:0:
386,171,23962,1,2,2:2:0:0:
402,178,24112,1,0,2:2:0:0:
420,184,24262,1,0,2:2:0:0:
436,190,24412,1,2,2:2:0:0:
345,336,24712,1,2,2:2:0:0:
345,352,24862,1,0,2:2:0:0:
201,358,25162,1,0,2:2:0:0:
111,293,25462,1,2,2:2:0:0:
200,212,25762,1,0,2:2:0:0:
307,287,26062,1,0,2:2:0:0:
290,287,26212,1,2,2:2:0:0:
274,288,26362,1,0,2:2:0:0:
205,128,26662,1,0,2:2:0:0:
204,146,26812,1,2,2:2:0:0:
54,264,27112,5,2,2:2:0:0:
41,250,27262,1,0,2:2:0:0:
23,119,27562,1,2,2:2:0:0:
27,87,27712,1,0,2:2:0:0:
55,106,27862,1,0,2:2:0:0:
47,133,28012,1,2,2:2:0:0:
188,187,28312,1,2,2:2:0:0:
164,170,28462,1,0,2:2:0:0:
271,28,28762,1,0,2:2:0:0:
313,194,29062,1,2,2:2:0:0:
241,120,29362,1,0,2:2:0:0:
412,82,29662,1,0,2:2:0:0:
376,88,29812,1,4,1:1:0:0:
383,127,29962,1,0,2:2:0:0:
446,210,30262,1,0,2:2:0:0:
495,208,30412,1,2,2:2:0:0:
275,292,30712,5,4,1:1:0:0:
227,283,30862,1,0,3:2:0:0:
277,272,31012,1,4,3:2:0:0:
145,248,31312,1,0,3:2:0:0:
303,214,31612,1,4,3:2:0:0:
123,162,31912,1,0,3:2:0:0:
172,162,32062,1,4,3:2:0:0:
129,141,32212,1,2,3:2:0:0:
244,148,32512,1,0,3:2:0:0:
2,88,32812,1,4,3:2:0:0:
17,95,32962,1,0,3:2:0:0:
32,99,33112,1,4,3:2:0:0:
140,1,33412,5,6,3:2:0:0:
346,46,33712,1,2,3:2:0:0:
315,117,34012,1,6,3:2:0:0:
227,276,34312,5,4,1:1:0:0:
227,325,34462,1,0,3:2:0:0:
224,199,34762,1,0,3:2:0:0:
205,80,35062,1,4,3:2:0:0:
214,126,35212,1,2,3:2:0:0:
222,80,35362,1,4,3:2:0:0:
270,368,35662,1,0,3:2:0:0:
391,384,35962,1,6,3:2:0:0:
459,356,36412,1,2,3:2:0:0:
331,268,36712,5,4,3:2:0:0:
285,268,36862,1,0,3:2:0:0:
445,311,37162,1,0,3:2:0:0:
450,261,37312,1,4,3:2:0:0:
464,308,37462,1,0,3:2:0:0:
327,369,37762,5,0,3:2:0:0:
311,375,37912,1,4,1:1:0:0:
297,334,38062,1,0,3:2:0:0:
294,375,38212,1,0,3:2:0:0:
278,375,38362,1,4,3:2:0:0:
263,369,38512,1,0,3:2:0:0:
78,305,38812,5,2,3:2:0:0:
73,278,38962,1,0,3:2:0:0:
105,251,39112,1,4,3:2:0:0:
70,250,39262,1,0,3:2:0:0:
73,222,39412,1,4,3:2:0:0:
293,189,39712,5,4,3:2:0:0:
309,231,39862,1,0,3:2:0:0:
276,267,40012,1,4,3:2:0:0:
131,81,40312,1,4,3:2:0:0:
174,75,40462,1,0,3:2:0:0:
176,300,40762,1,4,3:2:0:0:
135,288,40912,1,0,3:2:0:0:
40,149,41212,5,4,3:2:0:0:
63,114,41362,1,0,3:2:0:0:
61,68,41512,1,4,3:2:0:0:
96,91,41662,1,0,3:2:0:0:
99,138,41812,1,4,3:2:0:0:
142,150,41962,1,0,3:2:0:0:
157,107,42112,1,4,3:2:0:0:
454,240,42562,5,0,3:2:0:0:
474,198,42712,1,4,3:2:0:0:
433,224,42862,1,0,3:2:0:0:
83,372,43162,1,0,3:2:0:0:
54,371,43312,1,4,3:2:0:0:
46,86,44212,5,10,1:3:0:0:
46,86,44287,1,8,3:3:0:0:
46,86,44362,1,0,3:3:0:0:
128,92,44512,1,2,3:3:0:0:
124,9,44662,1,0,3:3:0:0:
44,9,44812,1,2,3:3:0:0:
363,272,45112,5,2,1:1:0:0:
181,286,45412,1,8,3:1:0:0:
9,347,45712,1,8,3:1:0:0:
348,295,46012,2,0,P|313:305|260:312,1,70,2|0,1:1|2:1,2:1:0:0:
165,296,46312,1,0,3:1:0:0:
375,288,46462,2,0,P|412:306|448:312,1,70,0|0,2:1|3:1,2:1:0:0:
18,248,46912,5,2,1:1:0:0:
18,248,47062,1,0,2:1:0:0:
87,280,47212,1,8,3:1:0:0:
372,237,47512,1,8,3:1:0:0:
148,177,47812,2,0,P|169:142|200:113,1,70,2|0,1:1|2:1,2:1:0:0:
266,21,48112,2,0,P|302:18|343:21,1,70,0|0,3:1|2:1,2:1:0:0:
492,186,48412,5,8,3:1:0:0:
364,217,48562,1,8,2:1:0:0:
493,257,48712,1,2,1:1:0:0:
493,257,48862,2,0,P|491:306|496:330,1,70,0|0,2:1|3:1,2:1:0:0:
112,227,49312,2,0,P|143:224|189:224,1,70,8|0,3:1|2:1,2:1:0:0:
330,283,49612,2,0,P|291:289|240:290,1,70,2|0,1:1|2:1,2:1:0:0:
119,292,49912,1,8,3:1:0:0:
118,359,50062,1,0,2:1:0:0:
292,362,50212,6,0,P|292:315|287:286,1,70,2|0,3:1|2:1,2:1:0:0:
141,111,50512,1,2,1:1:0:0:
267,110,50662,1,2,2:1:0:0:
394,83,50812,2,0,P|400:51|394:-2,1,70,8|0,3:1|2:1,2:1:0:0:
259,6,51112,1,8,3:1:0:0:
93,361,51412,2,0,P|45:257|9:95,1,280,2|8,1:1|3:1,2:1:0:0:
261,117,52312,6,0,P|305:84|323:61,1,70,2|0,1:1|2:1,2:1:0:0:
415,30,52612,1,8,3:1:0:0:
415,30,52762,1,0,2:1:0:0:
258,138,52912,2,0,P|310:135|349:137,1,70,8|0,3:1|2:1,2:1:0:0:
462,3,53212,2,0,P|424:76|394:200,1,210,2|0,1:1|2:1,2:1:0:0:
456,241,53812,1,0,3:1:0:0:
192,321,54112,5,2,1:1:0:0:
192,321,54262,1,0,2:1:0:0:
77,277,54412,2,0,P|83:240|86:192,1,70,8|0,3:1|2:1,2:1:0:0:
5,365,54712,2,0,P|9:338|11:282,1,70,8|0,3:1|2:1,2:1:0:0:
59,132,55012,2,0,P|91:205|208:266,1,210,2|0,1:1|2:1,2:1:0:0:
284,41,55612,5,8,3:1:0:0:
225,208,55762,1,8,2:1:0:0:
309,106,55912,1,2,1:1:0:0:
309,106,56062,2,0,P|360:101|395:105,1,70,0|0,2:1|3:1,2:1:0:0:
492,183,56362,1,0,2:1:0:0:
492,183,56512,2,0,P|419:172|332:169,1,140,8|2,3:1|1:1,2:1:0:0:
0,83,57112,1,8,3:1:0:0:
70,76,57262,1,0,0:0:0:0:
96,213,57412,6,0,P|83:248|57:289,1,70,2|0,3:1|2:1,2:1:0:0:
314,253,57712,1,2,1:1:0:0:
415,284,57862,1,2,2:1:0:0:
506,229,58012,1,8,3:1:0:0:
506,229,58162,1,0,0:0:0:0:
451,178,58312,2,0,P|401:181|370:176,1,70,8|0,3:1|2:1,2:1:0:0:
264,160,58612,2,0,P|345:153|416:156,2,140,2|0|0,1:1|3:1|3:1,2:1:0:0:
3,292,59512,6,0,P|51:294|92:301,1,70,2|0,1:1|2:1,2:1:0:0:
201,350,59812,2,0,P|248:347|282:336,1,70,8|0,3:1|2:1,2:1:0:0:
385,268,60112,1,8,3:1:0:0:
372,257,60262,1,0,2:1:0:0:
459,311,60412,2,0,P|385:303|317:285,2,140,2|0|0,1:1|3:1|3:1,2:1:0:0:
471,156,61312,6,0,P|423:162|387:170,1,70,2|0,1:1|2:1,2:1:0:0:
261,183,61612,2,0,P|216:175|177:172,1,70,8|0,3:1|2:1,2:1:0:0:
66,109,61912,1,8,3:1:0:0:
82,119,62062,1,0,2:1:0:0:
43,43,62212,2,0,P|153:31|259:47,1,210,2|0,1:1|2:1,2:1:0:0:
333,39,62812,5,8,3:1:0:0:
405,2,62962,1,8,2:1:0:0:
287,116,63112,1,2,1:1:0:0:
287,116,63262,2,0,P|288:179|286:203,1,70,0|0,2:1|3:1,2:1:0:0:
409,116,63562,1,0,2:1:0:0:
471,141,63712,2,0,P|469:184|473:226,1,70,8|0,3:1|2:1,2:1:0:0:
451,347,64012,2,0,P|405:359|358:363,1,70,2|0,1:1|2:1,2:1:0:0:
275,323,64312,1,8,3:1:0:0:
316,265,64462,1,0,2:1:0:0:
483,246,64612,6,0,P|476:290|464:329,1,70,2|0,3:1|2:1,2:1:0:0:
282,159,64912,1,2,1:1:0:0:
188,244,65062,1,2,2:1:0:0:
200,361,65212,2,0,P|238:357|280:360,1,70,8|0,3:1|2:1,2:1:0:0:
403,140,65512,2,0,P|396:204|391:299,2,140,8|2|0,3:1|1:1|3:1,2:1:0:0:
387,349,66412,1,8,3:1:0:0:
476,103,66712,6,0,P|458:152|449:185,1,70,2|0,1:1|2:1,2:1:0:0:
451,12,67012,2,0,P|461:53|465:89,1,70,8|0,3:1|2:1,2:1:0:0:
329,127,67312,2,0,P|351:88|365:39,1,70,8|0,3:1|2:1,2:1:0:0:
226,3,67612,1,2,1:1:0:0:
226,3,67762,1,0,2:1:0:0:
142,24,67912,1,0,3:1:0:0:
234,75,68062,2,0,P|188:84|155:88,1,70,0|0,2:1|3:1,2:1:0:0:
250,89,68362,1,0,0:0:0:0:
98,201,68512,6,0,P|129:160|155:124,1,70,2|0,1:1|2:1,2:1:0:0:
126,261,68812,2,0,P|82:220|58:205,1,70,8|0,3:1|2:1,2:1:0:0:
206,147,69112,2,0,P|264:149|281:148,1,70,8|0,3:1|2:1,2:1:0:0:
512,187,69412,2,0,P|494:118|456:56,1,140,2|0,1:1|3:1,2:1:0:0:
76,351,70012,5,8,3:1:0:0:
202,355,70162,1,8,2:1:0:0:
323,318,70312,2,0,P|372:326|414:341,1,70,2|0,1:1|2:1,2:1:0:0:
423,326,70612,1,0,3:1:0:0:
423,326,70762,1,0,2:1:0:0:
384,175,70912,2,0,P|424:176|457:174,2,70,8|0|2,3:1|2:1|1:1,2:1:0:0:
297,111,71362,1,0,2:1:0:0:
163,158,71512,1,8,3:1:0:0:
163,221,71662,1,0,2:1:0:0:
235,338,71812,6,0,P|217:313|205:272,1,70,2|0,3:1|2:1,2:1:0:0:
34,68,72112,1,2,1:1:0:0:
97,158,72262,1,2,2:1:0:0:
120,270,72412,2,0,P|157:265|192:253,1,70,8|0,3:1|2:1,2:1:0:0:
279,134,72712,2,0,P|227:65|199:17,2,140,8|2|0,3:1|1:1|3:1,2:1:0:0:
226,177,73612,1,8,3:1:0:0:
309,0,73912,5,4,1:2:0:0:
443,183,74212,1,2,3:2:0:0:
405,242,74362,1,2,2:2:0:0:
419,170,74512,1,0,3:2:0:0:
485,88,74662,1,0,2:2:0:0:
426,0,74812,1,2,1:2:0:0:
501,337,75112,2,0,P|429:352|368:384,2,140,2|0|4,3:2|3:2|1:2,2:2:0:0:
282,140,76012,5,2,3:2:0:0:
317,41,76162,1,2,2:2:0:0:
216,15,76312,1,0,3:2:0:0:
305,69,76462,1,0,2:2:0:0:
347,125,76612,1,2,1:2:0:0:
4,109,76912,2,0,P|65:67|109:17,1,140,2|0,3:2|3:2,2:2:0:0:
3,176,77512,5,4,1:2:0:0:
233,95,77812,1,2,3:2:0:0:
298,116,77962,1,2,2:2:0:0:
250,164,78112,1,0,3:2:0:0:
248,92,78262,1,0,2:2:0:0:
175,17,78412,1,2,1:2:0:0:
2,314,78712,2,0,P|55:310|86:313,1,70,2|0,3:2|2:2,2:2:0:0:
175,250,79012,2,0,P|153:284|139:326,1,70,0|0,3:2|2:2,2:2:0:0:
104,103,79312,5,6,1:2:0:0:
353,160,79612,1,0,3:2:0:0:
353,160,79762,1,0,2:2:0:0:
422,175,79912,1,2,3:2:0:0:
173,226,80212,1,2,1:2:0:0:
417,244,80512,1,0,3:2:0:0:
417,244,80662,1,0,2:2:0:0:
348,254,80812,1,0,3:2:0:0:
512,378,81112,5,4,1:2:0:0:
134,262,81412,1,2,3:2:0:0:
157,336,81562,1,2,2:2:0:0:
199,247,81712,1,0,3:2:0:0:
232,183,81862,1,0,2:2:0:0:
145,123,82012,1,2,1:2:0:0:
366,364,82312,2,0,P|291:359|208:364,2,140,2|0|4,3:2|3:2|1:2,2:2:0:0:
443,110,83212,5,2,3:2:0:0:
437,180,83362,1,2,2:2:0:0:
332,179,83512,1,0,3:2:0:0:
342,291,83662,1,0,2:2:0:0:
448,201,83812,1,2,1:2:0:0:
181,9,84112,2,0,P|232:38|255:56,1,70,2|0,3:2|2:2,2:2:0:0:
158,18,84412,1,0,3:2:0:0:
256,360,84712,5,4,1:2:0:0:
61,174,85012,1,2,3:2:0:0:
127,149,85162,1,2,2:2:0:0:
69,238,85312,1,0,3:2:0:0:
3,212,85462,1,0,2:2:0:0:
27,83,85612,1,0,1:2:0:0:
189,378,85912,1,2,3:2:0:0:
302,58,86212,1,0,3:2:0:0:
471,246,86512,5,6,1:2:0:0:
471,246,86662,1,0,2:2:0:0:
408,216,86812,1,0,3:2:0:0:
51,219,87112,1,2,3:2:0:0:
302,277,87412,1,2,1:2:0:0:
302,277,87562,1,0,2:2:0:0:
233,296,87712,1,0,3:2:0:0:
358,378,88012,1,0,3:2:0:0:
42,307,88312,5,10,1:3:0:0:
42,307,88387,1,8,3:3:0:0:
42,307,88462,1,0,3:3:0:0:
124,301,88612,1,2,3:3:0:0:
120,384,88762,1,0,3:3:0:0:
40,384,88912,1,2,3:3:0:0:
258,191,103612,5,4,1:2:0:0:
100,66,103912,2,0,P|113:102|118:146,1,70,2|2,3:2|2:2,2:2:0:0:
97,140,104212,1,0,3:2:0:0:
116,228,104362,1,0,2:2:0:0:
188,313,104512,1,2,1:2:0:0:
512,229,104812,2,0,P|473:296|450:357,2,140,2|0|4,3:2|3:2|1:2,2:2:0:0:
196,54,105712,6,0,P|235:47|270:49,1,70,2|2,3:2|2:2,2:2:0:0:
289,36,106012,1,0,3:2:0:0:
285,145,106162,1,0,2:2:0:0:
431,137,106312,2,0,P|365:125|289:122,2,140,2|0|0,1:2|3:2|3:2,2:2:0:0:
436,357,107212,5,4,1:2:0:0:
121,359,107512,1,2,3:2:0:0:
135,289,107662,1,2,2:2:0:0:
21,232,107812,2,0,P|85:208|108:193,1,70,0|0,3:2|2:2,2:2:0:0:
95,371,108112,1,2,1:2:0:0:
295,100,108412,1,2,3:2:0:0:
498,329,108712,1,0,3:2:0:0:
246,361,109012,6,0,P|279:353|317:349,2,70,6|0|0,1:2|2:2|3:2,2:2:0:0:
0,224,109612,1,2,3:2:0:0:
243,252,109912,2,0,P|239:304|232:334,1,70,2|0,1:2|2:2,2:2:0:0:
214,336,110212,1,0,3:2:0:0:
278,372,110512,1,0,3:2:0:0:
261,23,110812,5,4,1:2:0:0:
51,166,111112,2,0,P|41:127|27:96,1,70,2|2,3:2|2:2,2:2:0:0:
131,64,111412,1,0,3:2:0:0:
147,135,111562,1,0,2:2:0:0:
278,97,111712,2,0,P|237:104|199:118,1,70,2|0,1:2|2:2,2:2:0:0:
12,249,112012,2,0,P|35:236|81:229,1,70,2|0,3:2|2:2,2:2:0:0:
39,72,112312,1,0,3:2:0:0:
372,22,112612,5,4,1:2:0:0:
402,255,112912,1,2,3:2:0:0:
336,307,113062,1,2,2:2:0:0:
237,333,113212,1,0,3:2:0:0:
101,318,113362,1,0,2:2:0:0:
154,360,113512,2,0,P|204:358|238:364,1,70,2|0,1:2|2:2,2:2:0:0:
424,240,113812,2,0,P|422:281|430:320,1,70,2|0,3:2|2:2,2:2:0:0:
512,324,114112,2,0,P|481:322|439:330,2,70,0|0|4,3:2|2:2|1:2,2:2:0:0:
259,8,114712,6,0,P|248:48|227:86,1,70,2|2,3:2|2:2,2:2:0:0:
340,96,115012,1,0,3:2:0:0:
362,168,115162,1,0,2:2:0:0:
205,200,115312,2,0,P|240:183|284:176,1,70,2|0,1:2|2:2,2:2:0:0:
132,69,115612,1,2,3:2:0:0:
237,372,115912,2,0,P|237:334|225:297,1,70,0|0,3:2|2:2,2:2:0:0:
438,287,116212,5,6,1:2:0:0:
438,287,116362,1,0,2:2:0:0:
376,120,116512,2,0,P|420:161|446:176,1,70,0|0,3:2|2:2,2:2:0:0:
416,185,116812,1,2,3:2:0:0:
378,247,116962,1,0,2:2:0:0:
250,152,117112,2,0,P|255:220|249:300,2,140,2|0|0,1:2|3:2|3:2,2:2:0:0:
505,342,118012,5,10,3:3:0:0:
505,342,118087,1,8,3:3:0:0:
505,342,118162,1,0,3:3:0:0:
422,340,118312,1,2,3:3:0:0:
428,256,118462,1,0,3:3:0:0:
512,260,118612,1,2,3:3:0:0:
183,152,118912,5,2,1:2:0:0:
250,212,119062,1,0,0:2:0:0:
340,222,119212,1,0,3:2:0:0:
328,233,119512,1,0,3:2:0:0:
109,146,119812,2,0,P|122:184|142:286,2,140,2|0|2,1:2|3:2|3:2,0:2:0:0:
338,201,120712,5,2,1:2:0:0:
212,190,120862,1,2,0:2:0:0:
104,124,121012,1,0,3:2:0:0:
89,140,121312,1,0,3:2:0:0:
221,125,121612,1,0,1:2:0:0:
117,107,121762,1,0,0:2:0:0:
185,27,121912,1,0,3:2:0:0:
173,40,122212,1,0,3:2:0:0:
368,271,122512,6,0,P|330:273|291:272,1,70,2|0,1:2|0:2,0:2:0:0:
508,271,122812,2,0,P|471:269|435:270,2,70,0|0|0,3:2|0:2|3:2,0:2:0:0:
231,35,123412,1,2,1:2:0:0:
248,359,123712,1,0,3:2:0:0:
209,22,124012,1,2,3:2:0:0:
232,185,124312,5,2,1:2:0:0:
265,280,124462,1,2,0:2:0:0:
265,374,124612,2,0,B|294:374|334:367,2,70,0|0|0,3:2|0:2|3:2,0:2:0:0:
11,248,125212,2,0,P|50:253|89:262,1,70,0|0,1:2|0:2,0:2:0:0:
54,374,125512,1,0,3:2:0:0:
22,223,125812,1,0,3:2:0:0:
512,51,126112,6,0,P|461:81|402:147,2,140,2|0|0,1:2|3:2|3:2,0:2:0:0:
195,50,127012,2,0,P|121:35|57:29,1,140,2|0,1:2|3:2,0:2:0:0:
36,41,127612,1,2,3:2:0:0:
266,203,127912,5,2,1:2:0:0:
226,299,128062,1,2,0:2:0:0:
323,341,128212,1,0,3:2:0:0:
496,158,128512,1,0,3:2:0:0:
210,314,128812,1,0,1:2:0:0:
348,327,129112,1,0,3:2:0:0:
2,215,129412,6,0,P|34:200|60:222,1,70,2|0,3:2|0:2,0:2:0:0:
140,154,129712,1,2,1:2:0:0:
199,116,129862,1,0,0:2:0:0:
271,109,130012,2,0,P|258:73|242:37,1,70,0|0,3:2|0:2,0:2:0:0:
398,118,130312,1,0,3:2:0:0:
398,118,130462,1,0,0:2:0:0:
342,161,130612,1,0,1:2:0:0:
354,229,130762,1,0,0:2:0:0:
293,265,130912,2,0,P|334:301|356:332,1,70,0|0,3:2|0:2,0:2:0:0:
264,375,131212,5,2,3:2:0:0:
264,375,131362,1,0,0:2:0:0:
126,247,131512,2,0,P|165:252|203:248,2,70,2|0|0,1:2|0:2|3:2,0:2:0:0:
248,213,131962,1,0,0:2:0:0:
384,109,132112,2,0,P|345:114|307:110,1,70,0|0,3:2|0:2,0:2:0:0:
407,96,132412,5,0,0:0:0:0:
245,97,132562,1,0,0:2:0:0:
364,247,132712,2,0,L|390:275,2,35,0|0|0,3:2|0:2|0:2,0:2:0:0:
242,344,133012,1,0,3:2:0:0:
12,257,133312,5,10,1:3:0:0:
12,257,133387,1,8,3:3:0:0:
12,257,133462,1,0,3:3:0:0:
81,253,133612,1,2,3:3:0:0:
84,322,133762,1,0,3:3:0:0:
14,324,133912,1,2,3:3:0:0:
16,94,134212,5,10,1:2:0:0:
49,156,134362,1,2,2:2:0:0:
99,24,134512,1,0,3:2:0:0:
193,74,134662,1,0,2:2:0:0:
186,144,134812,1,6,3:2:0:0:
389,337,135112,5,10,1:2:0:0:
320,346,135262,1,2,2:2:0:0:
397,229,135412,1,0,3:2:0:0:
302,182,135562,1,0,2:2:0:0:
249,228,135712,1,6,3:2:0:0:
135,20,136012,5,10,1:2:0:0:
100,82,136162,1,2,2:2:0:0:
215,166,136312,2,0,P|190:130|169:105,1,70,0|0,3:2|2:2,2:2:0:0:
304,29,136612,1,6,3:2:0:0:
304,29,136762,1,0,2:2:0:0:
477,81,136912,1,10,1:2:0:0:
326,155,137062,1,2,2:2:0:0:
215,286,137212,2,0,P|219:317|231:367,2,70,8|0|4,3:2|2:2|3:2,2:2:0:0:
463,228,137812,5,10,1:2:0:0:
496,290,137962,1,2,2:2:0:0:
413,359,138112,1,0,3:2:0:0:
326,240,138262,1,0,2:2:0:0:
319,310,138412,1,6,3:2:0:0:
172,19,138712,5,10,1:2:0:0:
103,28,138862,1,2,2:2:0:0:
95,136,139012,1,0,3:2:0:0:
243,137,139162,1,0,2:2:0:0:
190,183,139312,1,6,3:2:0:0:
307,241,139612,5,10,1:2:0:0:
307,241,139762,1,0,2:2:0:0:
73,262,139912,2,0,B|106:249|139:230,1,70,10|0,3:2|2:2,2:2:0:0:
58,288,140212,1,4,3:2:0:0:
232,340,140362,1,0,2:2:0:0:
232,340,140512,2,0,P|186:310|162:299,1,70,10|0,1:2|2:2,2:2:0:0:
8,193,140812,2,0,P|38:217|76:239,2,70,8|0|4,3:2|2:2|3:2,2:2:0:0:
276,142,141412,5,10,1:2:0:0:
207,159,141562,1,2,2:2:0:0:
87,231,141712,1,0,3:2:0:0:
193,237,141862,1,0,2:2:0:0:
248,329,142012,1,6,3:2:0:0:
300,17,142312,5,10,1:2:0:0:
282,84,142462,1,2,2:2:0:0:
210,204,142612,1,0,3:2:0:0:
201,99,142762,1,0,2:2:0:0:
107,50,142912,1,6,3:2:0:0:
498,81,143212,5,10,1:2:0:0:
442,60,143362,1,2,2:2:0:0:
502,68,143512,2,0,P|507:112|519:152,1,70,0|0,3:2|2:2,2:2:0:0:
436,183,143812,1,6,3:2:0:0:
436,183,143962,1,0,2:2:0:0:
365,14,144112,1,10,1:2:0:0:
283,169,144262,1,2,2:2:0:0:
137,263,144412,1,8,3:2:0:0:
137,263,144562,1,0,2:2:0:0:
108,191,144712,2,0,P|111:228|109:267,1,70,4|0,3:2|2:2,2:2:0:0:
272,247,145012,5,10,1:2:0:0:
375,226,145162,1,2,2:2:0:0:
267,264,145312,1,8,3:2:0:0:
55,48,145612,2,0,P|21:87|-9:112,1,70,4|0,3:2|2:2,2:2:0:0:
50,161,145912,1,10,1:2:0:0:
50,161,146062,1,0,2:2:0:0:
105,260,146212,1,10,3:2:0:0:
105,260,146362,1,0,2:2:0:0:
299,120,146512,2,0,P|256:138|226:159,1,70,4|0,3:2|2:2,2:2:0:0:
248,352,146812,1,10,1:2:0:0:
274,287,146962,1,0,1:2:0:0:
156,345,147112,2,0,P|198:354|224:374,1,70,0|0,3:2|2:2,2:2:0:0:
318,381,147412,1,4,3:2:0:0:
357,52,147712,6,0,P|357:101|354:140,1,70,10|0,1:1|2:1,2:1:0:0:
254,178,147937,1,0,2:1:0:0:
254,178,148013,2,0,P|255:143|255:108,1,70,10|0,3:1|2:1,2:1:0:0:
167,56,148237,1,0,2:1:0:0:
167,56,148312,2,0,P|167:105|164:144,1,70,10|0,3:1|2:1,2:1:0:0:
14,200,148612,5,10,1:2:0:0:
28,95,148762,1,2,2:2:0:0:
97,218,148912,1,0,3:2:0:0:
56,314,149062,1,0,2:2:0:0:
83,247,149212,1,6,3:2:0:0:
423,158,149512,5,10,1:2:0:0:
325,117,149662,1,2,2:2:0:0:
397,238,149812,1,0,3:2:0:0:
500,251,149962,1,0,2:2:0:0:
429,241,150112,1,6,3:2:0:0:
69,172,150412,5,10,1:2:0:0:
116,225,150562,1,2,2:2:0:0:
72,360,150712,2,0,P|75:325|75:290,1,70,0|0,3:2|2:2,2:2:0:0:
44,191,151012,1,6,3:2:0:0:
44,191,151162,1,2,2:2:0:0:
158,18,151312,1,10,1:2:0:0:
128,191,151462,1,2,2:2:0:0:
166,363,151612,2,0,P|199:383|247:384,1,70,8|0,3:2|2:2,2:2:0:0:
245,372,151912,1,4,3:2:0:0:
392,164,152212,5,10,1:2:0:0:
369,96,152362,1,2,2:2:0:0:
386,235,152512,1,0,3:2:0:0:
335,327,152662,1,0,2:2:0:0:
392,369,152812,1,6,3:2:0:0:
106,173,153112,5,10,1:2:0:0:
44,215,153262,1,2,2:2:0:0:
141,112,153412,1,0,3:2:0:0:
154,8,153562,1,0,2:2:0:0:
223,6,153712,1,6,3:2:0:0:
339,198,154012,6,0,P|358:168|390:135,1,70,10|0,1:2|2:2,2:2:0:0:
335,227,154312,1,10,3:2:0:0:
314,233,154462,1,0,2:2:0:0:
168,217,154612,1,6,3:2:0:0:
168,217,154762,1,0,2:2:0:0:
249,0,154912,2,0,P|220:26|199:54,1,70,10|0,1:2|2:2,2:2:0:0:
288,305,155212,2,0,P|325:334|346:358,2,70,8|0|4,3:2|2:2|3:2,2:2:0:0:
86,140,155812,5,10,1:2:0:0:
93,34,155962,1,2,2:2:0:0:
161,15,156112,1,0,3:2:0:0:
215,148,156262,1,0,2:2:0:0:
75,169,156412,1,6,3:2:0:0:
342,320,156712,5,10,1:2:0:0:
442,354,156862,1,2,2:2:0:0:
486,299,157012,1,0,3:2:0:0:
385,198,157162,1,0,2:2:0:0:
311,318,157312,1,6,3:2:0:0:
46,230,157612,5,10,1:2:0:0:
72,233,157762,1,2,2:2:0:0:
95,237,157912,2,0,P|137:238|172:230,1,70,0|0,3:2|2:2,2:2:0:0:
326,153,158212,1,6,3:2:0:0:
326,153,158362,1,0,2:2:0:0:
505,73,158512,1,10,1:2:0:0:
334,43,158662,1,2,2:2:0:0:
160,54,158812,1,8,3:2:0:0:
186,35,158962,2,0,P|217:20|247:1,1,70,0|4,2:2|3:2,2:2:0:0:
259,27,159262,1,0,2:2:0:0:
395,118,159412,5,10,1:2:0:0:
331,241,159562,1,2,2:2:0:0:
190,224,159712,2,0,P|162:267|146:302,1,70,8|0,3:2|2:2,2:2:0:0:
73,110,160012,2,0,P|37:100|7:81,1,70,4|0,3:2|2:2,2:2:0:0:
103,0,160312,2,0,P|147:34|167:57,1,70,10|0,1:2|2:2,2:2:0:0:
341,54,160612,2,0,P|317:105|298:131,1,70,10|0,3:2|2:2,2:2:0:0:
427,174,160912,2,0,P|410:233|408:257,1,70,4|0,3:2|2:2,2:2:0:0:
129,138,161212,1,10,1:2:0:0:
105,124,161362,1,0,2:2:0:0:
40,124,161512,2,8,P|34:165|34:199,1,70,8|8,3:2|2:2,2:2:0:0:
35,59,161812,1,4,3:2:0:0:
100,56,161962,1,0,2:2:0:0:
229,66,162112,5,10,1:2:0:0:
267,11,162262,1,0,2:2:0:0:
343,53,162412,1,0,3:2:0:0:
333,156,162562,1,0,2:2:0:0:
212,277,162712,2,0,P|215:323|212:363,1,70,6|0,3:2|2:2,2:2:0:0:
427,283,163012,6,0,P|200:295|16:376,3,420,2|8|2|8,1:1|1:1|1:1|1:1,3:1:0:0:
106,157,170212,5,2,1:1:0:0:
106,157,170362,1,0,2:1:0:0:
106,157,170512,2,0,P|136:206|149:246,1,70,8|0,3:1|2:1,2:1:0:0:
74,93,170812,2,0,P|66:58|48:24,1,70,8|0,3:1|2:1,2:1:0:0:
297,52,171112,2,0,P|226:69|157:95,2,140,2|0|0,1:1|3:1|3:1,2:1:0:0:
427,223,172012,5,2,1:1:0:0:
427,223,172162,1,0,2:1:0:0:
427,223,172312,2,0,P|487:199|505:191,1,70,8|0,3:1|2:1,2:1:0:0:
512,340,172612,1,8,3:1:0:0:
512,340,172762,1,0,2:1:0:0:
360,242,172912,2,0,P|360:301|356:332,1,70,2|0,1:1|2:1,2:1:0:0:
355,384,173212,2,0,P|348:342|341:316,1,70,0|0,3:1|2:1,2:1:0:0:
115,336,173512,5,8,3:1:0:0:
4,280,173662,1,8,2:1:0:0:
6,155,173812,2,0,P|34:119|61:92,1,70,2|0,1:1|2:1,2:1:0:0:
140,188,174112,1,0,3:1:0:0:
429,25,174412,2,0,P|467:28|511:27,1,70,8|0,3:1|2:1,2:1:0:0:
505,168,174712,2,0,P|503:105|496:69,1,70,2|0,1:1|2:1,2:1:0:0:
492,202,175012,2,0,P|457:225|428:240,1,70,8|0,3:1|2:1,2:1:0:0:
255,231,175312,6,0,P|272:199|294:170,1,70,2|0,3:1|2:1,2:1:0:0:
412,314,175612,1,2,1:1:0:0:
338,340,175762,1,2,2:1:0:0:
202,322,175912,2,0,P|208:281|219:243,1,70,8|0,3:1|2:1,2:1:0:0:
397,384,176212,1,8,3:1:0:0:
0,242,176512,2,0,P|28:316|40:378,2,140,2|0|8,1:1|3:1|3:1,2:1:0:0:
275,53,177412,6,0,P|241:65|186:71,1,70,2|0,1:1|2:1,2:1:0:0:
61,47,177712,2,0,P|107:63|135:79,1,70,8|0,3:1|2:1,2:1:0:0:
142,224,178012,2,0,P|101:199|56:186,1,70,8|0,3:1|2:1,2:1:0:0:
352,90,178312,1,2,1:1:0:0:
352,90,178462,1,0,2:1:0:0:
352,90,178612,1,8,3:1:0:0:
352,90,178762,1,0,2:1:0:0:
352,90,178912,2,0,P|409:108|430:117,1,70,8|0,3:1|2:1,2:1:0:0:
484,264,179212,6,0,P|475:309|460:336,1,70,2|0,1:1|2:1,2:1:0:0:
318,328,179512,2,0,P|316:280|311:254,1,70,8|0,3:1|2:1,2:1:0:0:
412,191,179812,1,8,3:1:0:0:
483,188,179962,1,0,2:1:0:0:
264,190,180112,1,2,1:1:0:0:
264,190,180262,1,0,2:1:0:0:
264,190,180412,2,0,P|319:188|346:190,1,70,0|0,3:1|2:1,2:1:0:0:
512,63,180712,5,8,3:1:0:0:
387,121,180862,1,8,2:1:0:0:
509,51,181012,2,0,P|465:35|420:23,2,70,2|0|0,1:1|2:1|3:1,2:1:0:0:
171,370,181612,2,0,P|169:330|156:288,1,70,8|0,3:1|2:1,2:1:0:0:
241,320,181912,1,2,1:1:0:0:
241,320,182062,1,0,2:1:0:0:
100,271,182212,2,0,P|136:271|178:279,1,70,8|0,3:1|2:1,2:1:0:0:
493,290,182512,6,0,P|464:311|434:337,1,70,2|0,3:1|2:1,2:1:0:0:
442,89,182812,1,2,1:1:0:0:
324,41,182962,1,2,2:1:0:0:
198,35,183112,1,8,3:1:0:0:
291,382,183412,2,0,P|229:351|175:307,2,140,8|2|0,3:1|1:1|3:1,2:1:0:0:
372,331,184312,2,0,P|340:346|310:365,1,70,8|0,3:1|2:1,2:1:0:0:
24,274,184612,6,0,P|54:305|73:332,1,70,2|0,1:1|2:1,2:1:0:0:
169,287,184912,1,8,3:1:0:0:
136,349,185062,1,0,2:1:0:0:
206,222,185212,1,8,3:1:0:0:
206,222,185362,1,0,2:1:0:0:
129,189,185512,1,2,1:1:0:0:
503,26,185812,1,0,3:1:0:0:
213,204,186112,1,0,3:1:0:0:
11,128,186412,6,0,P|41:97|60:70,1,70,2|0,1:1|2:1,2:1:0:0:
192,117,186712,1,8,3:1:0:0:
159,55,186862,1,0,2:1:0:0:
291,0,187012,1,8,3:1:0:0:
291,0,187162,1,0,2:1:0:0:
326,70,187312,1,2,1:1:0:0:
17,200,187612,1,0,3:1:0:0:
411,321,187912,5,8,3:1:0:0:
288,293,188062,1,8,2:1:0:0:
169,332,188212,2,0,P|111:327|75:330,1,70,2|0,1:1|2:1,2:1:0:0:
85,305,188512,1,0,3:1:0:0:
49,16,188812,2,0,P|52:64|59:104,1,70,8|0,3:1|2:1,2:1:0:0:
178,153,189112,2,0,P|202:120|216:88,1,70,2|0,1:1|2:1,2:1:0:0:
319,80,189412,1,8,3:1:0:0:
260,45,189562,1,0,2:1:0:0:
139,207,189712,6,0,P|137:167|126:124,1,70,2|0,3:1|2:1,2:1:0:0:
146,124,190012,1,2,1:1:0:0:
264,198,190162,1,2,2:1:0:0:
392,142,190312,1,8,3:1:0:0:
392,142,190462,1,0,2:1:0:0:
401,75,190612,2,0,P|438:66|471:43,1,70,8|0,3:1|2:1,2:1:0:0:
486,223,190912,1,2,1:1:0:0:
486,223,191062,1,0,2:1:0:0:
486,223,191212,2,0,P|469:153|439:85,2,140,0|8|4,3:1|3:1|1:2,2:1:0:0:
322,272,192112,5,2,3:2:0:0:
252,266,192262,1,2,2:2:0:0:
177,193,192412,1,0,3:2:0:0:
175,338,192562,1,0,2:2:0:0:
175,338,192712,1,2,1:2:0:0:
103,373,193012,1,2,3:2:0:0:
69,121,193312,2,0,P|32:118|-10:122,2,70,0|0|4,3:2|2:2|1:2,2:2:0:0:
274,26,193912,5,2,3:2:0:0:
342,46,194062,1,2,2:2:0:0:
357,115,194212,1,0,3:2:0:0:
460,143,194362,1,0,2:2:0:0:
512,52,194512,1,2,1:2:0:0:
393,267,194812,2,0,P|409:227|429:190,1,70,2|0,3:2|2:2,2:2:0:0:
355,332,195112,1,0,3:2:0:0:
355,332,195262,1,0,2:2:0:0:
355,332,195412,5,4,1:2:0:0:
106,334,195712,1,2,3:2:0:0:
35,257,195862,1,2,2:2:0:0:
120,316,196012,1,0,3:2:0:0:
120,213,196162,1,0,2:2:0:0:
119,145,196312,1,2,1:2:0:0:
327,25,196612,2,0,P|287:24|238:20,1,70,2|0,3:2|2:2,2:2:0:0:
88,24,196912,1,0,3:2:0:0:
152,74,197062,1,0,2:2:0:0:
299,93,197212,6,0,P|336:90|370:81,1,70,6|0,1:2|2:2,2:2:0:0:
271,158,197512,1,0,3:2:0:0:
271,158,197662,1,0,2:2:0:0:
128,158,197812,2,0,P|133:197|130:241,1,70,2|0,3:2|2:2,2:2:0:0:
75,368,198112,1,2,1:2:0:0:
418,256,198412,1,0,3:2:0:0:
418,256,198562,1,0,2:2:0:0:
484,258,198712,2,0,P|498:301|514:335,1,70,0|0,3:2|2:2,2:2:0:0:
333,331,199012,5,4,1:2:0:0:
395,172,199312,1,2,3:2:0:0:
326,182,199462,1,2,2:2:0:0:
398,182,199612,1,0,3:2:0:0:
331,196,199762,1,0,2:2:0:0:
345,91,199912,1,2,1:2:0:0:
143,210,200212,1,2,3:2:0:0:
143,210,200362,1,0,2:2:0:0:
261,195,200512,2,0,L|257:124,1,70,0|0,3:2|2:2,2:2:0:0:
235,108,200812,5,4,1:2:0:0:
35,39,201112,1,2,3:2:0:0:
29,110,201262,1,2,2:2:0:0:
55,211,201412,1,0,3:2:0:0:
51,280,201562,1,0,2:2:0:0:
156,287,201712,1,2,1:2:0:0:
161,36,202012,1,2,3:2:0:0:
161,36,202162,1,0,2:2:0:0:
318,35,202312,1,0,3:2:0:0:
318,35,202462,1,0,2:2:0:0:
277,89,202612,6,0,P|232:87|196:88,1,70,4|0,1:2|2:2,2:2:0:0:
118,160,202912,1,2,3:2:0:0:
149,223,203062,1,2,2:2:0:0:
219,243,203212,1,0,3:2:0:0:
322,235,203362,1,0,2:2:0:0:
357,322,203512,2,0,P|374:350|397:383,1,70,2|0,1:2|2:2,2:2:0:0:
302,139,203812,2,0,P|316:182|321:212,1,70,2|0,3:2|2:2,2:2:0:0:
279,73,204112,1,0,3:2:0:0:
279,73,204262,1,0,2:2:0:0:
151,63,204412,5,6,1:2:0:0:
4,341,204712,1,0,3:2:0:0:
4,341,204862,1,0,2:2:0:0:
76,357,205012,1,2,3:2:0:0:
431,369,205312,2,0,P|430:310|436:271,1,70,2|0,1:2|2:2,2:2:0:0:
376,191,205612,1,0,3:2:0:0:
376,191,205762,1,0,2:2:0:0:
302,224,205912,1,0,3:2:0:0:
24,53,206212,5,2,1:1:0:0:
159,18,206362,1,2,2:1:0:0:
156,88,206512,1,8,3:1:0:0:
256,125,206662,1,0,2:1:0:0:
343,15,206812,1,2,3:1:0:0:
239,27,206962,1,0,2:1:0:0:
342,120,207112,1,2,1:1:0:0:
447,106,207262,1,2,2:1:0:0:
488,49,207412,1,8,1:1:0:0:
12,179,207712,5,4,3:2:0:0:
483,361,208012,1,8,1:1:0:0:
429,315,208162,1,8,2:1:0:0:
307,379,208312,1,2,3:1:0:0:
234,303,208462,1,0,2:1:0:0:
337,280,208612,1,2,3:1:0:0:
293,376,208762,1,0,2:1:0:0:
222,375,208912,1,2,1:1:0:0:
96,311,209062,1,8,2:1:0:0:
126,210,209212,1,2,1:1:0:0:
427,25,209512,5,4,3:2:0:0:
42,159,209812,1,8,1:1:0:0:
27,228,209962,1,8,2:1:0:0:
105,297,210112,1,2,3:1:0:0:
201,252,210262,1,0,2:1:0:0:
201,110,210412,1,2,3:1:0:0:
176,176,210562,1,0,2:1:0:0:
142,77,210712,1,2,1:1:0:0:
15,56,210862,1,2,2:1:0:0:
0,125,211012,1,0,1:1:0:0:
261,371,211312,5,4,3:2:0:0:
362,30,211612,1,2,1:1:0:0:
263,68,211762,1,8,2:1:0:0:
318,197,211912,1,2,3:1:0:0:
437,118,212062,1,0,2:1:0:0:
494,163,212212,1,8,3:1:0:0:
389,175,212362,1,0,2:1:0:0:
431,40,212512,1,2,1:1:0:0:
327,33,212662,1,8,2:1:0:0:
260,12,212812,1,8,1:1:0:0:
492,343,213112,5,4,3:2:0:0:
124,330,213412,1,2,1:1:0:0:
65,204,213562,1,2,2:1:0:0:
129,151,213712,1,8,3:1:0:0:
217,210,213862,1,0,2:1:0:0:
355,186,214012,1,8,3:1:0:0:
396,111,214162,1,0,2:1:0:0:
260,148,214312,1,8,1:1:0:0:
320,113,214462,1,8,2:1:0:0:
286,15,214612,1,2,1:1:0:0:
344,366,214912,5,4,3:2:0:0:
134,133,215212,1,8,1:1:0:0:
254,146,215362,1,8,2:1:0:0:
340,223,215512,1,2,3:1:0:0:
276,240,215662,1,0,2:1:0:0:
319,126,215812,1,2,3:1:0:0:
190,165,215962,1,0,2:1:0:0:
247,295,216112,1,2,1:1:0:0:
146,306,216262,1,8,2:1:0:0:
86,270,216412,1,0,1:1:0:0:
263,24,216712,5,4,3:2:0:0:
24,284,217012,1,8,1:1:0:0:
82,237,217162,1,8,2:1:0:0:
161,205,217312,1,2,3:1:0:0:
292,216,217462,1,0,2:1:0:0:
416,193,217612,1,2,3:1:0:0:
491,140,217762,1,0,2:1:0:0:
338,142,217912,1,2,1:1:0:0:
372,269,218062,1,2,2:1:0:0:
326,331,218212,1,8,1:1:0:0:
256,18,218512,5,4,3:2:0:0:
24,275,218812,1,2,1:1:0:0:
45,342,218962,1,8,2:1:0:0:
135,349,219112,1,2,3:1:0:0:
222,304,219262,1,0,2:1:0:0:
214,220,219412,1,8,3:1:0:0:
262,126,219562,1,0,2:1:0:0:
415,87,219712,1,2,1:1:0:0:
508,191,219862,1,0,2:1:0:0:
415,270,220012,1,2,1:1:0:0:
348,168,220162,1,0,2:1:0:0:
446,209,220312,2,0,P|440:250|430:279,1,70,8|0,1:1|3:1,0:1:0:0:
407,353,220612,5,8,1:2:0:0:
338,367,220762,1,8,2:2:0:0:
234,351,220912,1,2,3:2:0:0:
122,266,221062,1,8,2:2:0:0:
62,101,221212,2,0,P|80:62|108:34,1,70,6|0,3:2|2:2,2:2:0:0:
270,5,221512,5,8,1:2:0:0:
294,70,221662,1,8,2:2:0:0:
294,175,221812,1,2,3:2:0:0:
228,299,221962,1,8,2:2:0:0:
74,384,222112,2,0,P|32:372|0:349,1,70,6|0,3:2|2:2,2:2:0:0:
295,376,222412,5,2,1:2:0:0:
300,199,222562,1,2,2:2:0:0:
228,78,222712,1,8,3:2:0:0:
139,24,222862,1,2,2:2:0:0:
70,12,223012,2,0,P|29:38|6:64,1,70,12|0,3:0|2:0,0:0:0:0:
51,330,223312,5,2,1:2:0:0:
224,353,223462,1,2,2:2:0:0:
353,294,223612,1,8,3:2:0:0:
415,211,223762,1,2,2:2:0:0:
435,143,223912,2,0,P|413:99|389:73,1,70,12|0,3:0|2:0,0:0:0:0:
154,24,224212,5,8,1:2:0:0:
222,39,224362,1,8,2:2:0:0:
282,126,224512,1,2,3:2:0:0:
250,263,224662,1,8,2:2:0:0:
84,318,224812,2,0,P|45:301|18:283,1,70,6|0,3:2|2:2,2:2:0:0:
59,149,225112,5,8,1:2:0:0:
98,91,225262,1,8,2:2:0:0:
200,66,225412,1,2,3:2:0:0:
317,144,225562,1,8,2:2:0:0:
309,319,225712,2,0,P|280:348|252:367,1,70,6|0,3:2|2:2,2:2:0:0:
482,209,226012,5,2,1:2:0:0:
426,42,226162,1,2,2:2:0:0:
289,12,226312,1,8,3:2:0:0:
203,71,226462,1,2,2:2:0:0:
187,139,226612,2,0,P|206:171|240:195,1,70,12|0,3:2|2:2,2:2:0:0:
31,89,226912,5,2,1:2:0:0:
2,263,227062,1,2,2:2:0:0:
109,352,227212,1,8,3:2:0:0:
213,340,227362,1,2,2:2:0:0:
259,286,227512,2,0,P|255:248|236:211,1,70,12|0,3:2|2:2,2:2:0:0:
363,186,227812,5,8,1:2:0:0:
330,122,227962,1,8,2:2:0:0:
390,36,228112,1,2,3:2:0:0:
512,105,228262,1,8,2:2:0:0:
491,278,228412,2,0,P|455:294|417:296,1,70,6|0,3:2|2:2,2:2:0:0:
289,249,228712,5,8,1:2:0:0:
248,309,228862,1,8,2:2:0:0:
142,299,229012,1,2,3:2:0:0:
142,160,229162,1,8,2:2:0:0:
305,93,229312,2,0,P|336:116|356:149,1,70,6|0,3:2|2:2,2:2:0:0:
206,310,229612,5,2,1:2:0:0:
174,139,229762,1,2,2:2:0:0:
39,106,229912,1,8,3:2:0:0:
5,207,230062,1,2,2:2:0:0:
55,259,230212,2,0,P|97:252|125:229,1,70,12|0,3:2|2:2,2:2:0:0:
299,41,230512,5,2,1:2:0:0:
233,200,230662,1,2,2:2:0:0:
329,299,230812,1,8,3:2:0:0:
413,231,230962,1,2,2:2:0:0:
398,160,231112,2,0,P|358:143|322:147,1,70,12|0,3:2|2:2,2:2:0:0:
207,79,231412,5,8,1:2:0:0:
251,132,231562,1,8,2:2:0:0:
168,192,231712,1,2,3:2:0:0:
94,74,231862,1,8,2:2:0:0:
253,1,232012,2,0,P|267:40|270:79,1,70,6|0,3:2|2:2,2:2:0:0:
392,200,232312,5,8,1:2:0:0:
378,130,232462,1,8,2:2:0:0:
482,122,232612,1,2,3:2:0:0:
483,262,232762,1,8,2:2:0:0:
309,242,232912,2,0,P|317:201|333:165,1,70,6|0,3:2|2:2,2:2:0:0:
120,4,233212,5,2,1:2:0:0:
49,165,233362,1,2,2:2:0:0:
183,205,233512,1,8,3:2:0:0:
206,104,233662,1,2,2:2:0:0:
136,96,233812,2,0,P|128:127|145:176,1,70,12|0,3:2|2:2,2:2:0:0:
58,374,234112,5,2,1:2:0:0:
233,356,234262,1,2,2:2:0:0:
201,220,234412,1,8,3:2:0:0:
102,250,234562,1,2,2:2:0:0:
130,314,234712,2,0,P|160:305|194:265,1,70,12|0,3:2|2:2,2:2:0:0:
2,100,235012,5,10,3:3:0:0:
2,100,235087,1,8,3:3:0:0:
2,100,235162,1,0,3:3:0:0:
72,99,235312,1,2,3:3:0:0:
71,29,235462,1,0,3:3:0:0:
1,29,235612,1,2,3:3:0:0:
171,86,243112,5,2,1:2:0:0:
158,119,243262,1,2,2:2:0:0:
221,150,243412,1,0,3:2:0:0:
126,196,243562,1,0,2:2:0:0:
103,170,243712,1,2,3:2:0:0:
193,359,244012,5,2,1:2:0:0:
163,339,244162,1,2,2:2:0:0:
197,277,244312,1,0,3:2:0:0:
93,294,244462,1,0,2:2:0:0:
89,329,244612,1,2,3:2:0:0:
211,149,244912,5,2,1:2:0:0:
312,180,245062,1,2,2:2:0:0:
416,199,245212,1,0,3:2:0:0:
188,86,245512,1,2,3:2:0:0:
439,260,245812,1,2,1:2:0:0:
284,238,245962,1,2,2:2:0:0:
147,164,246112,1,0,3:2:0:0:
147,164,246262,1,0,2:2:0:0:
147,164,246412,2,0,P|153:210|150:250,1,70,0|0,3:2|2:2,2:2:0:0:
178,59,246712,5,2,1:2:0:0:
317,75,246862,1,2,2:2:0:0:
345,153,247012,1,0,3:2:0:0:
473,203,247312,1,0,3:2:0:0:
329,163,247612,1,2,1:2:0:0:
35,210,247912,1,2,3:2:0:0:
9,320,248212,1,0,3:2:0:0:
253,272,248512,5,2,1:2:0:0:
253,272,248662,1,0,2:2:0:0:
393,341,248962,1,0,2:2:0:0:
393,341,249112,1,0,3:2:0:0:
334,370,249262,1,0,2:2:0:0:
334,370,249412,1,0,1:2:0:0:
92,325,249712,1,0,3:2:0:0:
251,90,250012,1,0,3:2:0:0:
416,149,250312,5,8,1:2:0:0:
416,149,250462,2,0,P|356:163|335:175,1,70,0|0,2:2|3:2,2:2:0:0:
237,194,250762,1,0,2:2:0:0:
228,198,250912,1,4,3:2:0:0:
220,207,251062,1,0,2:2:0:0:
232,236,251212,1,8,1:2:0:0:
244,245,251362,1,0,2:2:0:0:
271,260,251512,1,0,3:2:0:0:
332,248,251662,1,0,2:2:0:0:
410,276,251812,1,4,3:2:0:0:
13,130,252112,5,10,1:2:0:0:
185,163,252262,1,2,2:2:0:0:
209,34,252412,1,0,3:2:0:0:
236,119,252562,1,0,2:2:0:0:
135,205,252712,1,6,3:2:0:0:
241,342,253012,5,10,1:2:0:0:
356,209,253162,1,2,2:2:0:0:
455,296,253312,1,0,3:2:0:0:
424,213,253462,1,0,2:2:0:0:
291,204,253612,1,6,3:2:0:0:
108,370,253912,5,10,1:2:0:0:
104,283,254062,1,2,2:2:0:0:
233,256,254212,2,0,P|184:245|136:227,1,87.5,0|0,3:2|2:2,2:2:0:0:
165,60,254512,1,6,3:2:0:0:
165,60,254662,1,0,2:2:0:0:
382,91,254812,1,10,1:2:0:0:
187,121,254962,1,2,2:2:0:0:
10,207,255112,2,0,P|5:262|6:300,2,87.5,8|0|4,3:2|2:2|3:2,2:2:0:0:
408,90,255712,5,10,1:2:0:0:
385,219,255862,1,2,2:2:0:0:
252,105,256012,1,0,3:2:0:0:
340,104,256162,1,0,2:2:0:0:
458,233,256312,1,6,3:2:0:0:
58,303,256612,5,10,1:2:0:0:
167,231,256762,1,2,2:2:0:0:
10,153,256912,1,0,3:2:0:0:
44,234,257062,1,0,2:2:0:0:
209,293,257212,1,6,3:2:0:0:
256,40,257512,5,10,1:2:0:0:
256,40,257662,1,0,2:2:0:0:
360,184,257812,2,0,B|408:180|473:181,1,87.5,10|0,3:2|2:2,2:2:0:0:
410,51,258112,1,4,3:2:0:0:
289,179,258262,1,0,2:2:0:0:
289,179,258412,2,0,P|234:174|177:178,1,87.5,10|0,1:2|2:2,2:2:0:0:
25,174,258712,2,0,P|84:178|126:175,2,87.5,8|0|4,3:2|2:2|3:2,2:2:0:0:
219,331,259312,5,10,1:2:0:0:
392,359,259462,1,2,2:2:0:0:
225,303,259612,1,0,3:2:0:0:
131,212,259762,1,0,2:2:0:0:
62,266,259912,1,6,3:2:0:0:
382,96,260212,5,10,1:2:0:0:
512,212,260362,1,2,2:2:0:0:
364,118,260512,1,0,3:2:0:0:
234,102,260662,1,0,2:2:0:0:
232,15,260812,1,6,3:2:0:0:
49,255,261112,5,10,1:2:0:0:
133,227,261262,1,2,2:2:0:0:
64,175,261412,2,0,P|87:233|97:270,1,87.5,0|0,3:2|2:2,2:2:0:0:
241,303,261712,1,6,3:2:0:0:
241,303,261862,1,0,2:2:0:0:
391,178,262012,1,10,1:2:0:0:
195,197,262162,1,2,2:2:0:0:
84,360,262312,1,8,3:2:0:0:
84,360,262462,1,0,2:2:0:0:
80,272,262612,2,0,P|83:235|83:171,1,87.5,4|0,3:2|2:2,2:2:0:0:
239,269,262912,5,10,1:2:0:0:
365,305,263062,1,2,2:2:0:0:
237,336,263212,2,0,P|293:354|329:375,1,87.5,8|0,3:2|2:2,2:2:0:0:
341,193,263512,2,0,P|320:241|304:288,1,87.5,4|0,3:2|2:2,2:2:0:0:
179,165,263812,1,10,1:2:0:0:
179,165,263962,1,0,2:2:0:0:
263,208,264112,1,8,3:2:0:0:
263,208,264262,1,0,2:2:0:0:
272,76,264412,2,0,P|218:82|171:94,1,87.5,6|0,3:2|2:2,2:2:0:0:
335,182,264712,2,0,P|321:132|297:92,1,87.5,10|0,1:2|2:2,2:2:0:0:
205,246,265012,2,0,P|252:255|297:272,1,87.5,0|0,3:2|2:2,2:2:0:0:
448,191,265312,1,4,3:2:0:0:
448,191,265462,1,0,2:2:0:0:
386,359,265612,6,0,P|386:310|380:243,1,87.5,2|0,1:1|2:1,2:1:0:0:
286,192,265837,1,0,2:1:0:0:
286,192,265912,2,0,P|284:234|288:301,1,87.5,2|0,3:1|2:1,2:1:0:0:
189,352,266137,1,0,2:1:0:0:
189,352,266212,2,0,P|189:303|183:244,1,87.5,2|0,3:1|2:1,2:1:0:0:
30,139,266512,5,10,1:2:0:0:
116,40,266662,1,2,2:2:0:0:
220,182,266812,1,0,3:2:0:0:
133,188,266962,1,0,2:2:0:0:
182,66,267112,1,6,3:2:0:0:
365,363,267412,5,10,1:2:0:0:
446,259,267562,1,2,2:2:0:0:
287,184,267712,1,0,3:2:0:0:
298,271,267862,1,0,2:2:0:0:
408,199,268012,1,6,3:2:0:0:
117,119,268312,5,10,1:2:0:0:
134,33,268462,1,2,2:2:0:0:
263,51,268612,2,0,P|319:55|370:53,1,87.5,0|0,3:2|2:2,2:2:0:0:
318,187,268912,1,6,3:2:0:0:
318,187,269062,1,0,2:2:0:0:
178,47,269212,1,10,1:2:0:0:
202,242,269362,1,2,2:2:0:0:
346,377,269512,2,0,P|395:371|438:372,1,87.5,8|0,3:2|2:2,2:2:0:0:
507,339,269812,1,4,3:2:0:0:
320,67,270112,5,10,1:2:0:0:
235,87,270262,1,2,2:2:0:0:
128,165,270412,1,0,3:2:0:0:
258,148,270562,1,0,2:2:0:0:
118,41,270712,1,6,3:2:0:0:
500,101,271012,5,10,1:2:0:0:
448,171,271162,1,2,2:2:0:0:
334,239,271312,1,0,3:2:0:0:
401,126,271462,1,0,2:2:0:0:
445,297,271612,1,6,3:2:0:0:
207,22,271912,6,0,P|187:52|160:112,1,87.5,10|0,1:2|2:2,2:2:0:0:
251,201,272212,1,10,3:2:0:0:
339,202,272362,1,0,2:2:0:0:
227,265,272512,1,4,3:2:0:0:
227,265,272662,1,0,2:2:0:0:
168,104,272812,2,0,P|170:154|164:213,1,105.000004005432,10|0,1:2|2:2,2:2:0:0:
44,282,273112,2,0,P|93:277|149:283,2,87.5,8|0|4,3:2|2:2|3:2,2:2:0:0:
444,111,273712,5,10,1:2:0:0:
281,175,273862,1,2,2:2:0:0:
369,273,274012,1,0,3:2:0:0:
445,229,274162,1,0,2:2:0:0:
421,100,274312,1,6,3:2:0:0:
85,347,274612,5,10,1:2:0:0:
159,188,274762,1,2,2:2:0:0:
251,283,274912,1,0,3:2:0:0:
202,355,275062,1,0,2:2:0:0:
74,323,275212,1,6,3:2:0:0:
489,310,275512,5,10,1:2:0:0:
450,185,275662,1,2,2:2:0:0:
424,313,275812,2,0,P|382:307|324:310,1,87.5,0|0,3:2|2:2,2:2:0:0:
268,182,276112,1,6,3:2:0:0:
268,182,276262,1,0,2:2:0:0:
438,76,276412,1,10,1:2:0:0:
256,35,276562,1,2,2:2:0:0:
74,76,276712,1,8,3:2:0:0:
127,121,276862,2,0,P|158:106|207:65,1,87.5,0|4,2:2|3:2,2:2:0:0:
260,103,277162,1,0,2:2:0:0:
378,161,277312,5,10,1:2:0:0:
302,269,277462,1,2,2:2:0:0:
208,178,277612,2,0,P|184:231|161:271,1,87.5,8|0,3:2|2:2,2:2:0:0:
40,138,277912,2,0,P|78:96|118:64,1,87.5,4|0,3:2|2:2,2:2:0:0:
179,132,278212,2,0,P|225:151|276:155,1,87.5,10|0,1:2|2:2,2:2:0:0:
361,17,278512,1,10,3:2:0:0:
361,17,278662,1,0,2:2:0:0:
398,188,278812,2,0,P|381:247|372:288,1,87.5,4|0,3:2|2:2,2:2:0:0:
201,258,279112,1,10,1:2:0:0:
247,184,279262,1,0,2:2:0:0:
71,183,279412,2,0,P|67:239|69:291,1,87.5,8|0,3:2|2:2,2:2:0:0:
181,135,279712,1,4,3:2:0:0:
182,72,279862,1,0,2:2:0:0:
314,61,280012,5,10,1:2:0:0:
376,32,280162,1,0,2:2:0:0:
401,92,280312,1,0,3:2:0:0:
375,176,280462,1,0,2:2:0:0:
265,284,280612,2,0,P|229:250|195:225,1,87.5,6|0,3:2|2:2,2:2:0:0:
77,56,280912,6,0,B|179:87|347:279|429:318,3,420,10|8|2|8,1:1|1:1|1:1|1:1,0:0:0:0:
307,372,283912,5,0,3:1:0:0:
104,283,284212,1,8,3:1:0:0:
126,298,284362,1,8,2:1:0:0:
149,313,284512,2,0,P|165:276|195:238,1,70,2|0,1:1|2:1,2:1:0:0:
34,290,284812,1,0,3:1:0:0:
330,17,285112,2,0,P|325:55|325:100,1,70,8|0,3:1|2:1,2:1:0:0:
195,161,285412,1,2,1:1:0:0:
144,117,285562,1,0,2:1:0:0:
256,198,285712,2,0,P|306:177|347:153,1,70,8|0,3:1|2:1,2:1:0:0:
215,36,286012,6,0,P|168:39|121:39,1,70,2|0,3:1|2:1,2:1:0:0:
13,211,286312,1,2,1:1:0:0:
82,329,286462,1,2,2:1:0:0:
218,326,286612,2,0,P|173:330|138:329,1,70,8|0,3:1|2:1,2:1:0:0:
290,322,286912,1,8,3:1:0:0:
408,16,287212,2,0,P|436:75|491:126,2,140,2|0|8,1:1|3:1|3:1,2:1:0:0:
135,75,288112,5,2,1:1:0:0:
66,111,288262,1,0,2:1:0:0:
120,166,288412,1,8,3:1:0:0:
120,166,288562,1,0,2:1:0:0:
54,196,288712,2,0,P|75:233|85:277,1,70,8|0,3:1|2:1,2:1:0:0:
207,360,289012,2,0,P|269:354|352:360,2,140,2|0|0,1:1|3:1|3:1,2:1:0:0:
423,110,289912,5,2,1:1:0:0:
423,110,290062,1,0,2:1:0:0:
423,110,290212,2,0,P|379:97|336:80,1,70,8|0,3:1|2:1,2:1:0:0:
288,170,290512,1,8,3:1:0:0:
288,170,290662,1,0,2:1:0:0:
237,35,290812,2,0,P|247:69|258:111,1,70,2|0,1:1|2:1,2:1:0:0:
138,79,291112,1,0,3:1:0:0:
138,79,291262,1,0,2:1:0:0:
23,161,291412,5,8,3:1:0:0:
93,281,291562,1,8,2:1:0:0:
233,273,291712,1,2,1:1:0:0:
233,273,291862,1,0,2:1:0:0:
233,273,292012,1,0,3:1:0:0:
233,273,292162,1,0,2:1:0:0:
108,204,292312,2,0,P|149:222|190:247,1,70,8|0,3:1|2:1,2:1:0:0:
349,241,292612,1,2,1:1:0:0:
286,156,292762,1,0,2:1:0:0:
289,50,292912,1,8,3:1:0:0:
359,50,293062,1,0,2:1:0:0:
425,174,293212,6,0,P|383:177|333:170,1,70,2|0,3:1|2:1,2:1:0:0:
65,132,293512,1,2,1:1:0:0:
153,288,293662,1,2,2:1:0:0:
45,194,293812,2,0,P|30:239|6:273,1,70,8|0,3:1|2:1,2:1:0:0:
128,349,294112,2,0,P|90:345|37:350,1,70,8|0,3:1|2:1,2:1:0:0:
275,349,294412,1,2,1:1:0:0:
344,351,294562,1,0,2:1:0:0:
413,341,294712,1,0,3:1:0:0:
481,354,294862,1,0,2:1:0:0:
354,284,295012,2,0,P|349:246|353:197,1,70,8|0,3:1|2:1,2:1:0:0:
512,93,295312,5,10,1:3:0:0:
512,93,295387,1,8,3:3:0:0:
512,93,295462,1,0,3:3:0:0:
442,93,295612,1,2,3:3:0:0:
438,23,295762,1,0,3:3:0:0:
508,23,295912,1,2,3:3:0:0:
152,194,296212,5,10,1:2:0:0:
26,130,296362,1,2,2:2:0:0:
136,218,296512,1,0,3:2:0:0:
196,305,296662,1,0,2:2:0:0:
140,345,296812,1,6,3:2:0:0:
407,135,297112,5,10,1:2:0:0:
372,272,297262,1,2,2:2:0:0:
378,131,297412,1,0,3:2:0:0:
352,28,297562,1,0,2:2:0:0:
285,44,297712,1,6,3:2:0:0:
62,347,298012,5,10,1:2:0:0:
116,258,298162,1,2,2:2:0:0:
85,355,298312,2,0,P|125:351|169:355,1,70,0|0,3:2|2:2,2:2:0:0:
291,305,298612,2,0,P|284:252|285:212,1,70,6|0,3:2|2:2,2:2:0:0:
135,107,298912,1,10,1:2:0:0:
290,140,299062,1,2,2:2:0:0:
420,231,299212,2,0,P|456:228|503:230,1,70,8|0,3:2|2:2,2:2:0:0:
512,125,299512,1,4,3:2:0:0:
186,37,299812,5,10,1:2:0:0:
113,53,299962,1,2,2:2:0:0:
31,120,300112,1,0,3:2:0:0:
111,235,300262,1,0,2:2:0:0:
233,166,300412,1,6,3:2:0:0:
444,358,300712,5,10,1:2:0:0:
370,373,300862,1,2,2:2:0:0:
268,346,301012,1,0,3:2:0:0:
292,210,301162,1,0,2:2:0:0:
432,220,301312,1,6,3:2:0:0:
90,276,301612,6,0,P|96:238|93:189,1,70,10|0,1:2|2:2,2:2:0:0:
169,131,301912,1,10,3:2:0:0:
239,167,302062,1,0,2:2:0:0:
168,280,302212,1,4,3:2:0:0:
168,280,302362,1,0,2:2:0:0:
344,164,302512,2,0,P|315:190|294:218,1,70,10|0,1:2|2:2,2:2:0:0:
411,157,302812,2,0,P|451:158|496:171,2,70,8|0|4,3:2|2:2|3:2,2:2:0:0:
171,358,303412,5,10,1:2:0:0:
178,252,303562,1,2,2:2:0:0:
247,236,303712,1,0,3:2:0:0:
190,365,303862,1,0,2:2:0:0:
86,363,304012,1,6,3:2:0:0:
110,40,304312,5,10,1:2:0:0:
151,137,304462,1,2,2:2:0:0:
221,130,304612,1,0,3:2:0:0:
124,27,304762,1,0,2:2:0:0:
28,62,304912,1,6,3:2:0:0:
91,279,305212,5,10,1:2:0:0:
124,330,305362,1,2,2:2:0:0:
101,265,305512,2,0,P|143:266|178:258,1,70,0|0,3:2|2:2,2:2:0:0:
223,108,305812,2,0,P|212:148|211:183,1,70,6|0,3:2|2:2,2:2:0:0:
337,299,306112,1,10,1:2:0:0:
436,177,306262,1,2,2:2:0:0:
327,63,306412,1,8,3:2:0:0:
296,117,306562,2,0,P|327:102|357:83,2,70,0|4|0,2:2|3:2|2:2,2:2:0:0:
418,355,307012,5,10,1:2:0:0:
286,311,307162,1,2,2:2:0:0:
354,375,307312,2,0,P|312:371|273:378,1,70,8|0,3:2|2:2,2:2:0:0:
95,260,307612,1,4,3:2:0:0:
95,260,307762,1,0,2:2:0:0:
62,43,307912,2,0,P|56:83|60:127,1,70,10|0,1:2|2:2,2:2:0:0:
202,156,308212,2,0,P|248:161|290:157,1,70,10|0,3:2|2:2,2:2:0:0:
221,25,308512,2,0,P|204:84|202:108,1,70,4|0,3:2|2:2,2:2:0:0:
108,194,308812,1,10,1:2:0:0:
153,289,308962,1,0,2:2:0:0:
233,321,309112,1,8,3:2:0:0:
301,313,309262,1,0,2:2:0:0:
360,273,309412,1,4,3:2:0:0:
360,273,309562,1,0,2:2:0:0:
385,116,309712,6,0,P|388:80|386:44,1,70,10|0,1:2|2:2,2:2:0:0:
244,6,310012,2,0,P|206:4|159:9,1,70,0|0,3:2|2:2,2:2:0:0:
33,72,310312,1,6,3:2:0:0:
0,136,310462,1,0,2:2:0:0:
82,255,310612,6,0,P|110:293|137:321,1,70,2|0,1:1|2:1,2:1:0:0:
339,348,310912,2,0,P|375:339|413:321,1,70,8|0,3:1|2:1,2:1:0:0:
459,127,311212,2,0,P|445:81|428:51,1,70,8|0,3:1|2:1,2:1:0:0:
144,105,311512,2,0,P|174:168|217:235,2,140,2|0|0,1:1|3:1|3:1,2:1:0:0:
459,195,312412,5,2,1:1:0:0:
459,195,312562,1,0,2:1:0:0:
392,274,312712,1,8,3:1:0:0:
392,274,312862,1,0,2:1:0:0:
299,380,313012,2,0,P|324:354|348:321,1,70,8|0,3:1|2:1,2:1:0:0:
137,347,313312,2,0,P|157:315|204:278,1,70,2|0,1:1|2:1,2:1:0:0:
70,378,313612,1,0,3:1:0:0:
376,18,313912,5,8,3:1:0:0:
275,89,314062,1,8,2:1:0:0:
150,121,314212,1,2,1:1:0:0:
150,121,314362,2,0,P|184:146|217:182,1,70,0|0,2:1|3:1,2:1:0:0:
172,220,314662,1,0,2:1:0:0:
314,219,314812,1,8,3:1:0:0:
368,176,314962,1,0,2:1:0:0:
505,197,315112,2,0,P|442:193|406:188,1,70,2|0,1:1|2:1,2:1:0:0:
259,263,315412,2,0,P|311:288|344:291,1,70,8|0,3:1|2:1,2:1:0:0:
498,287,315712,6,0,P|501:322|494:361,1,70,2|2,3:1|1:1,2:1:0:0:
272,132,316012,1,2,2:1:0:0:
159,191,316162,1,0,0:0:0:0:
155,320,316312,1,8,3:1:0:0:
155,320,316462,2,0,P|177:345|196:378,1,70,0|8,2:1|3:1,2:1:0:0:
88,379,316762,1,0,2:1:0:0:
88,379,316912,2,0,P|92:327|91:290,1,70,2|0,1:1|2:1,2:1:0:0:
155,104,317212,2,0,P|151:144|150:197,1,70,0|0,3:1|2:1,2:1:0:0:
168,34,317512,1,8,3:1:0:0:
207,312,317812,6,0,P|240:344|269:368,1,70,2|0,1:1|2:1,2:1:0:0:
385,302,318112,1,8,3:1:0:0:
333,261,318262,1,0,2:1:0:0:
375,129,318412,2,0,P|427:126|466:128,1,70,8|0,3:1|2:1,2:1:0:0:
180,36,318712,2,0,P|147:117|116:251,1,210,2|0,1:1|2:1,2:1:0:0:
221,266,319312,1,0,3:1:0:0:
146,242,319462,1,0,2:1:0:0:
227,97,319612,6,0,P|269:96|313:101,1,70,2|0,1:1|2:1,2:1:0:0:
358,219,319912,2,0,P|364:182|367:134,1,70,8|0,3:1|2:1,2:1:0:0:
432,276,320212,2,0,P|436:249|438:193,1,70,8|0,3:1|2:1,2:1:0:0:
314,379,320512,1,2,1:1:0:0:
314,379,320662,2,0,P|320:342|323:294,2,70,0|0|0,2:1|3:1|2:1,2:1:0:0:
49,363,321112,5,8,3:1:0:0:
66,242,321262,1,8,2:1:0:0:
54,120,321412,1,2,1:1:0:0:
54,120,321562,1,0,2:1:0:0:
116,84,321712,2,0,P|168:79|212:79,1,70,0|0,3:1|2:1,2:1:0:0:
326,229,322012,1,8,3:1:0:0:
259,222,322162,1,0,2:1:0:0:
369,105,322312,2,0,P|370:142|366:185,1,70,2|0,1:1|2:1,2:1:0:0:
190,207,322612,1,8,3:1:0:0:
190,207,322762,1,0,2:1:0:0:
137,22,322912,6,0,P|204:21|233:28,1,70,2|0,3:1|2:1,2:1:0:0:
250,162,323212,1,2,1:1:0:0:
102,78,323362,1,2,2:1:0:0:
245,72,323512,2,0,P|242:107|232:156,1,70,8|0,3:1|2:1,2:1:0:0:
359,217,323812,1,8,3:1:0:0:
359,217,323962,1,0,2:1:0:0:
287,369,324112,2,0,P|264:337|236:310,1,70,2|0,1:1|2:1,2:1:0:0:
356,367,324412,1,0,2:1:0:0:
245,112,324712,2,0,P|199:104|157:103,1,70,8|0,3:1|2:1,2:1:0:0:
60,290,325012,6,0,P|61:337|58:369,1,70,2|0,1:1|2:1,2:1:0:0:
254,282,325312,2,0,P|252:334|254:361,1,70,8|0,3:1|2:1,2:1:0:0:
454,282,325612,1,8,3:1:0:0:
453,350,325762,1,0,2:1:0:0:
323,200,325912,2,0,P|252:197|180:202,2,140,2|0|0,1:1|3:1|3:1,2:1:0:0:
60,94,326812,6,0,P|61:47|58:15,1,70,2|0,1:1|2:1,2:1:0:0:
254,102,327112,2,0,P|252:50|254:23,1,70,8|0,3:1|2:1,2:1:0:0:
454,102,327412,1,8,3:1:0:0:
456,32,327562,1,0,2:1:0:0:
323,184,327712,2,0,P|252:187|106:178,1,210,2|0,1:1|2:1,2:1:0:0:
117,40,328312,5,8,3:1:0:0:
48,172,328462,1,8,2:1:0:0:
103,294,328612,2,0,P|147:296|188:302,1,70,2|0,1:1|2:1,2:1:0:0:
306,253,328912,1,0,3:1:0:0:
374,259,329062,1,0,2:1:0:0:
344,195,329212,2,0,P|346:140|350:105,1,70,8|0,3:1|2:1,2:1:0:0:
450,349,329512,2,0,P|404:361|357:365,1,70,2|0,1:1|2:1,2:1:0:0:
248,325,329812,1,8,3:1:0:0:
315,347,329962,1,0,2:1:0:0:
475,217,330112,6,0,P|468:261|456:300,1,70,2|0,3:1|2:1,2:1:0:0:
156,235,330412,1,2,1:1:0:0:
171,131,330562,1,2,2:1:0:0:
279,140,330712,1,8,3:1:0:0:
279,140,330862,1,0,2:1:0:0:
74,104,331012,2,0,P|63:167|53:262,2,140,8|2|0,3:1|1:1|3:1,2:1:0:0:
2,288,331912,1,8,3:1:0:0:
286,359,332212,6,0,P|233:356|199:351,1,70,2|0,1:1|2:1,2:1:0:0:
268,258,332512,2,0,P|258:299|254:335,1,70,8|0,3:1|2:1,2:1:0:0:
94,182,332812,2,0,P|94:140|85:88,1,70,8|0,3:1|2:1,2:1:0:0:
299,118,333112,1,2,1:1:0:0:
299,118,333262,1,0,2:1:0:0:
157,75,333412,1,0,3:1:0:0:
164,143,333562,2,0,P|210:152|243:156,2,70,0|0|0,2:1|3:1|2:1,2:1:0:0:
127,345,334012,6,0,P|163:356|205:360,1,70,2|0,1:1|2:1,2:1:0:0:
369,346,334312,2,0,P|413:305|437:290,1,70,8|0,3:1|2:1,2:1:0:0:
327,206,334612,1,8,3:1:0:0:
327,206,334762,1,0,2:1:0:0:
130,242,334912,2,0,P|167:241|226:245,1,70,2|0,1:1|2:1,2:1:0:0:
267,251,335212,1,0,3:1:0:0:
267,251,335362,1,0,2:1:0:0:
254,110,335512,5,8,3:1:0:0:
115,92,335662,1,8,2:1:0:0:
22,191,335812,2,0,P|49:232|81:263,1,70,2|0,1:1|2:1,2:1:0:0:
89,326,336112,1,0,3:1:0:0:
89,326,336262,1,0,2:1:0:0:
200,148,336412,2,0,P|160:149|131:156,2,70,8|0|2,3:1|2:1|1:1,2:1:0:0:
194,78,336862,1,0,2:1:0:0:
265,69,337012,1,8,3:1:0:0:
276,139,337162,1,0,2:1:0:0:
293,285,337312,5,2,3:1:0:0:
293,285,337462,1,0,2:1:0:0:
394,188,337612,1,2,1:1:0:0:
454,317,337762,1,2,2:1:0:0:
316,352,337912,2,0,P|276:350|226:356,1,70,8|0,3:1|2:1,2:1:0:0:
125,253,338212,2,0,P|161:289|180:306,1,70,8|0,3:1|2:1,2:1:0:0:
442,245,338512,5,10,1:1:0:0:
74,384,338812,5,10,1:1:0:0:
