osu file format v14

[General]
AudioFilename: audio.mp3
AudioLeadIn: 0
PreviewTime: 60929
Countdown: 0
SampleSet: None
StackLeniency: 0.7
Mode: 3
LetterboxInBreaks: 0
SpecialStyle: 1
WidescreenStoryboard: 1

[Editor]
Bookmarks: 66006,92082,157621,167082,174006
DistanceSpacing: 1
BeatDivisor: 4
GridSize: 32
TimelineZoom: 1.099999

[Metadata]
Title:Serenity
TitleUnicode:Serenity
Artist:Overdose
ArtistUnicode:Overdose
Creator:Lian2002
Version:4k
Source:Newgrounds
Tags:Newgrounds- Nostalgia- Retro- Lian2002-Geometry-Dash
BeatmapID:1307208
BeatmapSetID:620242

[Difficulty]
HPDrainRate:7
CircleSize:4
OverallDifficulty:5
ApproachRate:9
SliderMultiplier:1.4
SliderTickRate:1

[Events]
//Background and Video events
0,0,"ciudad-de-nueva-york_1920x1200_304.jpg",0,0
//Break Periods
//Storyboard Layer 0 (Background)
//Storyboard Layer 1 (Fail)
//Storyboard Layer 2 (Pass)
//Storyboard Layer 3 (Foreground)
//Storyboard Sound Samples

[TimingPoints]
6,461.538461538462,4,1,1,100,1,0
1852,-200,4,1,1,100,0,0
31621,-100,4,1,1,100,0,0
46159,-66.6666666666667,4,1,1,100,0,0
58967,-333.333333333333,4,1,1,100,0,0
60929,-50,4,1,1,100,0,0
62082,-200,4,1,1,100,0,0
63929,-50,4,1,1,100,0,0
65775,-200,4,1,1,100,0,0
68313,-50,4,1,1,100,0,0
70188,-200,4,1,1,100,0,0
71775,-50,4,1,1,100,0,0
74111,-66.6666666666667,4,1,1,100,0,0
75027,-50,4,1,1,100,0,0
75520,-66.6666666666667,4,1,1,100,0,0
77082,-200,4,1,1,100,0,0
79159,-50,4,1,1,100,0,0
80775,-200,4,1,1,100,0,0
82899,-50,4,1,1,100,0,0
84929,-200,4,1,1,100,0,0
86544,-50,4,1,1,100,0,0
88390,-10000,4,1,1,100,0,0
89284,-66.6666666666667,4,1,1,100,0,0
90977,-50,4,1,1,100,0,0
92313,-50,4,1,1,100,0,0
94159,-100,4,1,1,100,0,0
96006,-66.6666666666667,4,1,1,100,0,0
96698,-50,4,1,1,100,0,0
97390,-100,4,1,1,100,0,0
97967,-50,4,1,1,100,0,0
100159,-200,4,1,1,100,0,0
101544,-66.6666666666667,4,1,1,100,0,0
105236,-200,4,1,1,100,0,0
106390,-100,4,1,1,100,0,0
106852,-66.6666666666667,4,1,1,100,0,0
108467,-50,4,1,1,100,0,0
110775,-200,4,1,1,100,0,0
112170,-1000,4,1,1,100,0,0
113775,-50,4,1,1,100,0,0
114929,-100,4,1,1,100,0,0
116313,-66.6666666666667,4,1,1,100,0,0
118159,-50,4,1,1,100,0,0
121506,-100,4,1,1,100,0,0
129236,-66.6666666666667,4,1,1,100,0,0
143100,-50,4,1,1,100,0,0
151399,-181.818181818181,4,1,1,100,0,0
153254,-100,4,1,1,100,0,0
154390,-66.6666666666667,4,1,1,100,0,0
155082,-50,4,1,1,100,0,0
158429,-10000,4,1,1,100,0,0
159929,-40,4,1,1,100,0,0

[Colours]
Combo1 : 128,0,255
Combo2 : 0,128,192
Combo3 : 128,128,255
Combo4 : 64,128,128

[HitObjects]
320,192,1852,128,0,3236:0:0:0:0:
64,192,1852,128,0,3236:0:0:0:0:
192,192,3467,1,0,0:0:0:0:
448,192,3698,128,0,4390:0:0:0:0:
192,192,3698,128,0,4390:0:0:0:0:
320,192,5082,128,0,5544:0:0:0:0:
192,192,5544,128,0,6929:0:0:0:0:
448,192,5544,128,0,6929:0:0:0:0:
448,192,7159,1,0,0:0:0:0:
64,192,7159,1,0,0:0:0:0:
448,192,7390,128,0,8082:0:0:0:0:
64,192,7390,128,0,8082:0:0:0:0:
448,192,8544,1,0,0:0:0:0:
192,192,8544,1,0,0:0:0:0:
448,192,8775,1,0,0:0:0:0:
64,192,8775,1,0,0:0:0:0:
320,192,8775,1,0,0:0:0:0:
448,192,9006,1,0,0:0:0:0:
192,192,9006,1,0,0:0:0:0:
448,192,9236,128,0,10621:0:0:0:0:
192,192,9236,128,0,10621:0:0:0:0:
64,192,9236,128,0,10621:0:0:0:0:
320,192,9236,128,0,10621:0:0:0:0:
320,192,10852,1,0,0:0:0:0:
64,192,10852,1,0,0:0:0:0:
192,192,11082,1,0,0:0:0:0:
448,192,11082,128,0,11775:0:0:0:0:
320,192,11775,128,0,12467:0:0:0:0:
192,192,11775,1,0,0:0:0:0:
64,192,11775,1,0,0:0:0:0:
192,192,12467,128,0,14082:0:0:0:0:
64,192,12467,128,0,14082:0:0:0:0:
448,192,12467,1,0,0:0:0:0:
320,192,12929,1,0,0:0:0:0:
448,192,12929,1,0,0:0:0:0:
320,192,14082,1,0,0:0:0:0:
448,192,14082,1,0,0:0:0:0:
320,192,14313,1,0,0:0:0:0:
64,192,14313,1,0,0:0:0:0:
448,192,14544,1,0,0:0:0:0:
192,192,14544,1,0,0:0:0:0:
320,192,14775,128,0,15929:0:0:0:0:
64,192,14775,128,0,15929:0:0:0:0:
192,192,16159,1,0,0:0:0:0:
448,192,16159,1,0,0:0:0:0:
320,192,16390,1,0,0:0:0:0:
64,192,16390,1,0,0:0:0:0:
448,192,16390,1,0,0:0:0:0:
448,192,16621,128,0,18006:0:0:0:0:
192,192,16621,128,0,18006:0:0:0:0:
64,192,16621,128,0,18006:0:0:0:0:
320,192,16621,128,0,18006:0:0:0:0:
320,192,18236,1,0,0:0:0:0:
192,192,18236,1,0,0:0:0:0:
64,192,18467,128,0,19159:0:0:0:0:
448,192,18467,128,0,19159:0:0:0:0:
320,192,19159,128,0,19852:0:0:0:0:
192,192,19159,128,0,19852:0:0:0:0:
448,192,19852,128,0,20313:0:0:0:0:
64,192,19852,128,0,20313:0:0:0:0:
192,192,20313,128,0,21698:0:0:0:0:
320,192,20313,128,0,21698:0:0:0:0:
320,192,21929,1,0,0:0:0:0:
64,192,21929,1,0,0:0:0:0:
448,192,22159,1,0,0:0:0:0:
192,192,22159,1,0,0:0:0:0:
320,192,22159,128,0,22852:0:0:0:0:
64,192,22852,128,0,23313:0:0:0:0:
448,192,22852,128,0,23313:0:0:0:0:
320,192,23313,1,0,0:0:0:0:
192,192,23313,1,0,0:0:0:0:
320,192,23544,1,0,0:0:0:0:
192,192,23544,1,0,0:0:0:0:
320,192,23775,1,0,0:0:0:0:
64,192,23775,1,0,0:0:0:0:
448,192,23775,1,0,0:0:0:0:
448,192,24006,1,0,0:0:0:0:
320,192,24006,128,0,25390:0:0:0:0:
64,192,24006,128,0,25390:0:0:0:0:
320,192,25621,1,0,0:0:0:0:
192,192,25621,1,0,0:0:0:0:
320,192,25852,1,0,0:0:0:0:
192,192,25852,1,0,0:0:0:0:
448,192,25852,128,0,26544:0:0:0:0:
64,192,25852,128,0,26544:0:0:0:0:
320,192,26544,1,0,0:0:0:0:
192,192,26544,128,0,27236:0:0:0:0:
320,192,27236,128,0,27698:0:0:0:0:
64,192,27698,128,0,28852:0:0:0:0:
448,192,27698,128,0,28852:0:0:0:0:
320,192,28852,1,0,0:0:0:0:
192,192,28852,1,0,0:0:0:0:
320,192,29082,1,0,0:0:0:0:
192,192,29082,1,0,0:0:0:0:
448,192,29313,1,0,0:0:0:0:
64,192,29313,1,0,0:0:0:0:
192,192,29544,128,0,30698:0:0:0:0:
320,192,29544,128,0,30698:0:0:0:0:
320,192,30929,128,0,31159:0:0:0:0:
64,192,30929,128,0,31159:0:0:0:0:
192,192,31159,128,0,31390:0:0:0:0:
448,192,31159,128,0,31390:0:0:0:0:
320,192,31390,128,0,31621:0:0:0:0:
64,192,31390,128,0,31621:0:0:0:0:
192,192,31621,128,0,32082:0:0:0:0:
448,192,31621,128,0,32082:0:0:0:0:
64,192,32082,128,0,32544:0:0:0:0:
320,192,32082,128,0,32544:0:0:0:0:
448,192,32775,1,0,0:0:0:0:
64,192,32775,1,0,0:0:0:0:
320,192,32775,1,0,0:0:0:0:
192,192,32775,1,0,0:0:0:0:
448,192,33006,1,0,0:0:0:0:
192,192,33006,128,0,33467:0:0:0:0:
320,192,33006,128,0,33467:0:0:0:0:
64,192,33006,1,0,0:0:0:0:
448,192,33236,1,0,0:0:0:0:
64,192,33236,1,0,0:0:0:0:
448,192,33467,128,0,33929:0:0:0:0:
64,192,33467,128,0,33929:0:0:0:0:
192,192,33929,128,0,34390:0:0:0:0:
320,192,33929,128,0,34390:0:0:0:0:
448,192,34621,1,0,0:0:0:0:
64,192,34621,1,0,0:0:0:0:
192,192,34621,128,0,34852:0:0:0:0:
320,192,34852,1,0,0:0:0:0:
64,192,34852,128,0,35082:0:0:0:0:
448,192,35082,128,0,35313:0:0:0:0:
192,192,35082,1,0,0:0:0:0:
64,192,35313,1,0,0:0:0:0:
192,192,35313,128,0,35775:0:0:0:0:
320,192,35313,128,0,35775:0:0:0:0:
448,192,35775,128,0,36236:0:0:0:0:
64,192,35775,128,0,36236:0:0:0:0:
320,192,36236,1,0,0:0:0:0:
64,192,36467,1,0,0:0:0:0:
448,192,36467,1,0,0:0:0:0:
320,192,36698,1,0,0:0:0:0:
64,192,36698,1,0,0:0:0:0:
192,192,36698,128,0,37159:0:0:0:0:
448,192,36698,128,0,37159:0:0:0:0:
64,192,36929,1,0,0:0:0:0:
320,192,36929,1,0,0:0:0:0:
64,192,37159,1,0,0:0:0:0:
320,192,37159,128,0,37621:0:0:0:0:
64,192,37621,128,0,38082:0:0:0:0:
192,192,37621,1,0,0:0:0:0:
448,192,37621,128,0,38082:0:0:0:0:
320,192,38082,1,0,0:0:0:0:
192,192,38082,1,0,0:0:0:0:
64,192,38313,128,0,38544:0:0:0:0:
448,192,38313,128,0,38544:0:0:0:0:
320,192,38544,128,0,39006:0:0:0:0:
64,192,38775,128,0,39006:0:0:0:0:
448,192,38775,128,0,39006:0:0:0:0:
192,192,39006,128,0,39467:0:0:0:0:
320,192,39467,1,0,0:0:0:0:
448,192,39467,128,0,39929:0:0:0:0:
64,192,39467,128,0,39929:0:0:0:0:
320,192,39929,1,0,0:0:0:0:
192,192,39929,128,0,40159:0:0:0:0:
64,192,40159,1,0,0:0:0:0:
448,192,40159,1,0,0:0:0:0:
320,192,40390,1,0,0:0:0:0:
64,192,40390,1,0,0:0:0:0:
192,192,40390,1,0,0:0:0:0:
448,192,40390,1,0,0:0:0:0:
64,192,40621,1,0,0:0:0:0:
448,192,40621,1,0,0:0:0:0:
192,192,40852,128,0,41313:0:0:0:0:
320,192,40852,1,0,0:0:0:0:
64,192,40852,1,0,0:0:0:0:
448,192,40852,1,0,0:0:0:0:
320,192,41313,1,0,0:0:0:0:
64,192,41313,1,0,0:0:0:0:
448,192,41313,128,0,41775:0:0:0:0:
320,192,41775,1,0,0:0:0:0:
64,192,41775,1,0,0:0:0:0:
192,192,41775,128,0,42006:0:0:0:0:
64,192,42006,1,0,0:0:0:0:
448,192,42006,128,0,42236:0:0:0:0:
320,192,42236,1,0,0:0:0:0:
192,192,42236,128,0,42467:0:0:0:0:
64,192,42236,1,0,0:0:0:0:
64,192,42467,1,0,0:0:0:0:
448,192,42467,128,0,42698:0:0:0:0:
320,192,42698,1,0,0:0:0:0:
192,192,42698,128,0,43159:0:0:0:0:
320,192,43159,1,0,0:0:0:0:
448,192,43159,1,0,0:0:0:0:
64,192,43159,128,0,43621:0:0:0:0:
320,192,43621,1,0,0:0:0:0:
448,192,43621,128,0,44082:0:0:0:0:
64,192,43852,1,0,0:0:0:0:
320,192,43852,1,0,0:0:0:0:
64,192,44082,1,0,0:0:0:0:
320,192,44082,128,0,44544:0:0:0:0:
64,192,44313,1,0,0:0:0:0:
448,192,44544,128,0,45006:0:0:0:0:
192,192,44544,128,0,45006:0:0:0:0:
64,192,44544,128,0,45006:0:0:0:0:
320,192,45006,128,0,45467:0:0:0:0:
64,192,45467,1,0,0:0:0:0:
448,192,45467,1,0,0:0:0:0:
64,192,45698,1,0,0:0:0:0:
320,192,45698,1,0,0:0:0:0:
64,192,45929,1,0,0:0:0:0:
448,192,45929,1,0,0:0:0:0:
64,192,46159,1,0,0:0:0:0:
448,192,46159,1,0,0:0:0:0:
320,192,46159,128,0,46621:0:0:0:0:
192,192,46159,128,0,46621:0:0:0:0:
448,192,46621,128,0,47082:0:0:0:0:
64,192,46621,128,0,47082:0:0:0:0:
320,192,47082,128,0,47544:0:0:0:0:
192,192,47082,128,0,47544:0:0:0:0:
448,192,47544,1,0,0:0:0:0:
448,192,47775,1,0,0:0:0:0:
64,192,47775,1,0,0:0:0:0:
320,192,48006,128,0,48467:0:0:0:0:
192,192,48006,128,0,48467:0:0:0:0:
448,192,48698,1,0,0:0:0:0:
192,192,48698,1,0,0:0:0:0:
320,192,48929,1,0,0:0:0:0:
64,192,48929,1,0,0:0:0:0:
192,192,48929,128,0,49390:0:0:0:0:
320,192,49390,1,0,0:0:0:0:
448,192,49390,1,0,0:0:0:0:
64,192,49390,128,0,49852:0:0:0:0:
320,192,49852,1,0,0:0:0:0:
448,192,49852,1,0,0:0:0:0:
192,192,49852,128,0,50313:0:0:0:0:
320,192,50313,1,0,0:0:0:0:
64,192,50313,1,0,0:0:0:0:
448,192,50313,128,0,50775:0:0:0:0:
320,192,50775,128,0,51236:0:0:0:0:
64,192,50775,128,0,51236:0:0:0:0:
448,192,51236,1,0,0:0:0:0:
192,192,51236,128,0,51698:0:0:0:0:
448,192,51467,1,0,0:0:0:0:
64,192,51467,1,0,0:0:0:0:
320,192,51698,1,0,0:0:0:0:
448,192,51698,1,0,0:0:0:0:
64,192,51698,128,0,52159:0:0:0:0:
320,192,52159,1,0,0:0:0:0:
192,192,52159,128,0,52621:0:0:0:0:
448,192,52390,1,0,0:0:0:0:
320,192,52621,1,0,0:0:0:0:
64,192,52621,128,0,53082:0:0:0:0:
448,192,52852,1,0,0:0:0:0:
192,192,52852,1,0,0:0:0:0:
320,192,53082,1,0,0:0:0:0:
448,192,53313,1,0,0:0:0:0:
64,192,53313,1,0,0:0:0:0:
192,192,53544,1,0,0:0:0:0:
448,192,53544,128,0,54006:0:0:0:0:
320,192,53544,128,0,54006:0:0:0:0:
192,192,54006,128,0,54467:0:0:0:0:
64,192,54006,128,0,54467:0:0:0:0:
320,192,54467,128,0,54929:0:0:0:0:
448,192,54467,128,0,54929:0:0:0:0:
448,192,55159,1,0,0:0:0:0:
192,192,55159,1,0,0:0:0:0:
320,192,55390,1,0,0:0:0:0:
448,192,55390,1,0,0:0:0:0:
64,192,55390,1,0,0:0:0:0:
192,192,55390,128,0,55852:0:0:0:0:
320,192,55852,1,0,0:0:0:0:
448,192,56082,128,0,56313:0:0:0:0:
320,192,56313,128,0,56775:0:0:0:0:
448,192,56775,1,0,0:0:0:0:
192,192,56775,128,0,57236:0:0:0:0:
320,192,57236,1,0,0:0:0:0:
448,192,57236,1,0,0:0:0:0:
64,192,57236,128,0,57698:0:0:0:0:
320,192,57698,1,0,0:0:0:0:
448,192,57698,1,0,0:0:0:0:
320,192,57929,1,0,0:0:0:0:
64,192,57929,1,0,0:0:0:0:
448,192,58159,128,0,58390:0:0:0:0:
64,192,58159,1,0,0:0:0:0:
320,192,58159,128,0,58390:0:0:0:0:
64,192,58390,128,0,58621:0:0:0:0:
192,192,58390,128,0,58621:0:0:0:0:
448,192,58621,128,0,58852:0:0:0:0:
320,192,58621,128,0,58852:0:0:0:0:
192,192,58852,128,0,59082:0:0:0:0:
64,192,58852,128,0,59082:0:0:0:0:
448,192,59082,128,0,60236:0:0:0:0:
320,192,59082,128,0,60236:0:0:0:0:
192,192,60236,1,0,0:0:0:0:
64,192,60236,1,0,0:0:0:0:
448,192,60467,1,0,0:0:0:0:
320,192,60467,1,0,0:0:0:0:
192,192,60698,1,0,0:0:0:0:
64,192,60698,1,0,0:0:0:0:
448,192,60929,1,0,0:0:0:0:
64,192,60929,1,0,0:0:0:0:
320,192,61159,1,0,0:0:0:0:
192,192,61159,1,0,0:0:0:0:
448,192,61390,1,0,0:0:0:0:
64,192,61390,1,0,0:0:0:0:
64,192,61621,128,0,62082:0:0:0:0:
448,192,61621,128,0,62082:0:0:0:0:
320,192,62082,1,0,0:0:0:0:
192,192,62198,1,0,0:0:0:0:
320,192,62313,1,0,0:0:0:0:
64,192,62313,1,0,0:0:0:0:
448,192,62544,1,0,0:0:0:0:
192,192,62544,1,0,0:0:0:0:
448,192,62775,128,0,63121:0:0:0:0:
320,192,63121,128,0,63467:0:0:0:0:
192,192,63467,128,0,63929:0:0:0:0:
320,192,63929,1,0,0:0:0:0:
64,192,63929,1,0,0:0:0:0:
448,192,64159,1,0,0:0:0:0:
192,192,64159,1,0,0:0:0:0:
320,192,64390,1,0,0:0:0:0:
192,192,64506,1,0,0:0:0:0:
64,192,64621,128,0,64852:0:0:0:0:
192,192,64852,128,0,65082:0:0:0:0:
448,192,64852,1,0,0:0:0:0:
320,192,65082,128,0,65313:0:0:0:0:
64,192,65082,1,0,0:0:0:0:
448,192,65313,128,0,65775:0:0:0:0:
320,192,65775,1,0,0:0:0:0:
192,192,65890,1,0,0:0:0:0:
64,192,66006,1,0,0:0:0:0:
320,192,66236,128,0,67159:0:0:0:0:
64,192,66467,1,0,0:0:0:0:
448,192,66813,1,0,0:0:0:0:
192,192,67159,128,0,68313:0:0:0:0:
320,192,67621,1,0,0:0:0:0:
448,192,67736,1,0,0:0:0:0:
320,192,67852,1,0,0:0:0:0:
320,192,68082,1,0,0:0:0:0:
64,192,68313,1,0,0:0:0:0:
320,192,68313,1,0,0:0:0:0:
448,192,68313,1,0,0:0:0:0:
448,192,68544,128,0,68775:0:0:0:0:
192,192,68775,128,0,69006:0:0:0:0:
320,192,69006,1,0,0:0:0:0:
448,192,69006,128,0,70159:0:0:0:0:
64,192,69006,128,0,70159:0:0:0:0:
320,192,69467,1,0,0:0:0:0:
192,192,69582,1,0,0:0:0:0:
320,192,69698,1,0,0:0:0:0:
320,192,69929,1,0,0:0:0:0:
192,192,69929,1,0,0:0:0:0:
320,192,70159,1,0,0:0:0:0:
192,192,70159,1,0,0:0:0:0:
320,192,70506,128,0,70852:0:0:0:0:
192,192,70506,128,0,70852:0:0:0:0:
448,192,70852,128,0,72236:0:0:0:0:
320,192,71313,1,0,0:0:0:0:
192,192,71429,1,0,0:0:0:0:
64,192,71544,1,0,0:0:0:0:
192,192,71775,1,0,0:0:0:0:
64,192,71890,1,0,0:0:0:0:
192,192,72006,1,0,0:0:0:0:
320,192,72236,1,0,0:0:0:0:
64,192,72236,128,0,73390:0:0:0:0:
192,192,72467,1,0,0:0:0:0:
448,192,72698,128,0,74082:0:0:0:0:
320,192,73159,1,0,0:0:0:0:
320,192,73621,1,0,0:0:0:0:
192,192,74082,1,0,0:0:0:0:
64,192,74082,128,0,75006:0:0:0:0:
448,192,74313,1,0,0:0:0:0:
192,192,74544,1,0,0:0:0:0:
320,192,75006,1,0,0:0:0:0:
448,192,75006,128,0,75467:0:0:0:0:
64,192,75236,1,0,0:0:0:0:
320,192,75467,128,0,76852:0:0:0:0:
192,192,75467,128,0,76852:0:0:0:0:
64,192,75698,1,0,0:0:0:0:
448,192,75929,1,0,0:0:0:0:
64,192,76159,1,0,0:0:0:0:
448,192,76390,1,0,0:0:0:0:
64,192,76621,1,0,0:0:0:0:
64,192,77082,128,0,77313:0:0:0:0:
320,192,77082,128,0,77313:0:0:0:0:
192,192,77313,128,0,78006:0:0:0:0:
448,192,77313,128,0,78006:0:0:0:0:
320,192,78006,128,0,78698:0:0:0:0:
64,192,78006,128,0,78698:0:0:0:0:
448,192,78929,1,0,0:0:0:0:
192,192,78929,1,0,0:0:0:0:
64,192,79159,1,0,0:0:0:0:
192,192,79275,1,0,0:0:0:0:
320,192,79390,1,0,0:0:0:0:
448,192,79621,128,0,79852:0:0:0:0:
320,192,79852,128,0,80082:0:0:0:0:
192,192,80082,128,0,80775:0:0:0:0:
320,192,80775,1,0,0:0:0:0:
64,192,81006,1,0,0:0:0:0:
448,192,81006,1,0,0:0:0:0:
320,192,81236,1,0,0:0:0:0:
192,192,81236,1,0,0:0:0:0:
192,192,81582,1,0,0:0:0:0:
64,192,81582,1,0,0:0:0:0:
320,192,81929,1,0,0:0:0:0:
448,192,81929,128,0,82621:0:0:0:0:
320,192,82390,1,0,0:0:0:0:
192,192,82506,1,0,0:0:0:0:
64,192,82621,1,0,0:0:0:0:
320,192,82852,1,0,0:0:0:0:
192,192,82852,1,0,0:0:0:0:
192,192,83082,1,0,0:0:0:0:
64,192,83082,1,0,0:0:0:0:
320,192,83313,1,0,0:0:0:0:
448,192,83313,1,0,0:0:0:0:
64,192,83544,1,0,0:0:0:0:
192,192,83544,1,0,0:0:0:0:
320,192,83775,1,0,0:0:0:0:
64,192,83775,128,0,84698:0:0:0:0:
448,192,83775,128,0,84698:0:0:0:0:
320,192,84467,1,0,0:0:0:0:
192,192,84582,1,0,0:0:0:0:
320,192,84698,1,0,0:0:0:0:
320,192,84929,128,0,85275:0:0:0:0:
448,192,84929,128,0,85275:0:0:0:0:
64,192,85275,128,0,85621:0:0:0:0:
192,192,85275,128,0,85621:0:0:0:0:
320,192,85621,128,0,86082:0:0:0:0:
448,192,85621,128,0,86082:0:0:0:0:
192,192,86082,1,0,0:0:0:0:
192,192,86198,1,0,0:0:0:0:
64,192,86198,1,0,0:0:0:0:
320,192,86313,1,0,0:0:0:0:
448,192,86313,1,0,0:0:0:0:
320,192,86544,1,0,0:0:0:0:
192,192,86544,1,0,0:0:0:0:
320,192,86659,1,0,0:0:0:0:
192,192,86659,1,0,0:0:0:0:
320,192,86775,1,0,0:0:0:0:
192,192,86775,1,0,0:0:0:0:
320,192,87006,1,0,0:0:0:0:
64,192,87236,1,0,0:0:0:0:
448,192,87467,128,0,88159:0:0:0:0:
64,192,87467,128,0,88159:0:0:0:0:
320,192,87929,1,0,0:0:0:0:
192,192,88159,1,0,0:0:0:0:
448,192,88390,128,0,90352:0:0:0:0:
64,192,88390,128,0,90352:0:0:0:0:
192,192,89313,1,0,0:0:0:0:
320,192,89313,1,0,0:0:0:0:
320,192,89429,1,0,0:0:0:0:
192,192,89429,1,0,0:0:0:0:
192,192,89544,1,0,0:0:0:0:
320,192,89544,1,0,0:0:0:0:
320,192,89659,1,0,0:0:0:0:
192,192,89659,1,0,0:0:0:0:
320,192,89775,1,0,0:0:0:0:
192,192,89775,1,0,0:0:0:0:
320,192,89890,1,0,0:0:0:0:
192,192,89890,1,0,0:0:0:0:
320,192,90006,1,0,0:0:0:0:
192,192,90006,1,0,0:0:0:0:
192,192,90121,1,0,0:0:0:0:
320,192,90121,1,0,0:0:0:0:
320,192,90236,1,0,0:0:0:0:
192,192,90236,1,0,0:0:0:0:
192,192,90352,128,0,90929:0:0:0:0:
320,192,90352,128,0,90929:0:0:0:0:
448,192,91390,1,0,0:0:0:0:
192,192,91390,1,0,0:0:0:0:
448,192,91621,1,0,0:0:0:0:
192,192,91621,1,0,0:0:0:0:
320,192,91852,1,0,0:0:0:0:
64,192,91852,1,0,0:0:0:0:
320,192,92082,1,0,0:0:0:0:
64,192,92082,1,0,0:0:0:0:
192,192,92313,128,0,94159:0:0:0:0:
320,192,92659,128,0,94159:0:0:0:0:
448,192,93006,128,0,94159:0:0:0:0:
64,192,93467,1,0,0:0:0:0:
64,192,93698,128,0,94159:0:0:0:0:
448,192,94390,1,0,0:0:0:0:
320,192,94621,1,0,0:0:0:0:
192,192,94852,1,0,0:0:0:0:
64,192,95082,1,0,0:0:0:0:
192,192,95313,1,0,0:0:0:0:
320,192,95544,1,0,0:0:0:0:
448,192,95775,1,0,0:0:0:0:
320,192,96006,128,0,97852:0:0:0:0:
64,192,96698,128,0,97852:0:0:0:0:
448,192,97159,128,0,97390:0:0:0:0:
192,192,97390,1,0,0:0:0:0:
192,192,97506,1,0,0:0:0:0:
192,192,97621,1,0,0:0:0:0:
192,192,97736,1,0,0:0:0:0:
448,192,97852,128,0,98313:0:0:0:0:
192,192,97852,128,0,98313:0:0:0:0:
320,192,98313,128,0,98775:0:0:0:0:
64,192,98313,128,0,98775:0:0:0:0:
448,192,98775,1,0,0:0:0:0:
192,192,98775,128,0,100159:0:0:0:0:
448,192,99006,1,0,0:0:0:0:
320,192,99006,128,0,100159:0:0:0:0:
64,192,99236,1,0,0:0:0:0:
64,192,99467,1,0,0:0:0:0:
448,192,99467,128,0,100159:0:0:0:0:
64,192,99698,1,0,0:0:0:0:
64,192,100159,128,0,100621:0:0:0:0:
192,192,100621,1,0,0:0:0:0:
448,192,100621,1,0,0:0:0:0:
192,192,101082,1,0,0:0:0:0:
320,192,101082,1,0,0:0:0:0:
448,192,101544,1,0,0:0:0:0:
192,192,101544,1,0,0:0:0:0:
64,192,102006,1,0,0:0:0:0:
448,192,102006,1,0,0:0:0:0:
448,192,102467,1,0,0:0:0:0:
192,192,102467,1,0,0:0:0:0:
448,192,102698,1,0,0:0:0:0:
320,192,102698,1,0,0:0:0:0:
192,192,102698,1,0,0:0:0:0:
64,192,102698,1,0,0:0:0:0:
448,192,102929,1,0,0:0:0:0:
64,192,102929,1,0,0:0:0:0:
192,192,102929,1,0,0:0:0:0:
320,192,102929,1,0,0:0:0:0:
192,192,103390,1,0,0:0:0:0:
448,192,103390,1,0,0:0:0:0:
320,192,103621,1,0,0:0:0:0:
64,192,103621,1,0,0:0:0:0:
448,192,103852,1,0,0:0:0:0:
192,192,103852,1,0,0:0:0:0:
320,192,104082,1,0,0:0:0:0:
64,192,104082,1,0,0:0:0:0:
192,192,104313,1,0,0:0:0:0:
448,192,104313,1,0,0:0:0:0:
448,192,104544,1,0,0:0:0:0:
192,192,104544,1,0,0:0:0:0:
448,192,104775,1,0,0:0:0:0:
192,192,104775,1,0,0:0:0:0:
448,192,105006,1,0,0:0:0:0:
192,192,105006,1,0,0:0:0:0:
192,192,105236,128,0,105698:0:0:0:0:
320,192,105698,128,0,108467:0:0:0:0:
448,192,105698,1,0,0:0:0:0:
448,192,106159,128,0,106621:0:0:0:0:
64,192,106390,1,0,0:0:0:0:
192,192,106621,1,0,0:0:0:0:
448,192,106852,128,0,107429:0:0:0:0:
64,192,107082,1,0,0:0:0:0:
192,192,107429,1,0,0:0:0:0:
64,192,107775,1,0,0:0:0:0:
448,192,107775,128,0,108236:0:0:0:0:
192,192,108236,1,0,0:0:0:0:
64,192,108467,128,0,108929:0:0:0:0:
448,192,108467,128,0,108929:0:0:0:0:
192,192,108467,128,0,108929:0:0:0:0:
192,192,109159,1,0,0:0:0:0:
320,192,109159,1,0,0:0:0:0:
448,192,109390,1,0,0:0:0:0:
192,192,109390,1,0,0:0:0:0:
320,192,109390,1,0,0:0:0:0:
448,192,109621,1,0,0:0:0:0:
64,192,109621,1,0,0:0:0:0:
192,192,109621,1,0,0:0:0:0:
448,192,109852,1,0,0:0:0:0:
64,192,109852,1,0,0:0:0:0:
192,192,109852,1,0,0:0:0:0:
448,192,110082,1,0,0:0:0:0:
192,192,110082,1,0,0:0:0:0:
64,192,110082,1,0,0:0:0:0:
192,192,110313,128,0,110544:0:0:0:0:
320,192,110544,128,0,110775:0:0:0:0:
192,192,110775,128,0,111698:0:0:0:0:
320,192,111236,128,0,111467:0:0:0:0:
448,192,111929,1,0,0:0:0:0:
192,192,112159,1,0,0:0:0:0:
320,192,112159,1,0,0:0:0:0:
448,192,112159,1,0,0:0:0:0:
64,192,112159,1,0,0:0:0:0:
448,192,112275,1,0,0:0:0:0:
192,192,112275,1,0,0:0:0:0:
64,192,112275,1,0,0:0:0:0:
320,192,112275,1,0,0:0:0:0:
192,192,112390,1,0,0:0:0:0:
448,192,112390,1,0,0:0:0:0:
64,192,112390,1,0,0:0:0:0:
320,192,112390,1,0,0:0:0:0:
448,192,112506,1,0,0:0:0:0:
320,192,112506,1,0,0:0:0:0:
192,192,112506,1,0,0:0:0:0:
64,192,112506,1,0,0:0:0:0:
64,192,112621,128,0,113082:0:0:0:0:
192,192,112621,128,0,113082:0:0:0:0:
320,192,112621,128,0,113082:0:0:0:0:
448,192,112621,128,0,113082:0:0:0:0:
192,192,113544,128,0,113775:0:0:0:0:
320,192,113775,128,0,114006:0:0:0:0:
448,192,114006,128,0,114236:0:0:0:0:
320,192,114236,128,0,114467:0:0:0:0:
192,192,114467,128,0,114929:0:0:0:0:
448,192,114929,1,0,0:0:0:0:
64,192,114929,128,0,115390:0:0:0:0:
320,192,114929,128,0,115390:0:0:0:0:
192,192,115390,128,0,115852:0:0:0:0:
448,192,115390,128,0,115852:0:0:0:0:
320,192,115852,128,0,116313:0:0:0:0:
64,192,115852,128,0,116313:0:0:0:0:
448,192,116313,1,0,0:0:0:0:
192,192,116544,1,0,0:0:0:0:
448,192,116544,1,0,0:0:0:0:
448,192,116775,1,0,0:0:0:0:
192,192,116775,1,0,0:0:0:0:
448,192,117006,1,0,0:0:0:0:
192,192,117006,1,0,0:0:0:0:
64,192,117236,1,0,0:0:0:0:
320,192,117236,1,0,0:0:0:0:
192,192,117467,1,0,0:0:0:0:
448,192,117467,1,0,0:0:0:0:
320,192,117698,128,0,121390:0:0:0:0:
64,192,118159,128,0,121390:0:0:0:0:
448,192,118621,128,0,119544:0:0:0:0:
192,192,119082,128,0,121390:0:0:0:0:
64,192,121852,1,0,0:0:0:0:
448,192,121852,1,0,0:0:0:0:
64,192,122082,1,0,0:0:0:0:
448,192,122082,1,0,0:0:0:0:
448,192,122313,1,0,0:0:0:0:
64,192,122313,1,0,0:0:0:0:
192,192,122544,1,0,0:0:0:0:
320,192,122544,1,0,0:0:0:0:
448,192,122775,1,0,0:0:0:0:
64,192,122775,1,0,0:0:0:0:
320,192,123006,1,0,0:0:0:0:
192,192,123006,1,0,0:0:0:0:
448,192,123236,1,0,0:0:0:0:
64,192,123236,1,0,0:0:0:0:
320,192,123467,128,0,124390:0:0:0:0:
192,192,123467,128,0,124390:0:0:0:0:
448,192,123698,1,0,0:0:0:0:
64,192,123698,1,0,0:0:0:0:
448,192,123929,1,0,0:0:0:0:
64,192,123929,1,0,0:0:0:0:
448,192,124159,1,0,0:0:0:0:
64,192,124159,1,0,0:0:0:0:
448,192,124390,128,0,125544:0:0:0:0:
64,192,124390,128,0,125544:0:0:0:0:
320,192,124621,1,0,0:0:0:0:
192,192,124852,1,0,0:0:0:0:
320,192,125082,1,0,0:0:0:0:
192,192,125313,1,0,0:0:0:0:
320,192,125544,1,0,0:0:0:0:
448,192,125775,1,0,0:0:0:0:
320,192,126006,1,0,0:0:0:0:
192,192,126236,1,0,0:0:0:0:
64,192,126467,1,0,0:0:0:0:
192,192,126698,1,0,0:0:0:0:
320,192,126929,1,0,0:0:0:0:
448,192,127159,1,0,0:0:0:0:
320,192,127390,1,0,0:0:0:0:
192,192,127621,1,0,0:0:0:0:
320,192,127852,1,0,0:0:0:0:
192,192,128082,1,0,0:0:0:0:
448,192,128082,128,0,129006:0:0:0:0:
64,192,128082,128,0,128775:0:0:0:0:
320,192,128082,1,0,0:0:0:0:
320,192,128313,1,0,0:0:0:0:
192,192,128313,1,0,0:0:0:0:
320,192,128544,1,0,0:0:0:0:
192,192,128544,1,0,0:0:0:0:
64,192,129006,1,0,0:0:0:0:
448,192,129236,1,0,0:0:0:0:
320,192,129352,1,0,0:0:0:0:
192,192,129467,1,0,0:0:0:0:
64,192,129698,128,0,129929:0:0:0:0:
192,192,130159,1,0,0:0:0:0:
320,192,130275,1,0,0:0:0:0:
448,192,130390,1,0,0:0:0:0:
64,192,130621,128,0,130852:0:0:0:0:
320,192,131082,1,0,0:0:0:0:
448,192,131198,1,0,0:0:0:0:
320,192,131313,1,0,0:0:0:0:
64,192,131544,128,0,131775:0:0:0:0:
192,192,131544,128,0,131775:0:0:0:0:
448,192,132006,1,0,0:0:0:0:
320,192,132121,1,0,0:0:0:0:
192,192,132236,1,0,0:0:0:0:
64,192,132467,128,0,132698:0:0:0:0:
448,192,132467,128,0,132698:0:0:0:0:
192,192,132929,1,0,0:0:0:0:
320,192,133044,1,0,0:0:0:0:
192,192,133159,1,0,0:0:0:0:
64,192,133390,1,0,0:0:0:0:
320,192,133621,1,0,0:0:0:0:
448,192,133852,1,0,0:0:0:0:
320,192,133967,1,0,0:0:0:0:
192,192,134082,1,0,0:0:0:0:
448,192,134313,128,0,134775:0:0:0:0:
320,192,134544,128,0,134890:0:0:0:0:
192,192,134544,128,0,135006:0:0:0:0:
448,192,134775,1,0,0:0:0:0:
64,192,135006,128,0,136390:0:0:0:0:
448,192,135236,1,0,0:0:0:0:
192,192,135467,1,0,0:0:0:0:
192,192,135698,1,0,0:0:0:0:
320,192,135813,1,0,0:0:0:0:
448,192,135929,1,0,0:0:0:0:
320,192,136159,1,0,0:0:0:0:
192,192,136159,128,0,136736:0:0:0:0:
448,192,136159,1,0,0:0:0:0:
320,192,136390,1,0,0:0:0:0:
448,192,136390,1,0,0:0:0:0:
320,192,136621,1,0,0:0:0:0:
320,192,136736,1,0,0:0:0:0:
320,192,136852,1,0,0:0:0:0:
320,192,137082,1,0,0:0:0:0:
64,192,137082,1,0,0:0:0:0:
320,192,137313,1,0,0:0:0:0:
64,192,137313,128,0,138006:0:0:0:0:
448,192,137544,1,0,0:0:0:0:
320,192,137659,1,0,0:0:0:0:
192,192,137775,1,0,0:0:0:0:
320,192,138006,128,0,138582:0:0:0:0:
192,192,138236,128,0,138929:0:0:0:0:
448,192,138467,1,0,0:0:0:0:
320,192,138582,1,0,0:0:0:0:
320,192,138929,1,0,0:0:0:0:
64,192,138929,128,0,139159:0:0:0:0:
448,192,138929,1,0,0:0:0:0:
448,192,139159,1,0,0:0:0:0:
192,192,139159,128,0,139506:0:0:0:0:
320,192,139159,1,0,0:0:0:0:
448,192,139390,1,0,0:0:0:0:
64,192,139506,128,0,139852:0:0:0:0:
448,192,139506,1,0,0:0:0:0:
448,192,139621,1,0,0:0:0:0:
320,192,139852,1,0,0:0:0:0:
192,192,139852,1,0,0:0:0:0:
64,192,140082,1,0,0:0:0:0:
448,192,140082,1,0,0:0:0:0:
448,192,140313,1,0,0:0:0:0:
64,192,140313,1,0,0:0:0:0:
448,192,140429,1,0,0:0:0:0:
64,192,140429,1,0,0:0:0:0:
448,192,140544,1,0,0:0:0:0:
64,192,140544,1,0,0:0:0:0:
320,192,140775,1,0,0:0:0:0:
192,192,140775,1,0,0:0:0:0:
320,192,141006,1,0,0:0:0:0:
192,192,141006,1,0,0:0:0:0:
448,192,141236,1,0,0:0:0:0:
64,192,141236,1,0,0:0:0:0:
320,192,141352,1,0,0:0:0:0:
192,192,141352,1,0,0:0:0:0:
448,192,141467,1,0,0:0:0:0:
64,192,141467,1,0,0:0:0:0:
320,192,141698,1,0,0:0:0:0:
192,192,141698,1,0,0:0:0:0:
320,192,141929,1,0,0:0:0:0:
192,192,141929,1,0,0:0:0:0:
448,192,142159,1,0,0:0:0:0:
320,192,142275,1,0,0:0:0:0:
192,192,142390,1,0,0:0:0:0:
448,192,142621,128,0,142852:0:0:0:0:
64,192,142621,128,0,142852:0:0:0:0:
64,192,143082,1,0,0:0:0:0:
192,192,143198,1,0,0:0:0:0:
320,192,143313,1,0,0:0:0:0:
192,192,143544,128,0,143775:0:0:0:0:
320,192,143544,128,0,143775:0:0:0:0:
448,192,143544,128,0,143775:0:0:0:0:
64,192,143544,128,0,143775:0:0:0:0:
448,192,144006,1,0,0:0:0:0:
320,192,144121,1,0,0:0:0:0:
192,192,144236,1,0,0:0:0:0:
64,192,144467,1,0,0:0:0:0:
320,192,144467,1,0,0:0:0:0:
192,192,144698,1,0,0:0:0:0:
448,192,144698,1,0,0:0:0:0:
448,192,144929,1,0,0:0:0:0:
320,192,145044,1,0,0:0:0:0:
192,192,145159,1,0,0:0:0:0:
64,192,145390,128,0,145621:0:0:0:0:
192,192,145390,128,0,145621:0:0:0:0:
448,192,145852,1,0,0:0:0:0:
320,192,145967,1,0,0:0:0:0:
192,192,146082,1,0,0:0:0:0:
64,192,146313,1,0,0:0:0:0:
448,192,146313,1,0,0:0:0:0:
448,192,146544,1,0,0:0:0:0:
64,192,146544,1,0,0:0:0:0:
64,192,146775,1,0,0:0:0:0:
448,192,146775,1,0,0:0:0:0:
320,192,147006,1,0,0:0:0:0:
192,192,147006,1,0,0:0:0:0:
320,192,147236,1,0,0:0:0:0:
192,192,147236,1,0,0:0:0:0:
320,192,147467,1,0,0:0:0:0:
192,192,147467,1,0,0:0:0:0:
448,192,147698,1,0,0:0:0:0:
320,192,147813,1,0,0:0:0:0:
192,192,147929,1,0,0:0:0:0:
192,192,148159,1,0,0:0:0:0:
320,192,148159,1,0,0:0:0:0:
448,192,148390,1,0,0:0:0:0:
64,192,148390,1,0,0:0:0:0:
448,192,148621,1,0,0:0:0:0:
320,192,148736,1,0,0:0:0:0:
192,192,148852,1,0,0:0:0:0:
320,192,149082,1,0,0:0:0:0:
192,192,149082,1,0,0:0:0:0:
448,192,149082,1,0,0:0:0:0:
320,192,149313,1,0,0:0:0:0:
448,192,149313,1,0,0:0:0:0:
192,192,149313,1,0,0:0:0:0:
448,192,149544,1,0,0:0:0:0:
320,192,149659,1,0,0:0:0:0:
192,192,149775,1,0,0:0:0:0:
448,192,150006,1,0,0:0:0:0:
64,192,150236,1,0,0:0:0:0:
448,192,150467,1,0,0:0:0:0:
64,192,150698,1,0,0:0:0:0:
448,192,150929,1,0,0:0:0:0:
192,192,151390,1,0,0:0:0:0:
320,192,151390,1,0,0:0:0:0:
192,192,151621,1,0,0:0:0:0:
320,192,151621,1,0,0:0:0:0:
192,192,151852,1,0,0:0:0:0:
320,192,151852,1,0,0:0:0:0:
448,192,152082,1,0,0:0:0:0:
64,192,152313,1,0,0:0:0:0:
320,192,152544,1,0,0:0:0:0:
320,192,152775,1,0,0:0:0:0:
192,192,153006,1,0,0:0:0:0:
448,192,153236,1,0,0:0:0:0:
448,192,153467,1,0,0:0:0:0:
64,192,153698,1,0,0:0:0:0:
320,192,153929,1,0,0:0:0:0:
320,192,154159,1,0,0:0:0:0:
192,192,154390,1,0,0:0:0:0:
448,192,154621,1,0,0:0:0:0:
320,192,154852,1,0,0:0:0:0:
64,192,155082,1,0,0:0:0:0:
448,192,155082,1,0,0:0:0:0:
192,192,155082,1,0,0:0:0:0:
320,192,155082,1,0,0:0:0:0:
192,192,155198,1,0,0:0:0:0:
320,192,155198,1,0,0:0:0:0:
448,192,155198,1,0,0:0:0:0:
64,192,155198,1,0,0:0:0:0:
64,192,155313,1,0,0:0:0:0:
320,192,155313,1,0,0:0:0:0:
448,192,155313,1,0,0:0:0:0:
192,192,155313,1,0,0:0:0:0:
192,192,155429,1,0,0:0:0:0:
320,192,155429,1,0,0:0:0:0:
64,192,155429,1,0,0:0:0:0:
448,192,155429,1,0,0:0:0:0:
448,192,155544,1,0,0:0:0:0:
320,192,155544,1,0,0:0:0:0:
64,192,155544,1,0,0:0:0:0:
192,192,155544,1,0,0:0:0:0:
64,192,155659,1,0,0:0:0:0:
192,192,155659,1,0,0:0:0:0:
320,192,155659,1,0,0:0:0:0:
448,192,155659,1,0,0:0:0:0:
448,192,155775,1,0,0:0:0:0:
320,192,155775,1,0,0:0:0:0:
192,192,155775,1,0,0:0:0:0:
64,192,155775,1,0,0:0:0:0:
320,192,155890,1,0,0:0:0:0:
192,192,155890,1,0,0:0:0:0:
64,192,155890,1,0,0:0:0:0:
448,192,155890,1,0,0:0:0:0:
448,192,156006,1,0,0:0:0:0:
320,192,156006,1,0,0:0:0:0:
192,192,156006,1,0,0:0:0:0:
64,192,156006,1,0,0:0:0:0:
64,192,156121,1,0,0:0:0:0:
320,192,156121,1,0,0:0:0:0:
192,192,156121,1,0,0:0:0:0:
448,192,156121,1,0,0:0:0:0:
448,192,156236,1,0,0:0:0:0:
192,192,156236,1,0,0:0:0:0:
320,192,156236,1,0,0:0:0:0:
64,192,156236,1,0,0:0:0:0:
320,192,156352,1,0,0:0:0:0:
64,192,156352,1,0,0:0:0:0:
192,192,156352,1,0,0:0:0:0:
448,192,156352,1,0,0:0:0:0:
64,192,156467,1,0,0:0:0:0:
448,192,156467,1,0,0:0:0:0:
320,192,156467,1,0,0:0:0:0:
192,192,156467,1,0,0:0:0:0:
192,192,156582,1,0,0:0:0:0:
320,192,156582,1,0,0:0:0:0:
448,192,156582,1,0,0:0:0:0:
64,192,156582,1,0,0:0:0:0:
448,192,156698,1,0,0:0:0:0:
64,192,156698,1,0,0:0:0:0:
192,192,156698,1,0,0:0:0:0:
320,192,156698,1,0,0:0:0:0:
320,192,156813,1,0,0:0:0:0:
192,192,156813,1,0,0:0:0:0:
64,192,156813,1,0,0:0:0:0:
448,192,156813,1,0,0:0:0:0:
448,192,156929,1,0,0:0:0:0:
64,192,156929,1,0,0:0:0:0:
320,192,156929,1,0,0:0:0:0:
192,192,156929,1,0,0:0:0:0:
320,192,157044,1,0,0:0:0:0:
192,192,157044,1,0,0:0:0:0:
64,192,157044,1,0,0:0:0:0:
448,192,157044,1,0,0:0:0:0:
448,192,157159,1,0,0:0:0:0:
64,192,157159,1,0,0:0:0:0:
320,192,157159,1,0,0:0:0:0:
192,192,157159,1,0,0:0:0:0:
320,192,157275,1,0,0:0:0:0:
64,192,157275,1,0,0:0:0:0:
192,192,157275,1,0,0:0:0:0:
448,192,157275,1,0,0:0:0:0:
192,192,157390,1,0,0:0:0:0:
448,192,157390,1,0,0:0:0:0:
320,192,157390,1,0,0:0:0:0:
64,192,157390,1,0,0:0:0:0:
320,192,157506,1,0,0:0:0:0:
192,192,157506,1,0,0:0:0:0:
448,192,157506,1,0,0:0:0:0:
64,192,157506,1,0,0:0:0:0:
448,192,157621,1,0,0:0:0:0:
192,192,157621,1,0,0:0:0:0:
64,192,157621,1,0,0:0:0:0:
320,192,157621,1,0,0:0:0:0:
64,192,157736,1,0,0:0:0:0:
320,192,157736,1,0,0:0:0:0:
192,192,157736,1,0,0:0:0:0:
448,192,157736,1,0,0:0:0:0:
448,192,157852,1,0,0:0:0:0:
192,192,157852,1,0,0:0:0:0:
320,192,157852,1,0,0:0:0:0:
64,192,157852,1,0,0:0:0:0:
448,192,157967,1,0,0:0:0:0:
320,192,157967,1,0,0:0:0:0:
192,192,157967,1,0,0:0:0:0:
64,192,157967,1,0,0:0:0:0:
64,192,158082,1,0,0:0:0:0:
448,192,158082,1,0,0:0:0:0:
192,192,158082,1,0,0:0:0:0:
320,192,158082,1,0,0:0:0:0:
192,192,158198,1,0,0:0:0:0:
448,192,158198,1,0,0:0:0:0:
320,192,158198,1,0,0:0:0:0:
64,192,158198,1,0,0:0:0:0:
64,192,158313,1,0,0:0:0:0:
448,192,158313,1,0,0:0:0:0:
192,192,158313,1,0,0:0:0:0:
320,192,158313,1,0,0:0:0:0:
64,192,160159,1,0,0:0:0:0:
448,192,160159,1,0,0:0:0:0:
192,192,160159,1,0,0:0:0:0:
320,192,160159,1,0,0:0:0:0:
