osu file format v14

[General]
AudioFilename: audio.mp3
AudioLeadIn: 0
PreviewTime: 140816
Countdown: 1
SampleSet: Soft
StackLeniency: 0.7
Mode: 0
LetterboxInBreaks: 0
WidescreenStoryboard: 1

[Editor]
Bookmarks: 79376,136496,160278
DistanceSpacing: 1
BeatDivisor: 4
GridSize: 16
TimelineZoom: 2.2

[Metadata]
Title:Loner
TitleUnicode:외톨이
Artist:Outsider
ArtistUnicode:Outsider
Creator:quickly die
Version:Extra
Source:
Tags:
BeatmapID:2525648
BeatmapSetID:1032856

[Difficulty]
HPDrainRate:5
CircleSize:4
OverallDifficulty:9
ApproachRate:9.2
SliderMultiplier:2.80000000596046
SliderTickRate:1

[Events]
//Background and Video events
0,0,"outsider.jpg",0,0
//Break Periods
2,93976,108566
2,139936,141206
//Storyboard Layer 0 (Background)
//Storyboard Layer 1 (Fail)
//Storyboard Layer 2 (Pass)
//Storyboard Layer 3 (Foreground)
//Storyboard Layer 4 (Overlay)
//Storyboard Sound Samples

[TimingPoints]
32336,480,4,2,0,60,1,0
32336,-100,4,2,0,60,0,0
38096,-100,4,2,0,75,0,0
40016,-100,4,2,0,60,0,0
45776,-100,4,2,0,75,0,0
47696,-100,4,2,0,60,0,0
74576,-66.6666666666667,4,2,0,60,0,0
78416,-100,4,2,0,60,0,0
86096,-100,4,2,0,60,0,0
93776,-100,4,2,0,60,0,0
138056,-80,4,2,0,60,0,0
138416,-83.3333333333333,4,2,0,70,0,0
138656,-83.3333333333333,4,2,0,75,0,0
138896,-83.3333333333333,4,2,0,85,0,0
139136,-83.3333333333333,4,2,0,90,0,0
139376,-83.3333333333333,4,2,0,95,0,0
139856,-133.333333333333,4,2,0,30,0,0
141776,-80,4,2,0,90,0,0
149456,-80,4,2,0,90,0,0
157136,-80,4,2,0,90,0,0
164816,-80,4,2,0,90,0,0
172496,-100,4,2,0,90,0,0

[Colours]
Combo1 : 255,128,255
Combo2 : 128,255,0
Combo3 : 255,255,0
Combo4 : 128,255,255

[HitObjects]
167,221,32336,6,0,P|161:154|180:85,1,140.000000298023,4|0,0:0|0:0,0:0:0:0:
234,39,32696,1,0,0:0:0:0:
303,46,32816,1,8,0:0:0:0:
312,79,32936,1,0,0:0:0:0:
365,124,33056,1,0,0:0:0:0:
434,112,33176,1,0,0:0:0:0:
442,181,33296,5,2,0:0:0:0:
475,172,33416,1,0,0:0:0:0:
452,238,33536,1,0,0:0:0:0:
387,265,33656,1,0,0:0:0:0:
319,248,33776,2,0,P|322:173|339:98,2,140.000000298023,8|0|0,0:0|0:0|0:0,0:0:0:0:
259,304,34376,5,0,0:0:0:0:
196,298,34496,1,0,0:0:0:0:
141,329,34616,1,0,0:0:0:0:
78,318,34736,2,0,P|83:285|89:247,1,70.0000001490115,8|0,0:0|0:0,0:0:0:0:
37,29,34976,2,0,P|48:62|59:98,1,70.0000001490115
115,162,35216,5,2,0:0:0:0:
161,166,35336,1,0,0:0:0:0:
207,171,35456,1,0,0:0:0:0:
254,176,35576,1,0,0:0:0:0:
301,242,35696,2,0,P|305:280|292:317,1,70.0000001490115,8|0,0:0|0:0,0:0:0:0:
275,95,35936,2,0,P|272:55|284:20,1,70.0000001490115
173,115,36176,5,2,0:0:0:0:
81,198,36296,2,0,P|86:124|107:59,1,140.000000298023
175,251,36656,1,8,0:0:0:0:
267,334,36776,2,0,P|262:260|241:195,1,140.000000298023
350,69,37136,5,2,0:0:0:0:
328,133,37256,1,0,0:0:0:0:
366,188,37376,1,0,0:0:0:0:
433,192,37496,1,0,0:0:0:0:
477,141,37616,2,0,P|473:55|456:-4,1,140.000000298023,8|0,0:0|0:0,0:0:0:0:
293,45,38096,5,2,0:0:0:0:
236,56,38216,1,0,0:0:0:0:
186,86,38336,1,0,0:0:0:0:
147,129,38456,1,0,0:0:0:0:
221,176,38576,5,8,0:0:0:0:
203,199,38696,1,0,0:0:0:0:
182,219,38816,1,0,0:0:0:0:
158,235,38936,1,0,0:0:0:0:
88,288,39056,5,2,0:0:0:0:
130,279,39176,1,0,0:0:0:0:
174,281,39296,1,0,0:0:0:0:
216,292,39416,1,0,0:0:0:0:
274,350,39536,6,0,P|294:314|298:278,1,70.0000001490115,8|0,0:0|0:0,0:0:0:0:
271,214,39776,1,0,0:0:0:0:
456,127,40016,6,0,P|381:131|310:120,1,140.000000298023,4|0,0:0|0:0,0:0:0:0:
284,58,40376,1,0,0:0:0:0:
220,29,40496,1,0,0:0:0:0:
201,58,40616,1,0,0:0:0:0:
134,80,40736,1,0,0:0:0:0:
75,41,40856,1,0,0:0:0:0:
38,100,40976,5,2,0:0:0:0:
60,126,41096,1,0,0:0:0:0:
25,186,41216,1,0,0:0:0:0:
47,252,41336,1,0,0:0:0:0:
108,219,41456,2,0,P|180:210|251:215,2,140.000000298023,8|0|0,0:0|0:0|0:0,0:0:0:0:
121,292,42056,5,0,0:0:0:0:
170,341,42176,1,0,0:0:0:0:
239,345,42296,1,0,0:0:0:0:
291,298,42416,2,0,P|326:294|365:296,1,70.0000001490115,8|0,0:0|0:0,0:0:0:0:
482,190,42656,2,0,P|447:186|408:188,1,70.0000001490115
317,211,42896,5,2,0:0:0:0:
319,164,43016,1,0,0:0:0:0:
322,117,43136,1,0,0:0:0:0:
325,71,43256,1,0,0:0:0:0:
386,20,43376,2,0,P|422:28|464:21,1,70.0000001490115,8|0,0:0|0:0,0:0:0:0:
246,51,43616,2,0,P|208:44|168:50,1,70.0000001490115
105,109,43856,5,2,0:0:0:0:
188,201,43976,2,0,P|114:196|49:175,1,140.000000298023
251,153,44336,1,8,0:0:0:0:
343,236,44456,2,0,P|338:162|317:97,1,140.000000298023
109,277,44816,5,2,0:0:0:0:
158,232,44936,1,0,0:0:0:0:
221,254,45056,1,0,0:0:0:0:
232,319,45176,1,0,0:0:0:0:
179,360,45296,2,0,P|113:367|26:348,1,140.000000298023,8|0,0:0|0:0,0:0:0:0:
174,264,45776,5,2,0:0:0:0:
223,233,45896,1,0,0:0:0:0:
264,192,46016,1,0,0:0:0:0:
295,142,46136,1,0,0:0:0:0:
244,65,46256,5,8,0:0:0:0:
270,54,46376,1,0,0:0:0:0:
299,50,46496,1,0,0:0:0:0:
328,55,46616,1,0,0:0:0:0:
411,42,46736,5,2,0:0:0:0:
393,81,46856,1,0,0:0:0:0:
382,124,46976,1,0,0:0:0:0:
379,167,47096,1,0,0:0:0:0:
383,211,47216,1,8,0:0:0:0:
427,286,47336,6,0,P|457:254|467:213,2,70.0000001490115
314,337,47696,6,0,B|316:269|316:269|300:196,1,140.000000298023,4|0,0:0|0:0,0:0:0:0:
232,215,48056,1,0,0:0:0:0:
188,160,48176,1,8,0:0:0:0:
196,140,48296,1,0,0:0:0:0:
144,92,48416,1,0,0:0:0:0:
152,72,48536,1,0,0:0:0:0:
213,38,48656,6,0,B|243:56|243:56|285:58,1,70.0000001490115,2|0,0:0|0:0,0:0:0:0:
295,125,48896,2,0,P|337:85|427:68,1,140.000000298023,2|8,0:0|0:0,0:0:0:0:
455,126,49256,1,0,0:0:0:0:
438,156,49376,1,0,0:0:0:0:
407,172,49496,1,0,0:0:0:0:
321,147,49616,6,0,B|319:183|319:183|328:219,1,70.0000001490115,2|0,0:0|0:0,0:0:0:0:
435,347,49856,2,0,B|438:310|438:310|428:275,1,70.0000001490115
257,263,50096,1,8,0:0:0:0:
187,260,50216,1,0,0:0:0:0:
184,329,50336,1,0,0:0:0:0:
254,332,50456,1,0,0:0:0:0:
227,192,50576,6,0,B|157:174|80:195,2,140.000000298023,2|2|8,0:0|0:0|0:0,0:0:0:0:
297,223,51176,1,0,0:0:0:0:
293,153,51296,1,0,0:0:0:0:
338,99,51416,1,0,0:0:0:0:
324,63,51536,6,0,B|217:57|217:57|184:69,1,140.000000298023,2|0,0:0|0:0,0:0:0:0:
179,88,51896,1,0,0:0:0:0:
89,189,52016,2,0,L|98:101,1,70.0000001490115,8|0,0:0|0:0,0:0:0:0:
42,326,52256,2,0,L|51:238,1,70.0000001490115
127,260,52496,5,2,0:0:0:0:
162,350,52616,1,0,0:0:0:0:
217,308,52736,1,0,0:0:0:0:
285,304,52856,1,0,0:0:0:0:
345,339,52976,2,0,B|380:345|380:345|416:340,1,70.0000001490115,8|0,0:0|0:0,0:0:0:0:
460,189,53216,2,0,B|425:183|425:183|389:188,1,70.0000001490115
403,263,53456,5,2,0:0:0:0:
406,78,53576,1,0,0:0:0:0:
374,94,53696,1,0,0:0:0:0:
350,120,53816,1,0,0:0:0:0:
297,73,53936,5,8,0:0:0:0:
279,103,54056,1,0,0:0:0:0:
271,137,54176,1,0,0:0:0:0:
271,172,54296,1,0,0:0:0:0:
304,233,54416,5,2,0:0:0:0:
269,225,54536,1,0,0:0:0:0:
234,225,54656,1,0,0:0:0:0:
199,233,54776,1,0,0:0:0:0:
161,310,54896,6,0,B|167:345|167:345|184:379,1,70.0000001490115,8|0,0:0|0:0,0:0:0:0:
178,157,55136,2,0,B|172:122|172:122|155:88,1,70.0000001490115
47,147,55376,5,2,0:0:0:0:
81,154,55496,1,0,0:0:0:0:
112,216,55616,1,0,0:0:0:0:
146,223,55736,1,0,0:0:0:0:
193,274,55856,2,0,L|270:286,1,70.0000001490115,8|0,0:0|0:0,0:0:0:0:
471,256,56096,5,0,0:0:0:0:
403,236,56216,1,0,0:0:0:0:
459,277,56336,1,2,0:0:0:0:
422,217,56456,2,0,P|387:146|369:84,1,140.000000298023
258,37,56816,5,8,0:0:0:0:
202,79,56936,1,0,0:0:0:0:
243,135,57056,1,0,0:0:0:0:
299,93,57176,1,0,0:0:0:0:
254,88,57296,5,2,0:0:0:0:
254,88,57416,1,0,0:0:0:0:
210,142,57536,1,0,0:0:0:0:
278,154,57656,1,0,0:0:0:0:
235,215,57776,5,8,0:0:0:0:
235,215,57896,1,0,0:0:0:0:
244,284,58016,1,0,0:0:0:0:
209,345,58136,1,0,0:0:0:0:
114,339,58256,5,2,0:0:0:0:
155,282,58376,1,0,0:0:0:0:
223,267,58496,1,0,0:0:0:0:
292,277,58616,1,0,0:0:0:0:
331,355,58736,5,8,0:0:0:0:
399,367,58856,2,0,P|399:329|385:214,1,140.000000298023
253,57,59216,5,2,0:0:0:0:
286,48,59336,1,0,0:0:0:0:
346,83,59456,2,0,B|392:68|392:68|411:54,1,70.0000001490115
231,171,59696,5,10,0:0:0:0:
174,82,59816,1,2,0:0:0:0:
231,171,59936,1,2,0:0:0:0:
174,82,60056,1,2,0:0:0:0:
88,355,60176,5,2,0:0:0:0:
79,322,60296,1,0,0:0:0:0:
114,262,60416,2,0,B|98:214|98:214|99:195,1,70.0000001490115
216,252,60656,5,10,0:0:0:0:
207,342,60776,1,2,0:0:0:0:
297,353,60896,1,2,0:0:0:0:
306,263,61016,1,2,0:0:0:0:
168,140,61136,5,2,0:0:0:0:
202,145,61256,1,0,0:0:0:0:
246,124,61376,1,0,0:0:0:0:
280,129,61496,1,0,0:0:0:0:
323,184,61616,5,8,0:0:0:0:
392,173,61736,1,0,0:0:0:0:
423,110,61856,1,0,0:0:0:0:
405,42,61976,1,0,0:0:0:0:
340,13,62096,5,2,0:0:0:0:
334,35,62216,1,0,0:0:0:0:
332,58,62336,1,0,0:0:0:0:
334,82,62456,1,0,0:0:0:0:
377,171,62576,6,0,P|385:209|384:247,1,70.0000001490115,8|0,0:0|0:0,0:0:0:0:
320,357,62816,2,0,P|309:292|304:212,1,140.000000298023,0|2,0:0|0:0,0:0:0:0:
308,205,63176,5,0,0:0:0:0:
263,116,63296,2,0,P|227:109|194:108,1,70.0000001490115
96,152,63536,1,8,0:0:0:0:
60,91,63656,1,0,0:0:0:0:
96,152,63776,2,0,P|101:192|100:229,1,70.0000001490115
183,353,64016,5,2,0:0:0:0:
197,300,64096,1,0,0:0:0:0:
173,257,64176,1,0,0:0:0:0:
175,233,64256,2,0,P|208:228|247:227,1,70.0000001490115
405,165,64496,1,8,0:0:0:0:
452,88,64616,2,0,B|380:117|326:54|234:90,1,210.000000447034,0|2,0:0|0:0,0:0:0:0:
176,164,65096,6,0,B|161:133|161:133|164:98,1,70.0000001490115
241,238,65336,1,0,0:0:0:0:
119,327,65456,2,0,B|155:334|155:334|193:323,1,70.0000001490115,8|0,0:0|0:0,0:0:0:0:
377,169,65696,2,0,B|341:162|341:162|303:173,1,70.0000001490115
315,357,65936,5,2,0:0:0:0:
318,322,66056,1,0,0:0:0:0:
391,308,66176,1,0,0:0:0:0:
376,276,66296,1,0,0:0:0:0:
438,230,66416,1,8,0:0:0:0:
409,209,66536,1,0,0:0:0:0:
433,139,66656,1,0,0:0:0:0:
397,136,66776,1,0,0:0:0:0:
429,63,66896,6,0,B|392:58|392:58|350:69,1,70.0000001490115,2|0,0:0|0:0,0:0:0:0:
301,114,67136,1,0,0:0:0:0:
238,82,67256,1,0,0:0:0:0:
176,49,67376,1,8,0:0:0:0:
134,129,67496,5,0,0:0:0:0:
143,162,67616,1,0,0:0:0:0:
153,195,67736,1,0,0:0:0:0:
83,256,67856,5,2,0:0:0:0:
112,285,67976,1,0,0:0:0:0:
152,296,68096,1,0,0:0:0:0:
193,288,68216,1,0,0:0:0:0:
225,262,68336,5,8,0:0:0:0:
284,328,68456,2,0,B|262:277|299:173|254:112,1,210.000000447034,0|2,0:0|0:0,0:0:0:0:
249,114,68936,5,0,0:0:0:0:
138,28,69056,2,0,P|131:70|134:106,1,70.0000001490115
184,352,69296,2,0,P|189:307|186:249,1,93.3333335320153,8|0,0:0|0:0,0:0:0:0:
117,223,69536,2,0,P|91:224|69:219,2,46.6666667660077
183,178,69776,5,2,0:0:0:0:
217,186,69896,1,0,0:0:0:0:
278,151,70016,1,0,0:0:0:0:
345,168,70136,1,0,0:0:0:0:
384,225,70256,5,8,0:0:0:0:
319,295,70376,2,0,B|311:229|337:156|311:79,1,210.000000447034,0|2,0:0|0:0,0:0:0:0:
180,39,70856,5,0,0:0:0:0:
237,79,70976,1,2,0:0:0:0:
243,113,71096,1,2,0:0:0:0:
149,209,71216,2,0,B|181:193|181:193|218:203,1,70.0000001490115,10|0,0:0|0:0,0:0:0:0:
304,333,71456,2,0,B|272:349|272:349|235:339,1,70.0000001490115
128,311,71696,5,0,0:0:0:0:
191,281,71816,1,0,0:0:0:0:
260,275,71936,1,2,0:0:0:0:
273,242,72056,1,2,0:0:0:0:
342,247,72176,5,10,0:0:0:0:
333,177,72296,1,0,0:0:0:0:
351,109,72416,1,0,0:0:0:0:
384,99,72536,1,0,0:0:0:0:
431,224,72656,6,0,B|441:191|441:191|431:155,1,70.0000001490115
251,21,72896,2,0,B|241:54|241:54|251:90,1,70.0000001490115,2|2,0:0|0:0,0:0:0:0:
294,152,73136,1,10,0:0:0:0:
231,181,73256,1,2,0:0:0:0:
162,172,73376,1,2,0:0:0:0:
109,128,73496,1,2,0:0:0:0:
189,83,73616,6,0,B|167:145|191:263|149:307,1,210.000000447034,2|0,0:0|0:0,0:0:0:0:
83,284,74096,1,8,0:0:0:0:
41,258,74216,1,0,0:0:0:0:
18,199,74336,1,0,0:0:0:0:
27,119,74456,1,0,0:0:0:0:
94,62,74576,6,0,P|258:68|304:66,1,210.000008457899,4|0,0:0|0:0,0:0:0:0:
303,66,74936,1,0,0:0:0:0:
278,273,75056,2,0,P|371:303|427:223,1,210.000008457899,8|0,0:0|0:0,0:0:0:0:
327,185,75416,1,0,0:0:0:0:
398,86,75536,6,0,P|401:41|398:12,2,70.0000028192997,2|0|0,0:0|0:0|0:0,0:0:0:0:
470,168,75776,2,0,P|465:224|469:272,1,105.00000422895
368,349,76016,1,8,0:0:0:0:
297,329,76136,1,0,0:0:0:0:
317,258,76256,1,0,0:0:0:0:
388,278,76376,1,0,0:0:0:0:
155,344,76496,6,0,P|223:302|201:185,1,210.000008457899,4|0,0:0|0:0,0:0:0:0:
115,244,76856,1,0,0:0:0:0:
69,26,76976,2,0,P|51:117|43:239,1,210.000008457899,8|0,0:0|0:0,0:0:0:0:
131,133,77336,1,0,0:0:0:0:
131,133,77396,1,0,0:0:0:0:
131,133,77456,6,0,P|188:129|237:118,1,105.00000422895,2|0,0:0|0:0,0:0:0:0:
293,44,77696,1,0,0:0:0:0:
310,82,77816,1,0,0:0:0:0:
376,133,77936,1,8,0:0:0:0:
459,134,78056,2,0,P|465:95|457:30,2,105.00000422895
471,339,78416,6,0,P|395:341|325:335,1,140.000000298023,4|0,0:0|0:0,0:0:0:0:
320,302,78776,1,0,0:0:0:0:
339,234,78896,1,8,0:0:0:0:
332,214,79016,1,0,0:0:0:0:
350,135,79136,1,0,0:0:0:0:
342,115,79256,1,0,0:0:0:0:
385,34,79376,6,0,B|401:65|401:65|434:83,1,70.0000001490115,2|0,0:0|0:0,0:0:0:0:
272,48,79616,2,0,P|196:61|114:62,1,140.000000298023,0|8,0:0|0:0,0:0:0:0:
60,115,79976,1,0,0:0:0:0:
90,131,80096,1,0,0:0:0:0:
108,160,80216,1,0,0:0:0:0:
59,228,80336,6,0,P|98:240|136:238,1,70.0000001490115,2|0,0:0|0:0,0:0:0:0:
299,139,80576,2,0,P|260:127|222:129,1,70.0000001490115
252,215,80816,1,8,0:0:0:0:
238,247,80936,1,0,0:0:0:0:
254,277,81056,1,0,0:0:0:0:
242,310,81176,1,0,0:0:0:0:
332,348,81296,6,0,B|400:351|400:351|476:347,2,140.000000298023,2|0|8,0:0|0:0|0:0,0:0:0:0:
320,267,81896,1,0,0:0:0:0:
330,197,82016,1,0,0:0:0:0:
275,153,82136,1,0,0:0:0:0:
279,118,82256,6,0,P|353:112|446:122,1,140.000000298023,2|0,0:0|0:0,0:0:0:0:
426,137,82616,1,0,0:0:0:0:
394,29,82736,2,0,B|428:38|428:38|468:33,1,70.0000001490115,8|0,0:0|0:0,0:0:0:0:
396,263,82976,2,0,B|430:254|430:254|470:259,1,70.0000001490115
437,334,83216,5,2,0:0:0:0:
325,219,83336,1,0,0:0:0:0:
305,285,83456,1,0,0:0:0:0:
252,328,83576,1,0,0:0:0:0:
183,333,83696,2,0,P|178:296|176:260,1,70.0000001490115,8|0,0:0|0:0,0:0:0:0:
239,138,83936,2,0,P|236:103|231:68,1,70.0000001490115
162,111,84176,5,2,0:0:0:0:
81,66,84296,1,0,0:0:0:0:
78,101,84416,1,0,0:0:0:0:
69,134,84536,1,0,0:0:0:0:
26,198,84656,5,8,0:0:0:0:
95,201,84776,1,0,0:0:0:0:
165,205,84896,1,0,0:0:0:0:
235,208,85016,1,0,0:0:0:0:
276,271,85136,5,2,0:0:0:0:
272,236,85256,1,0,0:0:0:0:
271,201,85376,1,0,0:0:0:0:
271,166,85496,1,0,0:0:0:0:
273,131,85616,1,8,0:0:0:0:
241,51,85736,6,0,P|207:57|167:71,2,70.0000001490115
362,34,86096,6,0,B|365:77|365:77|385:126|385:126|388:177,1,140.000000298023,4|0,0:0|0:0,0:0:0:0:
377,188,86456,1,0,0:0:0:0:
307,181,86576,1,8,0:0:0:0:
287,189,86696,1,0,0:0:0:0:
241,242,86816,1,0,0:0:0:0:
221,250,86936,1,0,0:0:0:0:
160,214,87056,6,0,B|151:180|151:180|149:145,1,70.0000001490115,2|0,0:0|0:0,0:0:0:0:
91,106,87296,2,0,P|161:113|239:104,1,140.000000298023,0|8,0:0|0:0,0:0:0:0:
376,29,87656,1,0,0:0:0:0:
317,67,87776,1,0,0:0:0:0:
324,136,87896,1,0,0:0:0:0:
386,167,88016,6,0,P|433:150|455:138,1,70.0000001490115,2|0,0:0|0:0,0:0:0:0:
448,291,88256,2,0,P|465:338|477:360,1,70.0000001490115
376,246,88496,1,8,0:0:0:0:
307,261,88616,1,0,0:0:0:0:
280,325,88736,1,0,0:0:0:0:
211,341,88856,1,0,0:0:0:0:
207,245,88976,6,0,B|204:200|204:200|214:152|214:152|206:94,2,140.000000298023,2|0|8,0:0|0:0|0:0,0:0:0:0:
142,282,89576,1,0,0:0:0:0:
74,263,89696,1,0,0:0:0:0:
58,197,89816,1,0,0:0:0:0:
24,185,89936,6,0,P|33:273|45:330,1,140.000000298023,2|0,0:0|0:0,0:0:0:0:
63,327,90296,1,0,0:0:0:0:
246,332,90416,2,0,L|154:338,1,70.0000001490115,8|0,0:0|0:0,0:0:0:0:
349,261,90656,2,0,L|257:255,1,70.0000001490115
191,246,90896,5,2,0:0:0:0:
274,91,91016,1,0,0:0:0:0:
217,130,91136,1,0,0:0:0:0:
148,135,91256,1,0,0:0:0:0:
85,105,91376,2,0,B|90:71|90:71|106:34,1,70.0000001490115,8|0,0:0|0:0,0:0:0:0:
76,281,91616,2,0,B|71:315|71:315|55:352,1,70.0000001490115
25,213,91856,5,2,0:0:0:0:
129,213,91976,1,0,0:0:0:0:
154,236,92096,1,0,0:0:0:0:
171,267,92216,1,0,0:0:0:0:
190,347,92336,5,8,0:0:0:0:
212,281,92456,1,0,0:0:0:0:
260,231,92576,1,0,0:0:0:0:
325,206,92696,1,0,0:0:0:0:
364,346,92816,5,2,0:0:0:0:
387,279,92936,1,0,0:0:0:0:
320,256,93056,1,0,0:0:0:0:
297,323,93176,1,0,0:0:0:0:
486,329,93296,6,0,B|486:293|486:293|473:256,1,70.0000001490115,8|0,0:0|0:0,0:0:0:0:
207,292,93536,2,0,B|207:328|207:328|220:365,1,70.0000001490115
396,180,93776,1,4,0:0:0:0:
337,328,109136,6,0,P|363:320|386:319,2,46.6666667660077,4|0|0,0:0|0:0|0:0,0:0:0:0:
246,270,109376,2,0,P|220:262|197:261,2,46.6666667660077
310,195,109616,5,8,0:0:0:0:
314,209,109696,1,0,0:0:0:0:
318,224,109776,1,0,0:0:0:0:
322,239,109856,1,0,0:0:0:0:
357,209,109936,1,0,0:0:0:0:
368,165,110016,1,0,0:0:0:0:
330,105,110096,6,0,P|374:91|419:101,1,93.3333335320153,2|0,0:0|0:0,0:0:0:0:
194,131,110336,2,0,P|149:144|104:134,1,93.3333335320153,2|0,0:0|0:0,0:0:0:0:
290,217,110576,2,0,B|299:254|299:254|293:315|293:315|305:356,1,140.000000298023,10|0,0:0|0:0,0:0:0:0:
138,331,111056,5,2,0:0:0:0:
103,300,111136,1,0,0:0:0:0:
88,257,111216,1,0,0:0:0:0:
96,211,111296,1,0,0:0:0:0:
115,226,111376,1,0,0:0:0:0:
133,240,111456,1,0,0:0:0:0:
202,275,111536,6,0,P|209:254|208:222,2,46.6666667660077,8|0|0,0:0|0:0|0:0,0:0:0:0:
195,87,111776,2,0,P|187:109|187:132,2,46.6666667660077
400,55,112016,6,0,P|350:63|297:56,1,93.3333335320153,2|0,0:0|0:0,0:0:0:0:
389,257,112256,2,0,P|439:249|492:256,1,93.3333335320153,2|0,0:0|0:0,0:0:0:0:
314,311,112496,2,0,B|298:267|298:267|307:214|307:214|292:173,1,140.000000298023,10|0,0:0|0:0,0:0:0:0:
355,121,112976,5,2,0:0:0:0:
380,133,113056,1,0,0:0:0:0:
407,139,113136,1,0,0:0:0:0:
435,138,113216,1,0,0:0:0:0:
462,131,113296,1,0,0:0:0:0:
486,117,113376,1,0,0:0:0:0:
448,59,113456,6,0,P|447:35|451:12,2,46.6666667660077,8|0|0,0:0|0:0|0:0,0:0:0:0:
476,243,113696,2,0,P|477:267|473:290,2,46.6666667660077
396,215,113936,5,2,0:0:0:0:
368,219,114016,1,0,0:0:0:0:
344,233,114096,1,0,0:0:0:0:
329,256,114176,1,0,0:0:0:0:
324,284,114256,1,0,0:0:0:0:
330,311,114336,1,0,0:0:0:0:
376,363,114416,5,8,0:0:0:0:
338,335,114496,1,0,0:0:0:0:
293,325,114576,1,0,0:0:0:0:
248,333,114656,1,0,0:0:0:0:
204,349,114736,1,0,0:0:0:0:
159,341,114816,1,0,0:0:0:0:
123,312,114896,6,0,P|138:285|151:267,2,46.6666667660077,2|0|0,0:0|0:0|0:0,0:0:0:0:
59,196,115136,2,0,P|73:223|86:241,2,46.6666667660077
160,180,115376,5,8,0:0:0:0:
201,160,115456,1,0,0:0:0:0:
217,117,115536,1,0,0:0:0:0:
201,75,115616,1,0,0:0:0:0:
161,54,115696,1,0,0:0:0:0:
117,66,115776,1,0,0:0:0:0:
103,135,115856,6,0,P|151:142|200:135,1,93.3333335320153,2|0,0:0|0:0,0:0:0:0:
124,305,116096,2,0,P|76:298|27:305,1,93.3333335320153,2|0,0:0|0:0,0:0:0:0:
255,354,116336,2,0,B|261:312|261:312|249:256|249:256|260:211,1,140.000000298023,10|0,0:0|0:0,0:0:0:0:
340,145,116816,5,2,0:0:0:0:
337,136,116896,1,0,0:0:0:0:
334,127,116976,1,0,0:0:0:0:
331,118,117056,1,0,0:0:0:0:
328,109,117136,1,0,0:0:0:0:
326,100,117216,1,0,0:0:0:0:
271,57,117296,5,8,0:0:0:0:
300,34,117376,1,0,0:0:0:0:
336,28,117456,1,0,0:0:0:0:
371,40,117536,1,0,0:0:0:0:
397,66,117616,1,0,0:0:0:0:
406,102,117696,1,0,0:0:0:0:
372,163,117776,6,0,L|323:158,1,46.6666667660077,2|0,0:0|0:0,0:0:0:0:
184,79,117936,1,0,0:0:0:0:
139,93,118016,2,0,L|145:47,2,46.6666667660077
79,164,118256,5,8,0:0:0:0:
61,207,118336,1,0,0:0:0:0:
43,250,118416,1,0,0:0:0:0:
113,262,118496,1,0,0:0:0:0:
96,305,118576,1,0,0:0:0:0:
78,348,118656,1,0,0:0:0:0:
219,255,118736,6,0,P|222:230|217:202,2,46.6666667660077,2|0|0,0:0|0:0|0:0,0:0:0:0:
186,317,118976,2,0,P|231:306|281:309,1,93.3333335320153
332,351,119216,5,8,0:0:0:0:
376,361,119296,1,0,0:0:0:0:
416,339,119376,1,0,0:0:0:0:
430,295,119456,1,0,0:0:0:0:
411,254,119536,1,0,0:0:0:0:
369,236,119616,1,0,0:0:0:0:
299,242,119696,5,2,0:0:0:0:
258,223,119776,1,0,0:0:0:0:
237,181,119856,1,0,0:0:0:0:
250,137,119936,1,0,0:0:0:0:
287,110,120016,1,0,0:0:0:0:
333,112,120096,1,0,0:0:0:0:
377,165,120176,6,0,P|385:135|389:107,2,46.6666667660077,8|0|0,0:0|0:0|0:0,0:0:0:0:
457,78,120416,2,0,P|448:48|444:20,2,46.6666667660077
468,183,120656,5,2,0:0:0:0:
457,227,120736,1,0,0:0:0:0:
424,259,120816,1,0,0:0:0:0:
379,268,120896,2,0,P|350:263|324:249,2,46.6666667660077
287,322,121136,5,8,0:0:0:0:
242,335,121216,1,0,0:0:0:0:
198,322,121296,1,0,0:0:0:0:
168,287,121376,2,0,P|157:259|157:229,2,46.6666667660077
248,239,121616,5,2,0:0:0:0:
269,229,121696,1,0,0:0:0:0:
281,210,121776,1,0,0:0:0:0:
281,187,121856,1,0,0:0:0:0:
268,168,121936,1,0,0:0:0:0:
247,160,122016,1,0,0:0:0:0:
224,165,122096,5,8,0:0:0:0:
235,120,122176,1,0,0:0:0:0:
224,75,122256,1,0,0:0:0:0:
194,39,122336,1,0,0:0:0:0:
152,21,122416,1,0,0:0:0:0:
106,23,122496,1,0,0:0:0:0:
88,91,122576,5,2,0:0:0:0:
41,83,122656,2,0,L|49:135,1,46.6666667660077
18,231,122816,1,0,0:0:0:0:
84,207,122936,1,0,0:0:0:0:
125,263,123056,2,0,B|215:272|215:272|263:262,1,140.000000298023,8|0,0:0|0:0,0:0:0:0:
277,285,123416,5,0,0:0:0:0:
330,371,123536,2,0,P|342:340|347:302,1,70.0000001490115,2|0,0:0|0:0,0:0:0:0:
372,202,123776,2,0,P|396:196|423:197,2,46.6666667660077
278,173,124016,2,0,P|256:165|232:162,2,46.6666667660077,8|0|0,0:0|0:0|0:0,0:0:0:0:
325,66,124256,2,0,P|336:86|342:108,2,46.6666667660077
225,64,124496,5,2,0:0:0:0:
206,66,124576,1,0,0:0:0:0:
188,69,124656,1,0,0:0:0:0:
169,72,124736,1,0,0:0:0:0:
151,75,124816,1,0,0:0:0:0:
132,77,124896,1,0,0:0:0:0:
103,46,124976,5,8,0:0:0:0:
111,76,125056,1,0,0:0:0:0:
112,107,125136,1,0,0:0:0:0:
106,137,125216,1,0,0:0:0:0:
96,166,125296,1,0,0:0:0:0:
81,194,125376,1,0,0:0:0:0:
65,220,125456,5,2,0:0:0:0:
57,281,125536,1,0,0:0:0:0:
84,336,125616,1,0,0:0:0:0:
137,366,125696,1,0,0:0:0:0:
198,362,125776,1,0,0:0:0:0:
246,324,125856,1,0,0:0:0:0:
265,266,125936,6,0,P|265:240|254:207,2,46.6666667660077,8|0|0,0:0|0:0|0:0,0:0:0:0:
169,125,126176,2,0,P|169:151|180:184,2,46.6666667660077
271,46,126416,5,2,0:0:0:0:
254,89,126496,1,0,0:0:0:0:
283,125,126576,1,0,0:0:0:0:
358,97,126656,2,0,P|358:73|348:47,2,46.6666667660077
407,248,126896,5,8,0:0:0:0:
364,265,126976,1,0,0:0:0:0:
328,236,127056,1,0,0:0:0:0:
265,287,127136,2,0,P|264:310|272:332,2,46.6666667660077
207,173,127376,5,2,0:0:0:0:
158,266,127496,1,0,0:0:0:0:
119,194,127616,1,0,0:0:0:0:
74,255,127736,1,0,0:0:0:0:
0,232,127856,2,0,P|34:170|48:94,1,140.000000298023,8|0,0:0|0:0,0:0:0:0:
36,85,128216,1,0,0:0:0:0:
142,39,128336,5,4,0:0:0:0:
198,79,128456,1,0,0:0:0:0:
264,102,128576,1,0,0:0:0:0:
334,106,128696,1,0,0:0:0:0:
408,32,128816,2,0,P|416:75|411:175,1,140.000000298023,8|0,0:0|0:0,0:0:0:0:
403,182,129176,1,0,0:0:0:0:
326,301,129296,5,4,0:0:0:0:
302,235,129416,1,0,0:0:0:0:
235,257,129536,1,0,0:0:0:0:
259,323,129656,1,0,0:0:0:0:
282,276,129776,2,0,L|263:137,1,140.000000298023,8|0,0:0|0:0,0:0:0:0:
248,127,130136,1,0,0:0:0:0:
189,58,130256,5,4,0:0:0:0:
140,67,130376,1,0,0:0:0:0:
125,152,130496,1,0,0:0:0:0:
167,127,130616,1,0,0:0:0:0:
55,138,130736,2,0,L|44:66,1,70.0000001490115,8|0,0:0|0:0,0:0:0:0:
42,278,130976,2,0,L|53:350,1,70.0000001490115
223,353,131216,6,0,P|232:313|230:278,1,70.0000001490115,4|0,0:0|0:0,0:0:0:0:
182,81,131456,2,0,P|173:121|175:156,1,70.0000001490115
404,114,131696,2,0,P|329:125|263:123,1,140.000000298023,8|0,0:0|0:0,0:0:0:0:
474,68,132056,2,0,P|486:115|485:145,1,70.0000001490115,0|2,0:0|0:0,0:0:0:0:
414,216,132296,5,0,0:0:0:0:
380,302,132416,2,0,B|377:263|391:217,1,70.0000001490115
370,59,132656,1,8,0:0:0:0:
357,142,132776,1,0,0:0:0:0:
283,101,132896,1,0,0:0:0:0:
270,184,133016,2,0,P|234:201|199:206,1,70.0000001490115,0|2,0:0|0:0,0:0:0:0:
137,126,133256,5,0,0:0:0:0:
51,92,133376,2,0,B|90:89|136:103,1,70.0000001490115
85,308,133616,1,8,0:0:0:0:
44,234,133736,1,0,0:0:0:0:
118,196,133856,1,0,0:0:0:0:
159,270,133976,2,0,P|184:294|221:308,1,70.0000001490115,0|2,0:0|0:0,0:0:0:0:
341,295,134216,5,0,0:0:0:0:
341,295,134276,1,0,0:0:0:0:
341,295,134336,2,0,L|359:214,1,70.0000001490115
391,84,134576,2,0,P|412:125|441:163,2,70.0000001490115,8|0|0,0:0|0:0|0:0,0:0:0:0:
426,18,134936,1,0,0:0:0:0:
189,128,135056,6,0,P|237:124|278:128,1,70.0000001490115,2|0,0:0|0:0,0:0:0:0:
105,197,135296,1,0,0:0:0:0:
106,173,135376,1,0,0:0:0:0:
107,150,135456,1,0,0:0:0:0:
108,127,135536,5,8,0:0:0:0:
69,185,135656,1,0,0:0:0:0:
111,241,135776,1,0,0:0:0:0:
71,298,135896,2,0,P|116:328|133:336,1,70.0000001490115,0|2,0:0|0:0,0:0:0:0:
262,268,136136,5,0,0:0:0:0:
376,216,136256,2,0,L|301:212,1,70.0000001490115
92,62,136496,2,0,P|126:71|163:74,1,70.0000001490115,8|0,0:0|0:0,0:0:0:0:
388,89,136736,2,0,P|354:80|317:77,1,70.0000001490115
241,132,136976,1,2,0:0:0:0:
163,320,137096,5,0,0:0:0:0:
111,206,137216,2,0,L|107:281,1,70.0000001490115
286,339,137456,2,0,P|283:309|285:263,1,70.0000001490115,8|0,0:0|0:0,0:0:0:0:
430,59,137696,2,0,P|433:89|431:135,1,70.0000001490115
354,165,137936,1,2,0:0:0:0:
311,88,138056,5,0,0:0:0:0:
233,128,138176,1,0,0:0:0:0:
189,52,138296,1,0,0:0:0:0:
111,84,138416,2,0,B|97:111|97:111|94:140,2,55.9999984102249,8|0|0,0:0|0:0|0:0,0:0:0:0:
157,242,138656,2,0,B|168:216|168:216|172:189,2,55.9999984102249
100,300,138896,5,2,0:0:0:0:
152,281,138976,1,0,0:0:0:0:
208,282,139056,1,0,0:0:0:0:
260,302,139136,1,2,0:0:0:0:
310,326,139216,1,0,0:0:0:0:
365,335,139296,1,0,0:0:0:0:
421,331,139376,6,2,P|424:291|420:242,1,83.9999976153373,10|2,0:0|0:0,0:0:0:0:
360,163,139616,1,2,0:0:0:0:
380,81,139736,1,2,0:0:0:0:
70,54,141776,6,0,P|64:141|71:235,1,175.000000372529,4|0,0:0|0:0,0:0:0:0:
83,237,142136,1,0,0:0:0:0:
120,310,142256,1,8,0:0:0:0:
163,315,142376,1,0,0:0:0:0:
196,243,142496,1,0,0:0:0:0:
152,177,142616,1,0,0:0:0:0:
185,105,142736,5,2,0:0:0:0:
226,118,142856,1,0,0:0:0:0:
275,179,142976,1,0,0:0:0:0:
352,164,143096,1,0,0:0:0:0:
326,238,143216,2,0,B|237:239|149:255,2,175.000000372529,8|0|2,0:0|0:0|0:0,0:0:0:0:
427,306,143816,5,0,0:0:0:0:
405,248,143936,1,0,0:0:0:0:
444,201,144056,1,0,0:0:0:0:
415,146,144176,2,0,B|430:102|430:102|417:61,1,87.5000001862644,8|0,0:0|0:0,0:0:0:0:
218,14,144416,2,0,B|203:58|203:58|216:99,1,87.5000001862644
297,189,144656,5,2,0:0:0:0:
238,186,144776,1,0,0:0:0:0:
180,184,144896,1,0,0:0:0:0:
122,182,145016,1,0,0:0:0:0:
49,246,145136,2,0,B|43:290|43:290|62:328,1,87.5000001862644,8|0,0:0|0:0,0:0:0:0:
129,92,145376,2,0,B|134:47|134:47|115:9,1,87.5000001862644
353,19,145616,5,2,0:0:0:0:
260,86,145736,2,0,B|315:110|376:68|432:86,1,175.000000372529
231,261,146096,1,8,0:0:0:0:
324,194,146216,2,0,B|274:170|190:224|152:194,1,175.000000372529
474,226,146576,5,2,0:0:0:0:
450,282,146696,1,0,0:0:0:0:
391,300,146816,1,0,0:0:0:0:
334,275,146936,1,0,0:0:0:0:
395,216,147056,2,0,P|391:172|375:131,1,87.5000001862644,8|0,0:0|0:0,0:0:0:0:
439,27,147296,2,0,P|442:70|458:111,1,87.5000001862644
289,176,147536,5,2,0:0:0:0:
261,148,147656,1,0,0:0:0:0:
221,128,147776,1,0,0:0:0:0:
179,118,147896,1,0,0:0:0:0:
126,46,148016,5,8,0:0:0:0:
134,103,148136,1,0,0:0:0:0:
129,161,148256,1,0,0:0:0:0:
112,217,148376,1,0,0:0:0:0:
179,259,148496,5,2,0:0:0:0:
102,226,148616,1,0,0:0:0:0:
39,281,148736,1,0,0:0:0:0:
60,361,148856,1,0,0:0:0:0:
141,378,148976,6,0,P|185:363|231:368,1,87.5000001862644,8|0,0:0|0:0,0:0:0:0:
225,366,149216,1,0,0:0:0:0:
468,222,149456,6,0,P|378:214|288:220,1,175.000000372529,4|0,0:0|0:0,0:0:0:0:
286,232,149816,1,0,0:0:0:0:
199,279,149936,1,8,0:0:0:0:
206,235,150056,1,0,0:0:0:0:
173,163,150176,1,0,0:0:0:0:
200,89,150296,1,0,0:0:0:0:
249,150,150416,5,2,0:0:0:0:
291,140,150536,1,0,0:0:0:0:
367,158,150656,1,0,0:0:0:0:
407,90,150776,1,0,0:0:0:0:
482,111,150896,2,0,P|479:200|479:288,2,175.000000372529,8|0|2,0:0|0:0|0:0,0:0:0:0:
435,23,151496,5,0,0:0:0:0:
374,17,151616,1,0,0:0:0:0:
325,54,151736,1,0,0:0:0:0:
311,113,151856,2,0,P|310:157|319:205,1,87.5000001862644,8|0,0:0|0:0,0:0:0:0:
254,373,152096,2,0,P|255:329|246:281,1,87.5000001862644
185,32,152336,5,2,0:0:0:0:
172,88,152456,1,0,0:0:0:0:
159,145,152576,1,0,0:0:0:0:
146,202,152696,1,0,0:0:0:0:
37,226,152816,2,0,B|33:182|33:182|56:137,1,87.5000001862644,8|0,0:0|0:0,0:0:0:0:
268,102,153056,2,0,B|272:146|272:146|249:191,1,87.5000001862644
115,291,153296,5,2,0:0:0:0:
192,357,153416,2,0,B|144:328|49:359|5:321,1,175.000000372529
295,318,153776,1,8,0:0:0:0:
218,252,153896,2,0,B|263:284|354:249|405:288,1,175.000000372529
333,125,154256,5,2,0:0:0:0:
318,70,154376,1,0,0:0:0:0:
349,22,154496,1,0,0:0:0:0:
405,12,154616,1,0,0:0:0:0:
407,91,154736,2,0,P|437:97|496:91,1,87.5000001862644,8|0,0:0|0:0,0:0:0:0:
364,219,154976,2,0,P|334:213|275:219,1,87.5000001862644
109,341,155216,5,2,0:0:0:0:
111,311,155336,1,0,0:0:0:0:
113,282,155456,1,0,0:0:0:0:
116,253,155576,1,0,0:0:0:0:
54,204,155696,5,8,0:0:0:0:
110,228,155816,1,0,0:0:0:0:
171,227,155936,1,0,0:0:0:0:
227,202,156056,1,0,0:0:0:0:
169,148,156176,5,2,0:0:0:0:
235,95,156296,1,0,0:0:0:0:
316,119,156416,1,0,0:0:0:0:
343,199,156536,1,0,0:0:0:0:
295,267,156656,5,8,0:0:0:0:
296,346,156776,2,0,P|346:347|392:345,2,87.5000001862644
108,331,157136,6,0,P|136:244|146:157,1,175.000000372529,4|0,0:0|0:0,0:0:0:0:
140,154,157496,1,0,0:0:0:0:
184,48,157616,1,8,0:0:0:0:
189,73,157736,1,0,0:0:0:0:
248,137,157856,1,0,0:0:0:0:
253,162,157976,1,0,0:0:0:0:
324,212,158096,6,0,P|371:211|415:223,1,87.5000001862644,2|0,0:0|0:0,0:0:0:0:
286,298,158336,2,0,P|226:239|254:160,1,175.000000372529,2|8,0:0|0:0,0:0:0:0:
340,121,158696,1,0,0:0:0:0:
313,86,158816,1,0,0:0:0:0:
276,64,158936,1,0,0:0:0:0:
178,89,159056,6,0,P|185:49|199:5,1,87.5000001862644,2|0,0:0|0:0,0:0:0:0:
83,169,159296,2,0,P|76:129|62:85,1,87.5000001862644
91,350,159536,1,8,0:0:0:0:
75,309,159656,1,0,0:0:0:0:
194,276,159776,1,0,0:0:0:0:
180,235,159896,1,0,0:0:0:0:
282,320,160016,6,0,P|340:320|459:332,2,175.000000372529,2|2|8,0:0|0:0|0:0,0:0:0:0:
313,164,160616,1,0,0:0:0:0:
275,84,160736,1,0,0:0:0:0:
195,120,160856,1,0,0:0:0:0:
233,200,160976,6,0,P|329:207|425:199,1,175.000000372529,2|0,0:0|0:0,0:0:0:0:
412,194,161336,1,0,0:0:0:0:
382,40,161456,2,0,P|372:84|369:135,1,87.5000001862644,8|0,0:0|0:0,0:0:0:0:
446,356,161696,2,0,P|456:312|459:261,1,87.5000001862644
374,275,161936,5,2,0:0:0:0:
274,360,162056,1,0,0:0:0:0:
236,315,162176,1,0,0:0:0:0:
184,290,162296,1,0,0:0:0:0:
127,288,162416,2,0,P|125:329|131:378,1,87.5000001862644,8|0,0:0|0:0,0:0:0:0:
151,95,162656,2,0,P|153:54|147:5,1,87.5000001862644
76,27,162896,5,2,0:0:0:0:
51,157,163016,1,0,0:0:0:0:
94,165,163136,1,0,0:0:0:0:
137,173,163256,1,0,0:0:0:0:
100,252,163376,5,8,0:0:0:0:
134,205,163496,1,0,0:0:0:0:
187,184,163616,1,0,0:0:0:0:
244,196,163736,1,0,0:0:0:0:
200,272,163856,5,2,0:0:0:0:
203,199,163976,1,0,0:0:0:0:
206,126,164096,1,0,0:0:0:0:
209,53,164216,1,0,0:0:0:0:
292,27,164336,5,8,0:0:0:0:
126,13,164456,2,0,P|82:16|33:23,2,87.5000001862644
96,126,164816,6,0,P|99:218|96:303,1,175.000000372529,4|0,0:0|0:0,0:0:0:0:
88,306,165176,1,0,0:0:0:0:
196,343,165296,1,8,0:0:0:0:
201,317,165416,1,0,0:0:0:0:
288,315,165536,1,0,0:0:0:0:
293,289,165656,1,0,0:0:0:0:
374,213,165776,6,0,P|321:203|279:208,1,87.5000001862644,2|0,0:0|0:0,0:0:0:0:
156,94,166016,2,0,P|240:101|340:89,1,175.000000372529,2|8,0:0|0:0,0:0:0:0:
93,42,166376,1,0,0:0:0:0:
64,74,166496,1,0,0:0:0:0:
59,117,166616,1,0,0:0:0:0:
46,211,166736,6,0,P|79:205|133:177,1,87.5000001862644,2|0,0:0|0:0,0:0:0:0:
254,259,166976,2,0,P|221:265|167:293,1,87.5000001862644
312,334,167216,5,8,0:0:0:0:
361,304,167336,1,0,0:0:0:0:
381,251,167456,1,0,0:0:0:0:
364,196,167576,1,0,0:0:0:0:
282,166,167696,6,0,P|355:161|472:160,2,175.000000372529,2|2|8,0:0|0:0|0:0,0:0:0:0:
172,122,168296,1,0,0:0:0:0:
163,209,168416,1,0,0:0:0:0:
89,162,168536,1,0,0:0:0:0:
80,249,168656,6,0,P|171:243|263:253,1,175.000000372529,2|0,0:0|0:0,0:0:0:0:
255,260,169016,1,0,0:0:0:0:
286,360,169136,2,0,P|244:359|201:348,1,87.5000001862644,8|0,0:0|0:0,0:0:0:0:
374,217,169376,2,0,P|416:218|459:229,1,87.5000001862644
403,296,169616,5,2,0:0:0:0:
282,43,169736,1,0,0:0:0:0:
264,128,169856,1,0,0:0:0:0:
349,146,169976,1,0,0:0:0:0:
367,61,170096,2,0,P|410:71|456:72,1,87.5000001862644,8|0,0:0|0:0,0:0:0:0:
148,101,170336,2,0,P|105:91|59:90,1,87.5000001862644
92,172,170576,5,2,0:0:0:0:
74,335,170696,1,0,0:0:0:0:
96,297,170816,1,0,0:0:0:0:
134,278,170936,1,0,0:0:0:0:
211,336,171056,5,8,0:0:0:0:
214,310,171176,1,0,0:0:0:0:
294,298,171296,1,0,0:0:0:0:
291,272,171416,1,0,0:0:0:0:
231,208,171536,5,2,0:0:0:0:
317,194,171656,1,0,0:0:0:0:
385,248,171776,1,0,0:0:0:0:
471,234,171896,1,0,0:0:0:0:
415,76,172016,6,0,B|407:117|407:117|415:168,1,87.5000001862644,8|0,0:0|0:0,0:0:0:0:
278,369,172256,2,0,B|286:328|286:328|278:277,1,87.5000001862644
126,143,172496,1,4,0:0:0:0:
