osu file format v14

[General]
AudioFilename: audio.mp3
AudioLeadIn: 0
PreviewTime: 140816
Countdown: 1
SampleSet: Drum
StackLeniency: 0.7
Mode: 0
LetterboxInBreaks: 0
WidescreenStoryboard: 1

[Editor]
Bookmarks: 136496,160278
DistanceSpacing: 1
BeatDivisor: 16
GridSize: 16
TimelineZoom: 2.2

[Metadata]
Title:Loner
TitleUnicode:외톨이
Artist:Outsider
ArtistUnicode:Outsider
Creator:quickly die
Version:ASSA
Source:
Tags:
BeatmapID:2306884
BeatmapSetID:1032856

[Difficulty]
HPDrainRate:5
CircleSize:4.7
OverallDifficulty:9
ApproachRate:9.2
SliderMultiplier:2.50000000596046
SliderTickRate:1

[Events]
//Background and Video events
0,0,"outsider.jpg",0,0
//Break Periods
2,93976,108566
2,139976,141206
//Storyboard Layer 0 (Background)
//Storyboard Layer 1 (Fail)
//Storyboard Layer 2 (Pass)
//Storyboard Layer 3 (Foreground)
//Storyboard Layer 4 (Overlay)
//Storyboard Sound Samples

[TimingPoints]
32336,480,4,3,0,60,1,0
32336,-100,4,1,0,60,0,0
38096,-80,4,1,0,60,0,0
40016,-100,4,1,0,60,0,0
45776,-80,4,1,0,60,0,0
47696,-80,4,1,0,60,0,0
55376,-80,4,1,0,60,0,0
74576,-66.6666666666667,4,1,0,60,0,0
78416,-80,4,1,0,60,0,0
86096,-80,4,1,0,60,0,0
93776,-100,4,1,0,60,0,0
109136,-80,4,1,0,60,0,0
123776,-66.6666666666667,4,1,0,60,0,0
124016,-80,4,1,0,60,0,0
124256,-100,4,1,0,60,0,0
124496,-80,4,1,0,60,0,0
127376,-66.6666666666667,4,1,0,60,0,0
138056,-80,4,1,0,60,0,0
138416,-83.3333333333333,4,1,0,70,0,0
138656,-66.6666666666667,4,1,0,75,0,0
138896,-55.5555555555556,4,1,0,85,0,0
139136,-47.6190476190476,4,1,0,90,0,0
139376,-66.6666666666667,4,1,0,100,0,0
139856,-133.333333333333,4,1,0,30,0,0
141776,-80,4,1,0,90,0,0
149456,-80,4,1,0,90,0,0
157136,-66.6666666666667,4,1,0,90,0,0
164816,-66.6666666666667,4,1,0,90,0,0
172496,-100,4,1,0,90,0,0

[HitObjects]
430,28,32336,6,0,P|423:71|430:137,1,93.7500002235173
349,184,32576,2,0,P|350:154|343:118,1,62.5000001490115
312,41,32816,1,0,0:0:0:0:
312,41,32936,1,0,0:0:0:0:
312,41,33056,1,0,0:0:0:0:
312,41,33176,1,0,0:0:0:0:
252,23,33296,5,0,0:0:0:0:
192,103,33416,1,0,0:0:0:0:
128,62,33536,1,0,0:0:0:0:
128,62,33656,1,0,0:0:0:0:
108,168,33776,2,0,P|115:211|108:277,1,93.7500002235173
88,305,34016,2,0,P|58:306|22:299,2,62.5000001490115
187,293,34376,5,0,0:0:0:0:
233,275,34496,1,0,0:0:0:0:
277,296,34616,1,0,0:0:0:0:
214,358,34736,5,0,0:0:0:0:
196,312,34856,1,0,0:0:0:0:
217,268,34976,5,0,0:0:0:0:
199,222,35096,1,0,0:0:0:0:
257,140,35216,5,0,0:0:0:0:
257,140,35336,1,0,0:0:0:0:
257,140,35456,1,0,0:0:0:0:
257,140,35576,1,0,0:0:0:0:
346,185,35696,2,0,L|423:174,1,62.5000001490115
439,175,35936,1,0,0:0:0:0:
439,175,36176,5,0,0:0:0:0:
421,273,36296,2,0,L|406:359,1,62.5000001490115
362,106,36536,1,0,0:0:0:0:
344,204,36656,5,0,0:0:0:0:
421,273,36776,2,0,L|406:359,1,62.5000001490115
278,37,37016,1,0,0:0:0:0:
260,135,37136,5,0,0:0:0:0:
211,145,37256,1,0,0:0:0:0:
162,155,37376,1,0,0:0:0:0:
113,165,37496,1,0,0:0:0:0:
72,257,37616,2,0,L|202:274,1,125.000000298023
195,273,38096,5,0,0:0:0:0:
305,333,38216,1,0,0:0:0:0:
227,343,38336,1,0,0:0:0:0:
149,353,38456,1,0,0:0:0:0:
89,250,38576,5,0,0:0:0:0:
89,250,38696,1,0,0:0:0:0:
89,250,38816,1,0,0:0:0:0:
104,157,38936,1,0,0:0:0:0:
70,69,39056,5,0,0:0:0:0:
179,128,39176,1,0,0:0:0:0:
179,128,39296,1,0,0:0:0:0:
267,97,39416,1,0,0:0:0:0:
341,154,39536,5,0,0:0:0:0:
320,30,39656,1,0,0:0:0:0:
341,154,39776,1,0,0:0:0:0:
341,154,40016,6,0,P|384:161|450:154,1,93.7500002235173
497,235,40256,2,0,P|467:234|431:241,1,62.5000001490115
354,272,40496,1,0,0:0:0:0:
354,272,40616,1,0,0:0:0:0:
354,272,40736,1,0,0:0:0:0:
354,272,40856,1,0,0:0:0:0:
348,334,40976,5,0,0:0:0:0:
257,357,41096,1,0,0:0:0:0:
204,284,41216,1,0,0:0:0:0:
204,284,41336,1,0,0:0:0:0:
267,195,41456,2,0,P|260:152|267:86,1,93.7500002235173
293,62,41696,2,0,P|323:61|359:68,2,62.5000001490115
194,77,42056,5,0,0:0:0:0:
173,121,42176,1,0,0:0:0:0:
191,167,42296,1,0,0:0:0:0:
98,204,42416,5,0,0:0:0:0:
80,158,42536,1,0,0:0:0:0:
101,114,42656,5,0,0:0:0:0:
83,68,42776,1,0,0:0:0:0:
178,25,42896,5,0,0:0:0:0:
178,25,43016,1,0,0:0:0:0:
178,25,43136,1,0,0:0:0:0:
178,25,43256,1,0,0:0:0:0:
267,70,43376,2,0,L|340:59,1,62.5000001490115
360,60,43616,1,0,0:0:0:0:
360,60,43856,5,0,0:0:0:0:
458,78,43976,2,0,L|473:164,1,62.5000001490115
197,119,44216,1,0,0:0:0:0:
295,137,44336,5,0,0:0:0:0:
393,155,44456,2,0,L|408:241,1,62.5000001490115
90,188,44696,1,0,0:0:0:0:
154,264,44816,5,0,0:0:0:0:
203,254,44936,1,0,0:0:0:0:
252,244,45056,1,0,0:0:0:0:
301,234,45176,1,0,0:0:0:0:
398,258,45296,2,0,L|380:389,1,125.000000298023
380,381,45776,5,0,0:0:0:0:
354,258,45896,1,0,0:0:0:0:
339,181,46016,1,0,0:0:0:0:
361,106,46136,1,0,0:0:0:0:
267,80,46256,5,0,0:0:0:0:
267,80,46376,1,0,0:0:0:0:
267,80,46496,1,0,0:0:0:0:
174,67,46616,1,0,0:0:0:0:
250,165,46736,5,0,0:0:0:0:
281,253,46856,1,0,0:0:0:0:
281,253,46976,1,0,0:0:0:0:
222,362,47096,1,0,0:0:0:0:
158,254,47216,5,0,0:0:0:0:
46,309,47336,1,0,0:0:0:0:
69,218,47456,1,0,0:0:0:0:
91,127,47576,1,0,0:0:0:0:
115,42,47696,6,0,B|194:25|194:25|262:65,1,156.250000372529
245,179,48056,1,0,0:0:0:0:
259,63,48176,5,0,0:0:0:0:
245,179,48296,1,0,0:0:0:0:
360,201,48416,1,0,0:0:0:0:
374,83,48536,1,0,0:0:0:0:
259,63,48656,6,0,B|242:97|242:97|254:152,1,78.1250001862644
360,201,48896,2,0,B|377:167|377:167|365:112,1,78.1250001862644
368,127,49136,5,0,0:0:0:0:
171,256,49256,1,0,0:0:0:0:
236,299,49376,1,0,0:0:0:0:
165,331,49496,1,0,0:0:0:0:
101,285,49616,6,0,B|92:245|92:245|109:211,1,78.1250001862644
244,155,49856,2,0,B|252:194|252:194|235:228,1,78.1250001862644
77,92,50096,5,0,0:0:0:0:
154,83,50216,1,0,0:0:0:0:
232,75,50336,1,0,0:0:0:0:
310,67,50456,1,0,0:0:0:0:
77,92,50576,6,0,B|69:131|69:131|86:165,1,78.1250001862644
310,67,50816,2,0,B|327:101|327:101|318:140,1,78.1250001862644
268,201,51056,2,0,B|308:264|308:264|408:243,1,156.250000372529
387,247,51416,1,0,0:0:0:0:
219,286,51536,6,0,B|142:266|142:266|61:283,1,156.250000372529
90,356,51896,1,0,0:0:0:0:
46,210,52016,2,0,B|30:132|30:132|51:59,2,156.250000372529
111,165,52616,5,0,0:0:0:0:
183,193,52736,1,0,0:0:0:0:
183,193,52856,1,0,0:0:0:0:
250,97,52976,1,0,0:0:0:0:
460,58,53216,2,0,P|462:132|460:231,1,156.250000372529
318,244,53576,5,0,0:0:0:0:
393,265,53696,1,0,0:0:0:0:
292,317,53816,1,0,0:0:0:0:
175,277,53936,5,0,0:0:0:0:
100,257,54056,1,0,0:0:0:0:
120,181,54176,1,0,0:0:0:0:
195,201,54296,1,0,0:0:0:0:
303,155,54416,5,0,0:0:0:0:
348,91,54536,1,0,0:0:0:0:
303,28,54656,1,0,0:0:0:0:
228,52,54776,1,0,0:0:0:0:
228,130,54896,6,0,B|252:155|252:155|295:159,1,78.1250001862644
446,51,55136,2,0,B|418:25|418:25|361:21,1,78.1250001862644
383,101,55376,5,0,0:0:0:0:
354,173,55496,1,0,0:0:0:0:
301,229,55616,1,0,0:0:0:0:
231,262,55736,1,0,0:0:0:0:
153,265,55856,1,0,0:0:0:0:
80,239,55976,1,0,0:0:0:0:
165,158,56096,6,0,B|208:168|208:168|245:196,1,78.1250001862644
190,335,56336,1,0,0:0:0:0:
190,335,56456,1,0,0:0:0:0:
270,325,56576,1,0,0:0:0:0:
270,325,56696,1,0,0:0:0:0:
370,263,56816,5,0,0:0:0:0:
388,338,56936,1,0,0:0:0:0:
370,263,57056,1,0,0:0:0:0:
388,338,57176,1,0,0:0:0:0:
475,260,57296,6,0,B|474:219|474:219|450:191,1,78.1250001862644
443,73,57536,2,0,B|402:74|402:74|374:98,1,78.1250001862644
255,104,57776,2,0,B|256:145|256:145|280:173,1,78.1250001862644
282,291,58016,2,0,B|323:290|323:290|351:266,1,78.1250001862644
182,259,58256,6,0,B|168:297|168:297|180:332,1,78.1250001862644
72,288,58496,2,0,B|85:249|85:249|73:214,1,78.1250001862644
41,100,58736,5,0,0:0:0:0:
113,69,58856,1,0,0:0:0:0:
175,115,58976,1,0,0:0:0:0:
103,146,59096,1,0,0:0:0:0:
260,61,59216,6,0,L|350:61,1,78.1250001862644
416,61,59456,1,0,0:0:0:0:
416,61,59576,1,0,0:0:0:0:
471,164,59696,6,0,L|381:164,1,78.1250001862644
315,164,59936,1,0,0:0:0:0:
315,164,60056,1,0,0:0:0:0:
365,252,60176,5,0,0:0:0:0:
289,233,60296,1,0,0:0:0:0:
270,308,60416,1,0,0:0:0:0:
346,327,60536,1,0,0:0:0:0:
111,189,60656,5,0,0:0:0:0:
187,170,60776,1,0,0:0:0:0:
206,245,60896,1,0,0:0:0:0:
130,264,61016,1,0,0:0:0:0:
72,104,61136,6,0,B|85:65|85:65|73:30,1,78.1250001862644
28,173,61376,2,0,B|14:211|14:211|26:246,1,78.1250001862644
26,246,61616,2,0,B|14:211|14:211|28:173,1,78.1250001862644
73,30,61857,2,0,B|85:65|85:65|72:104,1,78.1250001862644
122,355,62096,5,0,0:0:0:0:
104,278,62216,1,0,0:0:0:0:
180,261,62336,1,0,0:0:0:0:
198,337,62456,1,0,0:0:0:0:
123,186,62576,5,0,0:0:0:0:
198,168,62696,1,0,0:0:0:0:
263,212,62816,2,0,B|291:138|291:138|267:61,1,156.250000372529
117,82,63176,6,0,B|152:94|152:94|191:81,1,78.1250001862644
191,80,63416,1,0,0:0:0:0:
369,48,63536,2,0,B|356:82|356:82|370:121,1,78.1250001862644
449,116,63776,2,0,B|461:150|461:150|447:189,1,78.1250001862644
355,205,64016,5,0,0:0:0:0:
366,242,64076,1,0,0:0:0:0:
377,279,64136,1,0,0:0:0:0:
299,280,64256,2,0,B|268:301|268:301|227:304,1,78.1250001862644
148,208,64496,5,0,0:0:0:0:
98,147,64616,2,0,B|151:120|151:120|261:125|261:125|320:89,1,234.375000558793
262,34,65096,5,0,0:0:0:0:
231,218,65216,2,0,B|225:257|225:257|237:295,1,78.1250001862644
342,343,65456,2,0,B|348:304|348:304|336:267,1,78.1250001862644
231,218,65696,2,0,B|225:257|225:257|237:295,1,78.1250001862644
342,343,65936,6,0,B|348:304|348:304|336:267,1,78.1250001862644
414,260,66176,2,0,B|399:223|399:223|371:197,1,78.1250001862644
434,151,66416,2,0,B|403:126|403:126|365:117,1,78.1250001862644
398,47,66656,2,0,B|359:41|359:41|322:52,1,78.1250001862644
44,52,66896,6,0,B|82:40|82:40|124:43,1,78.1250001862644
20,132,67136,2,0,B|32:169|32:169|31:232,1,78.1250001862644
44,52,67376,5,0,0:0:0:0:
162,95,67496,1,0,0:0:0:0:
162,95,67616,1,0,0:0:0:0:
162,95,67736,1,0,0:0:0:0:
190,216,67856,6,0,B|151:210|151:210|114:221,1,78.1250001862644
82,334,68096,2,0,B|121:340|121:340|157:328,1,78.1250001862644
265,281,68336,1,0,0:0:0:0:
241,355,68456,2,0,B|359:373|359:373|471:320,1,234.375000558793
448,166,68936,5,0,0:0:0:0:
383,211,69056,1,0,0:0:0:0:
455,242,69176,1,0,0:0:0:0:
425,88,69296,6,0,P|369:85|320:114,1,78.1250001862644
245,211,69536,1,0,0:0:0:0:
254,173,69596,1,0,0:0:0:0:
264,135,69656,1,0,0:0:0:0:
215,41,69776,6,0,B|176:35|176:35|139:46,1,78.1250001862644
159,121,70016,1,0,0:0:0:0:
104,224,70136,1,0,0:0:0:0:
213,265,70256,1,0,0:0:0:0:
184,337,70376,2,0,B|222:342|222:342|282:320,2,78.1250001862644
184,337,70736,5,0,0:0:0:0:
490,316,70856,5,0,0:0:0:0:
339,356,70976,1,0,0:0:0:0:
373,203,71096,1,0,0:0:0:0:
449,219,71216,5,0,0:0:0:0:
458,144,71336,1,0,0:0:0:0:
405,90,71456,1,0,0:0:0:0:
330,100,71576,1,0,0:0:0:0:
165,191,71696,5,0,0:0:0:0:
180,268,71816,1,0,0:0:0:0:
256,253,71936,1,0,0:0:0:0:
241,176,72056,1,0,0:0:0:0:
46,188,72176,5,0,0:0:0:0:
37,266,72296,1,0,0:0:0:0:
28,343,72416,2,0,B|62:359|62:359|104:356,1,78.1250001862644
180,268,72656,6,0,B|145:251|145:251|103:254,1,78.1250001862644
246,334,72896,1,0,0:0:0:0:
306,285,73016,1,0,0:0:0:0:
279,73,73136,5,0,0:0:0:0:
251,146,73256,1,0,0:0:0:0:
261,222,73376,1,0,0:0:0:0:
306,285,73496,1,0,0:0:0:0:
375,320,73616,6,0,L|411:227,1,78.1250001862644
474,213,73856,2,0,L|510:120,1,78.1250001862644
432,102,74096,5,0,0:0:0:0:
349,125,74216,1,0,0:0:0:0:
258,101,74336,1,0,0:0:0:0:
159,124,74456,1,0,0:0:0:0:
30,97,74576,6,0,P|109:143|94:226,1,187.500007599592
6,189,74936,1,0,0:0:0:0:
34,326,75056,2,0,B|122:352|122:352|210:306,1,187.500007599592
206,307,75416,1,0,0:0:0:0:
290,349,75536,5,0,0:0:0:0:
290,349,75596,1,0,0:0:0:0:
290,349,75656,1,0,0:0:0:0:
369,298,75776,1,0,0:0:0:0:
450,344,75896,1,0,0:0:0:0:
428,205,76016,2,0,B|432:158|432:158|460:121,3,93.7500037997961
326,171,76496,6,0,P|250:125|268:39,1,187.500007599592
351,81,76856,1,0,0:0:0:0:
377,269,76976,2,0,B|282:245|282:245|195:277,1,187.500007599592
262,338,77336,1,0,0:0:0:0:
217,354,77396,1,0,0:0:0:0:
173,370,77456,5,0,0:0:0:0:
128,188,77576,1,0,0:0:0:0:
309,139,77696,1,0,0:0:0:0:
354,321,77816,1,0,0:0:0:0:
355,227,77936,5,0,0:0:0:0:
467,282,78056,5,0,0:0:0:0:
444,191,78176,1,0,0:0:0:0:
422,100,78296,1,0,0:0:0:0:
333,49,78416,6,0,B|254:32|254:32|186:72,1,156.250000372529
202,186,78776,1,0,0:0:0:0:
188,70,78896,5,0,0:0:0:0:
202,186,79016,1,0,0:0:0:0:
87,208,79136,1,0,0:0:0:0:
73,90,79256,1,0,0:0:0:0:
189,70,79376,6,0,B|206:104|206:104|194:159,1,78.1250001862644
88,208,79616,2,0,B|71:174|71:174|83:119,1,78.1250001862644
80,134,79856,5,0,0:0:0:0:
277,263,79976,1,0,0:0:0:0:
212,306,80096,1,0,0:0:0:0:
283,338,80216,1,0,0:0:0:0:
347,292,80336,6,0,B|356:252|356:252|339:218,1,78.1250001862644
204,162,80576,2,0,B|196:201|196:201|213:235,1,78.1250001862644
371,99,80816,5,0,0:0:0:0:
294,90,80936,1,0,0:0:0:0:
216,82,81056,1,0,0:0:0:0:
138,74,81176,1,0,0:0:0:0:
371,99,81296,6,0,B|379:138|379:138|362:172,1,78.1250001862644
138,74,81536,2,0,B|121:108|121:108|130:147,1,78.1250001862644
180,208,81776,2,0,B|140:271|140:271|40:250,1,156.250000372529
61,254,82136,1,0,0:0:0:0:
229,293,82256,6,0,B|306:273|306:273|387:290,1,156.250000372529
358,363,82616,1,0,0:0:0:0:
402,217,82736,2,0,B|418:139|418:139|397:66,2,156.250000372529
337,172,83336,5,0,0:0:0:0:
265,200,83456,1,0,0:0:0:0:
274,122,83576,1,0,0:0:0:0:
184,46,83696,1,0,0:0:0:0:
40,127,83936,2,0,P|122:130|183:174,1,156.250000372529
168,258,84296,5,0,0:0:0:0:
101,297,84416,1,0,0:0:0:0:
168,337,84536,1,0,0:0:0:0:
273,284,84656,5,0,0:0:0:0:
348,264,84776,1,0,0:0:0:0:
328,188,84896,1,0,0:0:0:0:
253,208,85016,1,0,0:0:0:0:
145,162,85136,5,0,0:0:0:0:
100,98,85256,1,0,0:0:0:0:
145,35,85376,1,0,0:0:0:0:
220,59,85496,1,0,0:0:0:0:
220,137,85616,1,0,0:0:0:0:
345,95,85736,5,0,0:0:0:0:
331,171,85856,1,0,0:0:0:0:
318,248,85976,1,0,0:0:0:0:
303,325,86096,6,0,B|223:338|223:338|136:301,1,156.250000372529
181,234,86456,1,0,0:0:0:0:
101,147,86576,5,0,0:0:0:0:
177,131,86696,1,0,0:0:0:0:
160,54,86816,1,0,0:0:0:0:
84,70,86936,1,0,0:0:0:0:
245,180,87056,6,0,B|262:144|262:144|255:105,1,78.1250001862644
351,37,87296,2,0,B|334:73|334:73|341:112,1,78.1250001862644
340,110,87536,1,0,0:0:0:0:
402,286,87656,5,0,0:0:0:0:
325,269,87776,1,0,0:0:0:0:
380,212,87896,1,0,0:0:0:0:
457,228,88016,6,0,B|476:261|476:261|477:302,1,78.1250001862644
270,323,88256,2,0,B|251:290|251:290|250:249,1,78.1250001862644
256,42,88496,1,0,0:0:0:0:
333,50,88616,1,0,0:0:0:0:
411,58,88736,1,0,0:0:0:0:
489,66,88856,1,0,0:0:0:0:
256,42,88976,6,0,B|239:78|239:78|246:117,1,78.1250001862644
489,66,89216,2,0,B|495:103|495:103|478:139,1,78.1250001862644
410,315,89456,2,0,B|384:240|384:240|404:166,1,156.250000372529
466,214,89816,1,0,0:0:0:0:
328,313,89936,6,0,B|252:286|252:286|178:306,1,156.250000372529
197,383,90296,1,0,0:0:0:0:
149,171,90416,2,0,B|139:132|139:132|146:93,1,78.1250001862644
299,129,90656,2,0,B|309:168|309:168|302:207,1,78.1250001862644
302,205,90896,1,0,0:0:0:0:
224,150,91016,5,0,0:0:0:0:
236,76,91136,1,0,0:0:0:0:
305,47,91256,1,0,0:0:0:0:
365,91,91376,2,0,B|387:124|387:124|394:163,1,78.1250001862644
471,173,91616,2,0,B|453:209|453:209|423:234,1,78.1250001862644
424,233,91856,1,0,0:0:0:0:
366,338,91976,5,0,0:0:0:0:
289,324,92096,1,0,0:0:0:0:
212,311,92216,1,0,0:0:0:0:
147,257,92336,5,0,0:0:0:0:
138,295,92456,1,0,0:0:0:0:
242,241,92576,1,0,0:0:0:0:
229,203,92696,1,0,0:0:0:0:
160,65,92816,5,0,0:0:0:0:
208,125,92936,1,0,0:0:0:0:
274,84,93056,1,0,0:0:0:0:
225,22,93176,1,0,0:0:0:0:
74,62,93296,6,0,B|66:101|66:101|80:150,1,78.1250001862644
353,222,93536,2,0,B|361:183|361:183|347:134,1,78.1250001862644
119,270,93776,1,4,0:0:0:0:
106,315,109136,5,0,0:0:0:0:
88,265,109216,1,0,0:0:0:0:
71,216,109296,1,0,0:0:0:0:
122,204,109376,5,0,0:0:0:0:
139,154,109456,1,0,0:0:0:0:
156,105,109536,1,0,0:0:0:0:
85,70,109616,5,0,0:0:0:0:
106,23,109696,1,0,0:0:0:0:
151,0,109776,1,0,0:0:0:0:
202,6,109856,1,0,0:0:0:0:
238,42,109936,1,0,0:0:0:0:
246,93,110016,1,0,0:0:0:0:
222,138,110096,6,0,L|118:152,1,104.166666915019
88,225,110336,2,0,L|219:244,1,104.166666915019
191,239,110576,1,0,0:0:0:0:
36,217,110816,1,0,0:0:0:0:
165,347,111056,5,0,0:0:0:0:
215,336,111136,1,0,0:0:0:0:
266,325,111216,1,0,0:0:0:0:
266,272,111296,5,0,0:0:0:0:
317,283,111376,1,0,0:0:0:0:
368,294,111456,1,0,0:0:0:0:
406,361,111536,5,0,0:0:0:0:
452,339,111616,1,0,0:0:0:0:
476,294,111696,1,0,0:0:0:0:
469,243,111776,1,0,0:0:0:0:
433,207,111856,1,0,0:0:0:0:
382,199,111936,1,0,0:0:0:0:
337,223,112016,6,0,L|322:345,1,104.166666915019
252,295,112256,2,0,L|238:191,1,104.166666915019
238,191,112496,1,0,0:0:0:0:
258,346,112736,1,0,0:0:0:0:
58,287,112976,5,0,0:0:0:0:
97,253,113056,1,0,0:0:0:0:
147,240,113136,1,0,0:0:0:0:
198,250,113216,2,0,P|223:266|238:298,2,52.0833334575096
64,197,113456,5,0,0:0:0:0:
98,158,113536,1,0,0:0:0:0:
111,108,113616,1,0,0:0:0:0:
101,57,113696,2,0,P|85:32|53:17,2,52.0833334575096
190,148,113936,5,0,0:0:0:0:
229,181,114016,1,0,0:0:0:0:
279,194,114096,1,0,0:0:0:0:
330,184,114176,2,0,P|354:168|369:136,2,52.0833334575096
271,80,114416,5,0,0:0:0:0:
251,104,114496,1,0,0:0:0:0:
238,132,114576,1,0,0:0:0:0:
232,163,114656,1,0,0:0:0:0:
232,194,114736,1,0,0:0:0:0:
240,224,114816,1,0,0:0:0:0:
254,252,114896,6,0,P|281:245|301:226,2,52.0833334575096
149,245,115136,6,0,P|122:252|102:271,2,52.0833334575096
193,340,115376,6,0,P|200:366|219:386,2,52.0833334575096
216,157,115616,5,0,0:0:0:0:
187,95,115696,1,0,0:0:0:0:
123,73,115776,1,0,0:0:0:0:
62,103,115856,6,0,P|74:152|116:186,1,104.166666915019
170,20,116096,2,0,P|122:5|71:24,1,104.166666915019
73,23,116336,1,0,0:0:0:0:
227,46,116576,1,0,0:0:0:0:
381,24,116816,6,0,B|404:11|404:11|434:14,2,52.0833334575096
342,91,117056,2,0,B|319:104|319:104|289:101,2,52.0833334575096
421,89,117296,5,0,0:0:0:0:
432,139,117376,1,0,0:0:0:0:
444,190,117456,1,0,0:0:0:0:
456,241,117536,5,0,0:0:0:0:
413,212,117616,1,0,0:0:0:0:
362,210,117696,1,0,0:0:0:0:
316,233,117776,6,0,P|310:286|331:332,1,104.166666915019
397,373,118016,2,0,P|403:320|382:274,1,104.166666915019
255,305,118256,5,0,0:0:0:0:
177,306,118336,1,0,0:0:0:0:
111,266,118416,1,0,0:0:0:0:
75,198,118496,1,0,0:0:0:0:
80,121,118576,1,0,0:0:0:0:
125,58,118656,1,0,0:0:0:0:
196,28,118736,6,0,P|200:64|188:105,2,52.0833334575096
276,97,118976,2,0,P|261:129|230:158,2,52.0833334575096
309,195,119216,2,0,P|280:215|238:225,2,52.0833334575096
289,297,119456,2,0,P|253:300|212:288,2,52.0833334575096
124,300,119696,6,0,B|138:322|138:322|137:349,2,52.0833334575096
56,260,119936,2,0,B|34:274|34:274|7:273,2,52.0833334575096
95,192,120176,2,0,B|81:170|81:170|82:143,2,52.0833334575096
163,232,120416,2,0,B|185:218|185:218|212:219,2,52.0833334575096
217,320,120656,5,0,0:0:0:0:
260,347,120736,1,0,0:0:0:0:
311,345,120816,1,0,0:0:0:0:
352,314,120896,2,0,P|367:296|371:268,2,52.0833334575096
422,351,121136,5,0,0:0:0:0:
449,307,121216,1,0,0:0:0:0:
447,256,121296,1,0,0:0:0:0:
416,215,121376,2,0,P|397:200|369:196,2,52.0833334575096
310,232,121616,5,0,0:0:0:0:
282,188,121696,1,0,0:0:0:0:
284,137,121776,1,0,0:0:0:0:
315,96,121856,2,0,P|369:76|417:90,1,104.166666915019
388,161,122096,5,0,0:0:0:0:
335,183,122176,1,0,0:0:0:0:
283,157,122256,1,0,0:0:0:0:
230,179,122336,1,0,0:0:0:0:
179,154,122416,1,0,0:0:0:0:
126,176,122496,1,0,0:0:0:0:
76,146,122576,5,0,0:0:0:0:
73,180,122656,1,0,0:0:0:0:
71,215,122736,1,0,0:0:0:0:
68,249,122816,2,0,L|62:365,1,104.166666915019
62,353,123056,5,0,0:0:0:0:
269,281,123416,1,0,0:0:0:0:
346,303,123536,6,0,P|345:241|331:202,1,104.166666915019
287,157,123776,1,0,0:0:0:0:
224,153,123856,1,0,0:0:0:0:
162,150,123936,1,0,0:0:0:0:
99,147,124016,5,0,0:0:0:0:
122,194,124096,1,0,0:0:0:0:
145,241,124176,1,0,0:0:0:0:
168,287,124256,5,0,0:0:0:0:
190,252,124336,1,0,0:0:0:0:
213,218,124416,1,0,0:0:0:0:
236,183,124496,6,0,L|269:124,2,52.0833334575096
271,260,124736,2,0,L|303:319,2,52.0833334575096
309,190,124976,5,0,0:0:0:0:
360,192,125056,1,0,0:0:0:0:
407,214,125136,1,0,0:0:0:0:
442,252,125216,2,0,P|454:280|450:322,2,52.0833334575096
408,152,125456,5,0,0:0:0:0:
368,95,125536,1,0,0:0:0:0:
306,67,125616,1,0,0:0:0:0:
237,75,125696,1,0,0:0:0:0:
182,116,125776,1,0,0:0:0:0:
156,179,125856,1,0,0:0:0:0:
166,247,125936,6,0,P|220:262|281:251,1,104.166666915019
340,228,126176,2,0,P|356:255|361:295,2,52.0833334575096
277,179,126416,5,0,0:0:0:0:
300,168,126496,1,0,0:0:0:0:
325,161,126576,1,0,0:0:0:0:
351,158,126656,1,0,0:0:0:0:
377,158,126736,1,0,0:0:0:0:
403,163,126816,1,0,0:0:0:0:
427,171,126896,6,0,P|450:181|477:204,2,52.0833334575096
410,248,127136,2,0,P|424:267|436:300,2,52.0833334575096
340,283,127376,5,0,0:0:0:0:
268,250,127496,1,0,0:0:0:0:
244,175,127616,1,0,0:0:0:0:
195,236,127736,1,0,0:0:0:0:
116,242,127856,6,0,P|72:193|163:117,1,187.500007599592
136,111,128216,1,0,0:0:0:0:
325,135,128336,5,0,0:0:0:0:
312,73,128456,1,0,0:0:0:0:
325,135,128576,1,0,0:0:0:0:
312,73,128696,1,0,0:0:0:0:
274,208,128816,6,0,P|366:234|401:147,1,187.500007599592
404,166,129176,1,0,0:0:0:0:
146,147,129296,5,0,0:0:0:0:
128,239,129416,1,0,0:0:0:0:
146,147,129536,1,0,0:0:0:0:
128,239,129656,1,0,0:0:0:0:
93,54,129776,6,0,P|164:20|230:111,1,187.500007599592
219,182,130136,5,0,0:0:0:0:
355,213,130256,1,0,0:0:0:0:
315,78,130376,1,0,0:0:0:0:
195,258,130496,5,0,0:0:0:0:
331,289,130616,1,0,0:0:0:0:
291,154,130736,1,0,0:0:0:0:
254,240,130856,5,0,0:0:0:0:
283,329,130976,5,0,0:0:0:0:
283,329,131096,1,0,0:0:0:0:
103,276,131216,5,0,0:0:0:0:
90,321,131336,1,0,0:0:0:0:
131,185,131456,5,0,0:0:0:0:
143,139,131576,1,0,0:0:0:0:
162,293,131696,5,0,0:0:0:0:
174,338,131816,1,0,0:0:0:0:
78,157,131936,5,0,0:0:0:0:
65,111,132056,2,0,B|90:74|90:74|160:65,1,93.7500037997961
336,204,132296,5,0,0:0:0:0:
388,73,132416,1,0,0:0:0:0:
284,73,132536,1,0,0:0:0:0:
241,279,132656,5,0,0:0:0:0:
303,279,132776,1,0,0:0:0:0:
366,279,132896,1,0,0:0:0:0:
428,279,133016,2,0,L|548:279,1,93.7500037997961
336,204,133256,5,0,0:0:0:0:
284,335,133376,1,0,0:0:0:0:
388,335,133496,1,0,0:0:0:0:
431,129,133616,5,0,0:0:0:0:
369,129,133736,1,0,0:0:0:0:
306,129,133856,1,0,0:0:0:0:
244,129,133976,2,0,L|140:129,1,93.7500037997961
65,170,134216,5,0,0:0:0:0:
65,170,134276,1,0,0:0:0:0:
65,170,134336,2,0,P|57:217|59:262,1,93.7500037997961
152,258,134576,5,0,0:0:0:0:
232,210,134696,1,0,0:0:0:0:
325,215,134816,1,0,0:0:0:0:
390,282,134936,1,0,0:0:0:0:
225,371,135056,6,0,P|216:325|216:274,1,93.7500037997961
249,140,135296,2,0,P|272:147|291:163,2,46.875001899898
155,150,135536,5,0,0:0:0:0:
203,28,135656,1,0,0:0:0:0:
334,40,135776,1,0,0:0:0:0:
359,169,135896,2,0,P|355:219|344:262,1,93.7500037997961
252,240,136136,5,0,0:0:0:0:
275,301,136256,2,0,P|227:304|180:293,1,93.7500037997961
149,102,136496,5,0,0:0:0:0:
57,79,136616,1,0,0:0:0:0:
33,169,136736,1,0,0:0:0:0:
121,198,136856,2,0,P|171:201|230:184,1,93.7500037997961
260,144,137096,5,0,0:0:0:0:
237,83,137216,2,0,P|285:80|332:91,1,93.7500037997961
403,212,137456,5,0,0:0:0:0:
301,277,137616,1,0,0:0:0:0:
185,241,137776,1,0,0:0:0:0:
139,129,137936,1,0,0:0:0:0:
73,130,138056,6,0,P|71:91|80:49,2,78.1250001862644,0|2|0,0:0|0:0|0:0,0:0:0:0:
111,206,138416,5,0,0:0:0:0:
152,178,138496,1,0,0:0:0:0:
202,179,138576,1,0,0:0:0:0:
237,230,138656,5,0,0:0:0:0:
298,226,138736,1,0,0:0:0:0:
348,190,138816,1,0,0:0:0:0:
297,134,138896,5,0,0:0:0:0:
273,203,138976,1,0,0:0:0:0:
302,271,139056,1,0,0:0:0:0:
256,346,139136,5,0,0:0:0:0:
173,366,139216,1,0,0:0:0:0:
99,323,139296,1,0,0:0:0:0:
76,241,139376,6,0,P|72:177|106:126,1,125.000005066395
225,92,139616,2,0,P|229:156|195:207,1,125.000005066395
286,335,141776,6,0,P|344:318|432:323,1,117.187500279397
481,218,142016,2,0,P|439:222|397:215,1,78.1250001862644
220,137,142256,5,0,0:0:0:0:
297,128,142376,1,0,0:0:0:0:
287,50,142496,1,0,0:0:0:0:
209,59,142616,1,0,0:0:0:0:
179,194,142736,5,0,0:0:0:0:
205,267,142856,1,0,0:0:0:0:
54,226,142976,5,0,0:0:0:0:
80,153,143096,1,0,0:0:0:0:
191,81,143216,6,0,P|271:91|342:126,1,156.250000372529
276,233,143576,2,0,P|266:184|274:132,1,78.1250001862644
297,8,143816,5,0,0:0:0:0:
416,106,143936,1,0,0:0:0:0:
268,157,144056,1,0,0:0:0:0:
431,26,144176,5,0,0:0:0:0:
488,128,144296,1,0,0:0:0:0:
427,228,144416,1,0,0:0:0:0:
474,335,144536,1,0,0:0:0:0:
399,312,144656,5,0,0:0:0:0:
355,161,144776,1,0,0:0:0:0:
203,198,144896,1,0,0:0:0:0:
247,349,145016,1,0,0:0:0:0:
277,341,145136,6,0,P|290:303|293:260,1,78.1250001862644
294,226,145376,1,0,0:0:0:0:
294,226,145616,5,0,0:0:0:0:
169,223,145736,2,0,L|58:223,1,78.1250001862644
90,223,145976,1,0,0:0:0:0:
294,226,146096,5,0,0:0:0:0:
419,222,146216,2,0,L|530:222,1,78.1250001862644
498,222,146456,1,0,0:0:0:0:
451,62,146576,5,0,0:0:0:0:
375,80,146696,1,0,0:0:0:0:
299,98,146816,1,0,0:0:0:0:
223,116,146936,1,0,0:0:0:0:
148,217,147056,2,0,L|246:361,1,156.250000372529
235,346,147536,5,0,0:0:0:0:
383,297,147656,1,0,0:0:0:0:
264,195,147776,1,0,0:0:0:0:
274,224,147896,1,0,0:0:0:0:
310,274,148016,5,0,0:0:0:0:
355,116,148136,1,0,0:0:0:0:
196,74,148256,1,0,0:0:0:0:
151,232,148376,1,0,0:0:0:0:
249,154,148496,5,0,0:0:0:0:
272,31,148616,5,0,0:0:0:0:
206,116,148736,1,0,0:0:0:0:
281,215,148856,1,0,0:0:0:0:
217,322,148976,5,0,0:0:0:0:
271,175,149096,5,0,0:0:0:0:
329,30,149216,5,0,0:0:0:0:
329,30,149456,6,0,P|312:88|317:176,1,117.187500279397
212,225,149696,2,0,P|216:183|209:141,1,78.1250001862644
136,340,149936,5,0,0:0:0:0:
57,330,150056,1,0,0:0:0:0:
67,252,150176,1,0,0:0:0:0:
144,262,150296,1,0,0:0:0:0:
320,300,150416,5,0,0:0:0:0:
396,316,150536,1,0,0:0:0:0:
366,203,150656,5,0,0:0:0:0:
289,219,150776,1,0,0:0:0:0:
217,187,150896,6,0,P|216:109|252:25,1,156.250000372529
357,110,151256,2,0,P|306:110|271:103,1,78.1250001862644
153,76,151496,1,0,0:0:0:0:
109,225,151616,2,0,P|111:181|122:144,1,78.1250001862644
180,198,151856,5,0,0:0:0:0:
241,258,151976,1,0,0:0:0:0:
182,315,152096,1,0,0:0:0:0:
244,376,152216,1,0,0:0:0:0:
418,277,152336,5,0,0:0:0:0:
428,198,152456,1,0,0:0:0:0:
352,187,152576,1,0,0:0:0:0:
339,264,152696,1,0,0:0:0:0:
483,324,152816,6,0,B|496:286|496:286|489:246,1,78.1250001862644
290,142,153056,2,0,B|277:180|277:180|284:220,1,78.1250001862644
418,46,153296,5,0,0:0:0:0:
452,115,153416,2,0,P|382:123|347:41,1,156.250000372529
418,46,153776,5,0,0:0:0:0:
343,56,153896,2,0,P|378:121|452:115,1,156.250000372529
477,189,154256,5,0,0:0:0:0:
398,191,154376,1,0,0:0:0:0:
362,260,154496,1,0,0:0:0:0:
283,262,154616,1,0,0:0:0:0:
227,206,154736,6,0,P|224:165|231:127,1,78.1250001862644
319,51,154976,2,0,P|322:92|315:130,1,78.1250001862644
120,82,155216,5,0,0:0:0:0:
151,50,155336,1,0,0:0:0:0:
120,50,155456,1,0,0:0:0:0:
151,82,155576,1,0,0:0:0:0:
40,213,155696,5,0,0:0:0:0:
102,150,155816,1,0,0:0:0:0:
40,150,155936,1,0,0:0:0:0:
102,213,156056,1,0,0:0:0:0:
179,301,156176,5,0,0:0:0:0:
262,217,156296,1,0,0:0:0:0:
179,217,156416,1,0,0:0:0:0:
262,301,156536,1,0,0:0:0:0:
217,145,156656,5,0,0:0:0:0:
403,63,156776,1,0,0:0:0:0:
325,52,156896,1,0,0:0:0:0:
248,42,157016,1,0,0:0:0:0:
170,32,157136,5,0,0:0:0:0:
170,32,157376,2,0,B|147:72|147:72|153:119,1,93.7500037997961
293,128,157616,5,0,0:0:0:0:
355,191,157736,1,0,0:0:0:0:
327,280,157856,1,0,0:0:0:0:
265,217,157976,1,0,0:0:0:0:
293,128,158096,6,0,B|332:104|332:104|379:110,1,93.7500037997961
327,280,158336,2,0,B|287:303|287:303|240:297,1,93.7500037997961
240,297,158576,1,0,0:0:0:0:
178,232,158696,5,0,0:0:0:0:
191,140,158816,1,0,0:0:0:0:
178,232,158936,1,0,0:0:0:0:
178,45,159056,6,0,B|227:49|227:49|262:78,1,93.7500037997961
187,332,159296,2,0,B|137:327|137:327|102:298,1,93.7500037997961
110,205,159536,5,0,0:0:0:0:
195,165,159656,1,0,0:0:0:0:
275,212,159776,1,0,0:0:0:0:
357,171,159896,1,0,0:0:0:0:
110,205,160016,6,0,B|96:158|96:158|113:114,1,93.7500037997961
357,171,160256,2,0,B|371:218|371:218|354:262,1,93.7500037997961
268,147,160496,2,0,B|338:87|338:87|432:115,1,187.500007599592
429,114,160856,1,0,0:0:0:0:
175,31,160976,6,0,B|202:122|202:122|168:207,1,187.500007599592
98,178,161336,1,0,0:0:0:0:
272,286,161456,2,0,B|363:258|363:258|448:293,2,187.500007599592
333,356,162056,5,0,0:0:0:0:
348,263,162176,1,0,0:0:0:0:
305,179,162296,1,0,0:0:0:0:
215,150,162416,2,0,B|180:234|180:234|208:326,2,187.500007599592
331,35,163016,5,0,0:0:0:0:
325,129,163136,1,0,0:0:0:0:
409,88,163256,1,0,0:0:0:0:
199,2,163376,5,0,0:0:0:0:
108,22,163496,1,0,0:0:0:0:
130,114,163616,1,0,0:0:0:0:
221,92,163736,1,0,0:0:0:0:
260,301,163856,5,0,0:0:0:0:
260,149,163976,1,0,0:0:0:0:
170,272,164096,1,0,0:0:0:0:
315,225,164216,1,0,0:0:0:0:
170,178,164336,1,0,0:0:0:0:
384,104,164456,5,0,0:0:0:0:
394,181,164576,1,0,0:0:0:0:
404,258,164696,1,0,0:0:0:0:
414,336,164816,5,0,0:0:0:0:
414,336,165056,2,0,B|374:359|374:359|327:353,1,93.7500037997961
247,183,165296,5,0,0:0:0:0:
184,121,165416,1,0,0:0:0:0:
95,149,165536,1,0,0:0:0:0:
158,211,165656,1,0,0:0:0:0:
247,183,165776,6,0,B|270:143|270:143|264:96,1,93.7500037997961
95,149,166016,2,0,B|71:188|71:188|77:235,1,93.7500037997961
158,211,166256,1,0,0:0:0:0:
223,273,166376,5,0,0:0:0:0:
315,260,166496,1,0,0:0:0:0:
223,273,166616,1,0,0:0:0:0:
410,273,166736,6,0,B|405:223|405:223|376:188,1,93.7500037997961
123,264,166976,2,0,B|127:313|127:313|156:348,1,93.7500037997961
250,341,167216,5,0,0:0:0:0:
290,256,167336,1,0,0:0:0:0:
243,176,167456,1,0,0:0:0:0:
284,94,167576,1,0,0:0:0:0:
250,341,167696,6,0,B|297:355|297:355|341:338,1,93.7500037997961
284,94,167936,2,0,B|237:80|237:80|193:97,1,93.7500037997961
308,183,168176,2,0,B|368:113|368:113|340:19,1,187.500007599592
341,22,168536,1,0,0:0:0:0:
424,276,168656,6,0,B|332:248|332:248|248:283,1,187.500007599592
277,353,169016,1,0,0:0:0:0:
169,179,169136,2,0,B|196:87|196:87|162:3,2,187.500007599592
99,118,169736,5,0,0:0:0:0:
192,103,169856,1,0,0:0:0:0:
276,146,169976,1,0,0:0:0:0:
305,236,170096,2,0,B|220:270|220:270|129:243,2,187.500007599592
404,121,170696,5,0,0:0:0:0:
310,127,170816,1,0,0:0:0:0:
351,43,170936,1,0,0:0:0:0:
437,253,171056,5,0,0:0:0:0:
417,344,171176,1,0,0:0:0:0:
325,322,171296,1,0,0:0:0:0:
347,231,171416,1,0,0:0:0:0:
138,192,171536,5,0,0:0:0:0:
290,192,171656,1,0,0:0:0:0:
167,282,171776,1,0,0:0:0:0:
214,137,171896,1,0,0:0:0:0:
261,282,172016,1,0,0:0:0:0:
261,282,172256,6,0,P|358:262|377:172,1,187.500007599592
