osu file format v14

[General]
AudioFilename: audio.mp3
AudioLeadIn: 0
PreviewTime: 156776
Countdown: 0
SampleSet: Soft
StackLeniency: 0.2
Mode: 0
LetterboxInBreaks: 0
WidescreenStoryboard: 0

[Editor]
DistanceSpacing: 0.93
BeatDivisor: 6
GridSize: 8
TimelineZoom: 3.699999

[Metadata]
Title:Loner
TitleUnicode:외톨이
Artist:Outsider
ArtistUnicode:아웃사이더
Creator:Cellina
Version:Solitary
Source:
Tags:piu pump it up prime hip hop pop dailycare morinaga sonnyc kaguya_sama abelia moly niedola doyak maestro hiphop korean kpop
BeatmapID:2182032
BeatmapSetID:1043653

[Difficulty]
HPDrainRate:4
CircleSize:4
OverallDifficulty:8.7
ApproachRate:9.6
SliderMultiplier:3.4
SliderTickRate:1

[Events]
//Background and Video events
0,0,"cellina.jpg",0,0
//Break Periods
2,93976,108627
//Storyboard Layer 0 (Background)
//Storyboard Layer 1 (Fail)
//Storyboard Layer 2 (Pass)
//Storyboard Layer 3 (Foreground)
//Storyboard Layer 4 (Overlay)
//Storyboard Sound Samples

[TimingPoints]
32336,480,4,2,1,60,1,0
78416,-100,4,2,1,75,0,0
109136,-100,4,2,1,70,0,0
140816,-333.333333333333,4,2,1,70,0,0
141776,-100,4,2,1,60,0,0
157136,-100,4,2,1,75,0,0

[Colours]
Combo1 : 252,165,208
Combo2 : 253,255,151
Combo3 : 245,159,255
Combo4 : 255,206,132

[HitObjects]
30,367,32336,6,0,P|61:279|136:271,1,170,2|0,1:2|0:0,0:0:0:0:
241,149,32696,1,0,0:0:0:0:
174,106,32816,2,0,B|155:147|155:147|172:200,1,85,10|0,0:0|0:0,0:0:0:0:
221,371,33056,2,0,B|240:330|240:330|223:277,1,85,0|0,0:0|0:0,0:0:0:0:
128,268,33296,5,2,1:2:0:0:
296,211,33416,2,0,B|376:183,1,85,0|0,0:0|0:0,0:0:0:0:
174,106,33656,1,0,0:0:0:0:
128,38,33776,2,0,P|49:58|29:136,1,170,10|0,0:2|0:0,0:0:0:0:
207,11,34136,2,0,P|244:9|299:21,1,85,0|2,0:0|1:2,0:0:0:0:
377,184,34376,5,0,0:0:0:0:
437,234,34496,1,0,0:0:0:0:
509,201,34616,1,0,0:0:0:0:
442,103,34736,5,10,0:2:0:0:
447,128,34856,1,0,0:0:0:0:
363,260,34976,5,0,0:0:0:0:
355,338,35096,1,0,0:0:0:0:
427,370,35216,5,2,1:2:0:0:
196,368,35336,2,0,B|236:354|236:354|282:363,1,85,0|0,0:0|0:0,0:0:0:0:
0,299,35576,1,0,0:0:0:0:
165,287,35696,2,0,B|47:267|112:318|-3:298,1,170,10|0,0:0|0:0,0:0:0:0:
233,233,36056,1,0,0:0:0:0:
101,167,36176,5,2,1:2:0:0:
34,127,36296,2,0,B|19:171|19:171|38:220,1,85,0|0,0:0|0:0,0:0:0:0:
101,167,36536,1,0,0:0:0:0:
233,233,36656,5,10,0:0:0:0:
300,273,36776,2,0,B|315:229|315:229|296:180,1,85,0|0,0:0|0:0,0:0:0:0:
219,69,37016,5,0,0:0:0:0:
265,0,37136,5,2,1:2:0:0:
148,20,37256,1,0,0:0:0:0:
169,138,37376,1,0,0:0:0:0:
286,117,37496,1,0,0:0:0:0:
219,69,37616,2,0,B|337:49|272:100|384:80,1,170,10|0,0:0|0:0,0:0:0:0:
140,384,38096,5,2,1:2:0:0:
158,308,38216,1,0,0:0:0:0:
109,245,38336,5,0,0:0:0:0:
95,87,38456,1,0,0:0:0:0:
16,126,38576,5,10,0:0:0:0:
81,170,38696,1,0,0:0:0:0:
154,142,38816,1,0,0:0:0:0:
229,186,38936,5,0,0:0:0:0:
291,120,39056,5,2,1:2:0:0:
287,101,39176,1,0,0:0:0:0:
382,84,39296,5,0,0:0:0:0:
386,65,39416,1,0,0:0:0:0:
469,126,39536,5,10,0:0:0:0:
420,188,39656,1,0,0:0:0:0:
472,246,39776,1,0,0:0:0:0:
140,384,40016,6,0,B|87:319|87:319|128:238,1,170,2|0,1:2|0:0,0:0:0:0:
91,85,40376,1,0,0:0:0:0:
11,47,40496,2,0,B|-3:89|-3:89|19:133,1,85,10|0,0:0|0:0,0:0:0:0:
224,264,40736,2,0,B|242:227|242:227|228:185,1,85,0|0,0:0|0:0,0:0:0:0:
139,160,40976,5,2,1:2:0:0:
296,329,41096,2,0,B|383:320,1,85,0|0,0:0|0:0,0:0:0:0:
381,95,41336,5,0,0:0:0:0:
224,264,41456,2,0,B|163:256|163:256|118:282|118:282|37:270,1,170,10|0,0:0|0:0,0:0:0:0:
228,185,41816,2,0,B|251:149|251:149|240:98,1,85,0|2,0:0|1:2,0:0:0:0:
11,47,42056,5,0,0:0:0:0:
81,82,42176,1,0,0:0:0:0:
148,40,42296,1,0,0:0:0:0:
242,107,42416,5,10,0:0:0:0:
244,86,42536,1,0,0:0:0:0:
360,18,42656,5,0,0:0:0:0:
381,95,42776,1,0,0:0:0:0:
476,171,42896,5,2,1:2:0:0:
446,244,43016,2,0,P|432:290|438:332,1,85,0|0,0:0|0:0,0:0:0:0:
262,250,43256,1,0,0:0:0:0:
130,317,43376,2,0,B|248:297|183:348|298:328,1,170,10|0,0:0|0:0,0:0:0:0:
262,250,43736,1,0,0:0:0:0:
32,279,43856,5,2,1:2:0:0:
35,363,43976,2,0,P|31:319|31:279,1,85,0|0,0:0|0:0,0:0:0:0:
101,209,44216,1,0,0:0:0:0:
193,180,44336,5,10,0:0:0:0:
190,96,44456,2,0,P|194:140|194:180,1,85,0|0,0:0|0:0,0:0:0:0:
262,250,44696,1,0,0:0:0:0:
353,217,44816,5,2,1:2:0:0:
365,98,44936,1,0,0:0:0:0:
483,110,45056,1,0,0:0:0:0:
471,229,45176,1,0,0:0:0:0:
384,319,45296,2,0,B|271:299|336:350|218:330,1,170,10|0,0:2|0:0,0:0:0:0:
124,15,45776,5,2,1:2:0:0:
142,91,45896,1,0,0:0:0:0:
93,154,46016,5,0,0:0:0:0:
79,312,46136,1,0,0:0:0:0:
0,273,46256,5,10,0:0:0:0:
65,229,46376,1,0,0:0:0:0:
138,257,46496,1,0,0:0:0:0:
218,330,46616,5,0,0:0:0:0:
300,262,46736,5,2,1:2:0:0:
294,232,46856,1,0,0:0:0:0:
492,203,46976,5,0,0:0:0:0:
481,296,47096,1,0,0:0:0:0:
384,319,47216,5,10,0:0:0:0:
396,240,47336,1,0,0:0:0:0:
351,174,47456,5,0,0:0:0:0:
324,18,47576,1,0,0:0:0:0:
253,85,47696,6,0,P|333:52|418:66,1,170,4|0,1:0|0:0,0:0:0:0:
196,15,48056,1,0,0:0:0:0:
126,61,48176,2,0,P|87:54|36:32,1,85,10|0,0:0|0:0,0:0:0:0:
233,162,48416,1,0,0:0:0:0:
253,85,48536,1,0,0:0:0:0:
77,155,48656,6,0,B|89:244,1,85,0|0,1:0|0:0,0:0:0:0:
29,328,48896,2,0,B|92:272|92:272|188:310,1,170,0|10,0:0|0:0,0:0:0:0:
340,384,49256,1,0,0:0:0:0:
418,373,49376,1,0,0:0:0:0:
370,311,49496,1,0,0:0:0:0:
292,322,49616,6,0,P|281:278|287:221,1,85,2|0,1:2|0:0,0:0:0:0:
413,64,49856,2,0,P|424:108|418:165,1,85,0|0,0:0|0:0,0:0:0:0:
381,220,50096,5,8,0:0:0:0:
459,230,50216,1,0,0:0:0:0:
234,160,50336,5,0,0:0:0:0:
312,150,50456,1,0,0:0:0:0:
88,239,50576,6,0,P|77:195|82:138,1,85,2|0,1:2|0:0,0:0:0:0:
157,90,50816,2,0,P|75:116|15:53,1,170,0|8,0:0|0:0,0:0:0:0:
252,0,51176,2,0,P|262:41|261:83,1,85,0|0,0:0|0:0,0:0:0:0:
234,160,51416,1,0,0:0:0:0:
282,384,51536,6,0,P|254:301|284:217,1,170,2|0,1:2|0:0,0:0:0:0:
234,160,51896,1,0,0:0:0:0:
381,220,52016,2,0,P|387:268|403:335,1,85,8|0,0:0|0:0,0:0:0:0:
157,90,52256,2,0,P|151:138|135:205,1,85,2|0,0:0|0:0,0:0:0:0:
174,246,52496,1,0,1:0:0:0:
71,381,52616,5,0,0:0:0:0:
11,309,52736,1,0,0:0:0:0:
103,292,52856,1,0,0:0:0:0:
163,365,52976,2,0,B|276:345|211:396|329:376,1,170,8|2,0:0|0:0,0:0:0:0:
394,301,53336,1,0,0:0:0:0:
481,348,53456,1,0,1:0:0:0:
297,289,53576,5,0,0:0:0:0:
333,220,53696,2,0,B|313:184|313:184|321:136,1,85,0|0,0:0|0:0,0:0:0:0:
508,24,53936,5,8,0:0:0:0:
472,93,54056,2,0,B|492:129|492:129|484:177,1,85,0|0,0:0|0:0,0:0:0:0:
448,241,54296,1,0,0:0:0:0:
320,140,54416,5,0,1:0:0:0:
242,122,54536,1,0,0:0:0:0:
190,182,54656,5,0,0:0:0:0:
35,206,54776,1,0,0:0:0:0:
83,268,54896,2,0,P|72:172|76:72,1,170,10|2,0:0|0:0,0:0:0:0:
73,98,55376,5,2,1:2:0:0:
129,42,55496,1,0,0:0:0:0:
208,51,55616,1,0,0:0:0:0:
242,122,55736,1,0,0:0:0:0:
319,194,55856,5,8,0:0:0:0:
324,223,55976,1,0,0:0:0:0:
400,276,56096,5,0,0:0:0:0:
419,119,56216,1,0,0:0:0:0:
412,197,56336,5,2,1:2:0:0:
490,252,56456,2,0,P|397:229|294:223,1,170,0|0,0:0|0:0,0:0:0:0:
268,279,56816,5,10,0:0:0:0:
302,350,56936,1,0,0:0:0:0:
174,280,57056,5,0,0:0:0:0:
152,356,57176,1,0,0:0:0:0:
77,380,57296,5,2,1:2:0:0:
60,222,57416,1,0,0:0:0:0:
85,147,57536,5,0,0:0:0:0:
7,163,57656,1,0,0:0:0:0:
53,73,57776,5,8,0:0:0:0:
26,71,57896,1,0,0:0:0:0:
129,12,58016,5,0,0:0:0:0:
190,61,58136,1,0,0:0:0:0:
268,68,58256,1,2,1:2:0:0:
341,39,58376,1,0,0:0:0:0:
412,72,58496,5,0,0:0:0:0:
417,104,58616,1,0,0:0:0:0:
484,144,58736,5,8,0:0:0:0:
458,299,58856,2,0,P|359:283|287:278,1,170
231,331,59216,5,2,1:2:0:0:
161,293,59336,1,0,0:0:0:0:
92,331,59456,2,0,P|83:278|87:220,1,85,0|0,0:0|0:0,0:0:0:0:
39,46,59696,5,8,0:0:0:0:
157,53,59816,1,0,0:0:0:0:
148,173,59936,1,0,0:0:0:0:
30,164,60056,1,0,0:0:0:0:
83,246,60176,5,0,1:0:0:0:
6,265,60296,1,0,0:0:0:0:
83,246,60416,2,0,B|177:258,1,85,0|0,0:0|0:0,0:0:0:0:
275,216,60656,5,10,0:0:0:0:
282,334,60776,1,2,0:0:0:0:
402,325,60896,1,2,0:0:0:0:
393,207,61016,1,0,0:0:0:0:
457,161,61136,5,2,1:2:0:0:
474,83,61256,1,0,0:0:0:0:
396,100,61376,2,0,P|390:63|393:9,1,85,0|0,0:0|0:0,0:0:0:0:
322,281,61616,5,10,0:2:0:0:
275,216,61736,1,0,0:0:0:0:
201,186,61856,1,0,0:0:0:0:
122,191,61976,1,0,0:0:0:0:
52,228,62096,5,2,1:2:0:0:
35,150,62216,1,0,0:0:0:0:
86,90,62336,5,0,0:0:0:0:
96,11,62456,1,0,0:0:0:0:
23,43,62576,5,10,0:2:0:0:
179,65,62696,1,0,0:0:0:0:
335,87,62816,1,2,0:0:0:0:
39,331,63056,5,2,1:2:0:0:
102,378,63176,2,0,B|122:340|122:340|109:295,1,85,0|0,0:0|0:0,0:0:0:0:
149,137,63416,1,0,0:0:0:0:
86,90,63536,2,0,B|66:128|66:128|79:173,1,85,8|0,0:0|0:0,0:0:0:0:
265,240,63776,2,0,B|160:230,1,85,0|0,0:0|0:0,0:0:0:0:
269,369,64016,5,0,1:0:0:0:
304,329,64096,1,0,0:0:0:0:
356,326,64176,1,0,0:0:0:0:
399,354,64256,2,0,P|450:345|499:345,1,85,2|0,0:0|0:0,0:0:0:0:
299,153,64496,1,10,0:0:0:0:
430,228,64616,2,0,B|317:208|382:259|264:239,1,170,0|0,0:0|0:0,0:0:0:0:
77,168,64976,5,2,1:2:0:0:
25,88,65096,2,0,P|72:88|121:81,1,85,0|0,0:0|0:0,0:0:0:0:
113,314,65336,1,0,0:0:0:0:
51,358,65456,2,0,P|33:322|44:275,1,85,8|0,0:0|0:0,0:0:0:0:
196,98,65696,2,0,P|213:133|202:180,1,85,0|0,0:0|0:0,0:0:0:0:
113,314,65936,5,2,1:2:0:0:
173,263,66056,1,0,0:0:0:0:
250,247,66176,1,0,0:0:0:0:
328,254,66296,1,0,0:0:0:0:
400,286,66416,1,8,0:0:0:0:
455,342,66536,1,0,0:0:0:0:
384,377,66656,5,0,0:0:0:0:
482,252,66776,1,0,0:0:0:0:
421,201,66896,2,0,B|405:163|405:163|422:109,1,85,2|0,1:2|0:0,0:0:0:0:
496,0,67136,2,0,B|512:38|512:38|495:92,1,85,0|0,0:0|0:0,0:0:0:0:
315,37,67376,2,0,B|410:29,1,85,8|0,0:0|0:0,0:0:0:0:
328,254,67616,5,2,0:2:0:0:
265,301,67736,1,0,0:0:0:0:
186,289,67856,1,0,1:0:0:0:
153,216,67976,1,0,0:0:0:0:
186,144,68096,5,0,0:0:0:0:
197,127,68216,1,0,0:0:0:0:
245,64,68336,5,10,0:2:0:0:
183,14,68456,2,0,P|145:23|89:30,1,85
70,102,68696,1,0,0:0:0:0:
9,223,68816,6,0,B|-10:188|-10:188|3:145,1,85,2|0,1:2|0:0,0:0:0:0:
325,11,69056,2,0,B|344:46|344:46|331:89,1,85,0|0,0:0|0:0,0:0:0:0:
279,149,69296,1,10,0:0:0:0:
330,209,69416,1,0,0:0:0:0:
402,178,69536,2,0,B|461:180,2,56.66667,0|0|0,0:0|0:0|0:0,0:0:0:0:
330,209,69776,6,0,P|336:260|346:310,1,85,2|0,1:2|0:0,0:0:0:0:
129,22,70016,2,0,P|123:73|113:123,1,85,0|0,0:0|0:0,0:0:0:0:
186,144,70256,1,10,0:0:0:0:
27,168,70376,2,0,P|110:131|190:145,1,170,0|0,0:0|0:0,0:0:0:0:
227,222,70736,5,0,1:0:0:0:
119,380,70856,1,0,0:0:0:0:
43,359,70976,2,0,B|26:323|26:323|39:276,1,85,2|2,0:0|0:0,0:0:0:0:
186,144,71216,5,10,0:0:0:0:
258,112,71336,1,0,0:0:0:0:
335,127,71456,1,0,0:0:0:0:
390,183,71576,1,0,0:0:0:0:
404,260,71696,6,0,P|400:309|399:346,1,85,0|0,1:0|0:0,0:0:0:0:
186,144,71936,2,0,P|184:101|181:59,1,85,2|2,0:0|0:0,0:0:0:0:
349,50,72176,1,10,0:0:0:0:
335,127,72296,1,0,0:0:0:0:
273,176,72416,5,0,0:0:0:0:
283,333,72536,1,0,0:0:0:0:
209,361,72656,5,0,1:0:0:0:
154,304,72776,1,0,0:0:0:0:
76,286,72896,5,2,0:0:0:0:
227,239,73016,1,2,0:0:0:0:
273,176,73136,5,10,0:0:0:0:
427,207,73256,1,2,0:0:0:0:
481,150,73376,2,0,B|498:113|498:113|481:72,1,85,2|2,0:0|0:0,0:0:0:0:
279,38,73616,5,2,1:2:0:0:
237,105,73736,1,0,0:0:0:0:
273,176,73856,1,0,0:0:0:0:
227,239,73976,1,0,0:0:0:0:
274,301,74096,2,0,P|318:293|363:295,1,85,8|0,0:0|0:0,0:0:0:0:
405,104,74336,2,0,P|361:112|316:110,1,85,0|0,0:0|0:0,0:0:0:0:
52,163,74576,6,0,P|75:47|207:38,1,255,2|0,1:2|0:0,0:0:0:0:
463,243,75056,2,0,P|440:127|308:118,1,255,10|0,0:0|0:0,0:0:0:0:
49,289,75536,5,0,1:0:0:0:
97,268,75616,1,0,0:0:0:0:
149,275,75696,1,0,0:0:0:0:
189,308,75776,2,0,P|235:307|286:298,1,85,2|0,0:0|0:0,0:0:0:0:
340,343,76016,5,10,0:0:0:0:
349,264,76136,1,0,0:0:0:0:
281,223,76256,5,2,0:0:0:0:
258,66,76376,1,2,0:0:0:0:
349,264,76496,6,0,P|478:231|494:119,1,255,2|0,1:2|0:0,0:0:0:0:
174,156,76976,2,0,P|82:153|60:49,1,170,10|0,0:0|0:0,0:0:0:0:
28,95,77336,2,0,B|18:79|18:79|35:40,1,42.5
258,66,77456,6,0,B|270:111|270:111|259:155,1,85,2|0,1:2|0:0,0:0:0:0:
241,376,77696,2,0,B|229:331|229:331|240:287,1,85,2|0,0:0|0:0,0:0:0:0:
281,223,77936,1,10,0:0:0:0:
320,329,78056,5,0,0:0:0:0:
148,341,78176,1,2,0:0:0:0:
320,329,78296,1,0,0:0:0:0:
176,242,78416,6,0,B|56:230|125:276|12:264,1,170,4|0,1:0|0:0,0:0:0:0:
281,223,78776,1,0,0:0:0:0:
349,264,78896,2,0,P|391:262|439:238,1,85,8|0,0:0|0:0,0:0:0:0:
189,39,79136,2,0,P|201:80|207:131,1,85,0|0,0:0|0:0,0:0:0:0:
118,346,79376,6,0,P|19:318|27:233,1,170,0|0,1:0|0:0,0:0:0:0:
38,190,79736,1,0,0:0:0:0:
203,358,79856,2,0,P|247:361|299:351,1,85,10|0,0:2|0:0,0:0:0:0:
362,378,80096,1,2,0:0:0:0:
433,344,80216,1,0,0:0:0:0:
496,125,80336,6,0,P|455:131|411:132,1,85,2|0,1:2|0:0,0:0:0:0:
97,246,80576,2,0,P|138:240|181:238,1,85,0|0,0:0|0:0,0:0:0:0:
296,278,80816,5,8,0:0:0:0:
303,199,80936,1,0,0:0:0:0:
245,133,81056,5,0,0:0:0:0:
238,54,81176,1,0,0:0:0:0:
97,246,81296,6,0,P|2:203|6:133,1,170,2|0,1:2|0:0,0:0:0:0:
238,54,81656,1,0,0:0:0:0:
141,21,81776,2,0,P|132:63|133:115,1,85,8|0,0:0|0:0,0:0:0:0:
190,322,82016,2,0,P|181:280|180:238,1,85,0|0,0:0|0:0,0:0:0:0:
271,374,82256,6,0,P|366:331|362:261,1,170,2|0,1:2|0:0,0:0:0:0:
245,133,82616,1,0,0:0:0:0:
326,88,82736,2,0,P|336:132|335:193,1,85,8|0,0:0|0:0,0:0:0:0:
37,269,82976,6,0,B|99:277|99:277|132:314|132:314|195:322,1,170,0|0,0:0|1:0,0:0:0:0:
0,148,83336,1,0,0:0:0:0:
78,110,83456,2,0,B|94:150|94:150|70:202,1,85,0|0,0:0|0:0,0:0:0:0:
35,347,83696,2,0,B|19:307|19:307|43:255,1,85,8|0,0:0|0:0,0:0:0:0:
165,54,83936,6,0,P|247:91|343:82,1,170,0|0,0:0|1:0,0:0:0:0:
375,26,84296,1,0,0:0:0:0:
429,85,84416,2,0,P|470:77|510:63,1,85,0|0,0:0|0:0,0:0:0:0:
372,149,84656,5,10,0:0:0:0:
348,222,84776,1,0,0:0:0:0:
455,276,84896,5,0,0:0:0:0:
469,350,85016,1,0,0:0:0:0:
382,362,85136,6,0,P|338:354|260:351,1,85,2|0,1:2|0:0,0:0:0:0:
130,22,85376,2,0,P|174:30|252:33,1,85,0|0,0:0|0:0,0:0:0:0:
256,192,85616,1,10,0:2:0:0:
175,169,85736,5,0,0:0:0:0:
316,134,85856,1,0,0:0:0:0:
276,272,85976,1,0,0:0:0:0:
198,256,86096,6,0,P|123:252|16:223,1,170,4|0,1:0|0:0,0:0:0:0:
130,22,86456,1,0,0:0:0:0:
64,65,86576,2,0,B|46:105|46:105|67:143,1,85,8|0,0:0|0:0,0:0:0:0:
274,348,86816,2,0,B|293:311|293:311|275:271,1,85,0|0,0:0|0:0,0:0:0:0:
317,48,87056,6,0,P|320:91|315:133,1,85,2|0,1:2|0:0,0:0:0:0:
228,178,87296,2,0,P|309:161|374:235,1,170,0|10,0:0|0:0,0:0:0:0:
443,373,87656,2,0,P|438:330|440:288,1,85,0|0,0:0|0:0,0:0:0:0:
441,212,87896,1,0,0:0:0:0:
275,271,88016,6,0,P|243:280|155:294,1,85,2|0,1:2|0:0,0:0:0:0:
146,83,88256,2,0,P|104:75|63:64,1,85,0|0,0:0|0:0,0:0:0:0:
83,210,88496,5,8,0:0:0:0:
4,221,88616,1,0,0:0:0:0:
228,178,88736,5,0,0:0:0:0:
149,167,88856,1,0,0:0:0:0:
315,133,88976,6,0,P|320:91|318:48,1,85,2|0,1:2|0:0,0:0:0:0:
228,178,89216,2,0,B|348:166|273:216|394:204,1,170,0|8,0:0|0:0,0:0:0:0:
272,355,89576,2,0,P|269:312|274:270,1,85,0|0,0:0|0:0,0:0:0:0:
357,323,89816,1,0,0:0:0:0:
176,248,89936,6,0,P|80:298|95:369,1,170,2|0,1:2|0:0,0:0:0:0:
228,178,90296,1,0,0:0:0:0:
149,167,90416,2,0,P|138:134|144:80,1,85,8|0,0:0|0:0,0:0:0:0:
509,270,90656,6,0,B|447:278|447:278|414:315|414:315|351:323,1,170,0|0,0:0|1:0,0:0:0:0:
315,133,91016,1,0,0:0:0:0:
250,87,91136,2,0,B|232:50|232:50|247:6,1,85,0|0,0:0|0:0,0:0:0:0:
461,108,91376,2,0,B|479:145|479:145|464:189,1,85,8|0,0:0|0:0,0:0:0:0:
261,355,91616,6,0,P|244:267|136:268,1,170,0|2,0:0|1:2,0:0:0:0:
103,211,91976,1,0,0:0:0:0:
42,262,92096,2,0,P|25:308|33:353,1,85,0|0,0:0|0:0,0:0:0:0:
38,152,92336,5,10,0:0:0:0:
24,42,92456,1,0,0:0:0:0:
134,28,92576,1,0,0:0:0:0:
147,138,92696,1,0,0:0:0:0:
215,177,92816,5,2,1:2:0:0:
280,133,92936,2,0,P|321:140|370:151,1,85,0|0,0:0|0:0,0:0:0:0:
407,214,93176,1,0,0:0:0:0:
478,179,93296,5,8,0:0:0:0:
471,257,93416,1,2,0:0:0:0:
398,316,93536,1,2,0:0:0:0:
289,334,93656,1,2,0:0:0:0:
173,279,93776,5,4,1:0:0:0:
38,161,109136,6,0,P|37:133|31:99,2,56.66667,4|0|0,1:0|0:0|0:0,0:0:0:0:
0,264,109376,1,0,0:0:0:0:
47,244,109456,1,0,0:0:0:0:
96,255,109536,1,0,0:0:0:0:
186,240,109616,6,0,P|181:267|180:296,2,56.66667,8|0|0,0:0|0:0|0:0,0:0:0:0:
251,178,109856,1,0,0:0:0:0:
298,198,109936,1,0,0:0:0:0:
347,187,110016,1,0,0:0:0:0:
420,251,110096,5,2,1:2:0:0:
474,193,110216,2,0,B|489:154|489:154|474:110,1,85,0|0,0:0|0:0,0:0:0:0:
493,333,110456,1,0,0:0:0:0:
338,315,110576,2,0,P|432:297|506:350,1,170,10|0,0:0|0:0,0:0:0:0:
207,347,111056,6,0,P|180:339|150:337,2,56.66667,2|0|0,1:2|0:0|0:0,0:0:0:0:
257,265,111296,1,0,0:0:0:0:
227,223,111376,1,0,0:0:0:0:
251,178,111456,1,0,0:0:0:0:
317,111,111536,6,0,P|344:103|374:101,2,56.66667,8|0|0,0:0|0:0|0:0,0:0:0:0:
214,99,111776,1,0,0:0:0:0:
244,57,111856,1,0,0:0:0:0:
220,12,111936,1,0,0:0:0:0:
143,52,112016,5,2,1:2:0:0:
92,109,112136,2,0,P|54:100|-5:93,1,85,0|0,0:0|0:0,0:0:0:0:
163,169,112376,1,0,0:0:0:0:
214,99,112496,2,0,P|298:60|407:67,1,170,8|0,0:0|0:0,0:0:0:0:
374,58,112976,5,2,1:2:0:0:
423,70,113056,1,0,0:0:0:0:
450,113,113136,1,0,0:0:0:0:
442,163,113216,1,0,0:0:0:0:
397,188,113296,1,0,0:0:0:0:
347,174,113376,1,0,0:0:0:0:
275,226,113456,5,8,0:0:0:0:
225,212,113536,1,0,0:0:0:0:
180,237,113616,1,0,0:0:0:0:
172,287,113696,1,0,0:0:0:0:
199,330,113776,1,0,0:0:0:0:
248,342,113856,1,0,0:0:0:0:
335,301,113936,5,0,1:0:0:0:
351,304,114016,1,0,0:0:0:0:
367,307,114096,1,0,0:0:0:0:
383,310,114176,1,0,0:0:0:0:
399,313,114256,1,0,0:0:0:0:
415,317,114336,1,0,0:0:0:0:
470,377,114416,5,8,0:0:0:0:
506,341,114496,1,0,0:0:0:0:
494,291,114576,1,0,0:0:0:0:
417,215,114656,5,0,0:0:0:0:
360,149,114736,1,0,0:0:0:0:
411,81,114816,1,0,0:0:0:0:
493,99,114896,5,0,1:0:0:0:
491,115,114976,1,0,0:0:0:0:
490,131,115056,1,0,0:0:0:0:
489,147,115136,1,0,0:0:0:0:
488,163,115216,1,0,0:0:0:0:
487,179,115296,1,0,0:0:0:0:
417,215,115376,5,10,0:0:0:0:
376,245,115456,1,0,0:0:0:0:
326,231,115536,1,0,0:0:0:0:
277,162,115616,5,0,0:0:0:0:
226,103,115696,1,0,0:0:0:0:
149,103,115776,1,0,0:0:0:0:
103,163,115856,6,0,P|99:219|90:284,1,113.333333333333,2|0,1:2|0:0,0:0:0:0:
91,275,116096,1,0,0:0:0:0:
47,370,116256,1,0,0:0:0:0:
47,370,116336,2,0,P|104:317|213:357,1,170,8|0,0:0|0:0,0:0:0:0:
190,331,116816,5,2,1:2:0:0:
234,355,116896,1,0,0:0:0:0:
283,342,116976,1,0,0:0:0:0:
298,293,117056,1,0,0:0:0:0:
277,246,117136,1,0,0:0:0:0:
226,237,117216,1,0,0:0:0:0:
140,171,117296,5,8,0:0:0:0:
96,195,117376,1,0,0:0:0:0:
47,182,117456,1,0,0:0:0:0:
32,133,117536,1,0,0:0:0:0:
53,86,117616,1,0,0:0:0:0:
104,77,117696,1,0,0:0:0:0:
204,100,117776,5,0,1:0:0:0:
220,102,117856,1,0,0:0:0:0:
236,104,117936,1,0,0:0:0:0:
252,106,118016,1,0,0:0:0:0:
268,108,118096,1,0,0:0:0:0:
284,110,118176,1,0,0:0:0:0:
358,53,118256,5,8,0:0:0:0:
433,42,118336,1,0,0:0:0:0:
488,96,118416,1,0,0:0:0:0:
478,172,118496,1,0,0:0:0:0:
412,210,118576,1,0,0:0:0:0:
341,181,118656,1,0,0:0:0:0:
272,221,118736,6,0,P|280:249|281:281,2,56.66667,2|0|0,1:2|0:0|0:0,0:0:0:0:
335,349,118976,1,0,0:0:0:0:
288,370,119056,1,0,0:0:0:0:
238,357,119136,1,0,0:0:0:0:
158,300,119216,6,0,P|130:308|98:309,2,56.66667,8|0|0,0:0|0:0|0:0,0:0:0:0:
173,207,119456,1,0,0:0:0:0:
140,167,119536,1,0,0:0:0:0:
156,118,119616,1,0,0:0:0:0:
239,68,119696,6,0,P|244:41|247:12,2,56.66667,2|0|0,1:2|0:0|0:0,0:0:0:0:
331,102,119936,2,0,P|344:78|357:52,2,56.66667,0|0|0,0:0|0:0|0:0,0:0:0:0:
341,181,120176,5,8,0:0:0:0:
389,164,120256,1,0,0:0:0:0:
434,187,120336,1,0,0:0:0:0:
445,236,120416,1,0,0:0:0:0:
411,274,120496,1,0,0:0:0:0:
360,276,120576,1,0,0:0:0:0:
272,272,120656,5,2,1:2:0:0:
230,241,120736,1,0,0:0:0:0:
181,255,120816,1,0,0:0:0:0:
158,300,120896,1,0,0:0:0:0:
116,331,120976,1,0,0:0:0:0:
67,317,121056,1,0,0:0:0:0:
11,248,121136,5,8,0:0:0:0:
15,231,121216,1,0,0:0:0:0:
19,214,121296,1,0,0:0:0:0:
24,197,121376,1,0,0:0:0:0:
29,180,121456,1,0,0:0:0:0:
34,163,121536,1,0,0:0:0:0:
85,97,121616,6,0,P|79:70|67:39,2,56.66667,2|0|0,1:2|0:0|0:0,0:0:0:0:
197,200,121856,2,0,P|191:226|179:258,2,56.66667,0|0|0,0:0|0:0|0:0,0:0:0:0:
281,94,122096,5,8,0:0:0:0:
297,97,122176,1,0,0:0:0:0:
313,100,122256,1,0,0:0:0:0:
329,103,122336,1,0,0:0:0:0:
345,106,122416,1,0,0:0:0:0:
361,109,122496,1,0,0:0:0:0:
435,70,122576,5,0,1:0:0:0:
455,116,122656,1,0,0:0:0:0:
431,161,122736,1,0,0:0:0:0:
388,188,122816,5,0,0:0:0:0:
442,244,122936,1,0,0:0:0:0:
402,312,123056,2,0,P|312:302|247:345,1,170,10|0,0:0|0:0,0:0:0:0:
20,318,123416,5,0,0:0:0:0:
100,366,123536,2,0,B|114:324|114:324|99:282,1,85,2|0,1:2|0:0,0:0:0:0:
18,183,123776,2,0,P|30:214|34:242,2,56.66667,0|0|0,0:0|0:0|0:0,0:0:0:0:
102,120,124016,2,0,P|114:89|118:61,2,56.66667,10|0|0,0:0|0:0|0:0,0:0:0:0:
179,189,124256,1,0,0:0:0:0:
227,206,124336,1,0,0:0:0:0:
267,175,124416,1,0,0:0:0:0:
337,126,124496,5,0,1:0:0:0:
379,97,124576,1,0,0:0:0:0:
429,102,124656,1,0,0:0:0:0:
462,140,124736,1,0,0:0:0:0:
462,191,124816,1,0,0:0:0:0:
421,222,124896,1,0,0:0:0:0:
338,255,124976,6,0,P|346:283|351:324,1,56.66667,8|0,0:0|0:0,0:0:0:0:
410,366,125136,1,0,0:0:0:0:
365,340,125216,1,0,0:0:0:0:
314,347,125296,1,0,0:0:0:0:
273,378,125376,1,0,0:0:0:0:
192,331,125456,5,0,1:0:0:0:
120,365,125536,1,0,0:0:0:0:
49,327,125616,1,0,0:0:0:0:
57,248,125696,1,0,0:0:0:0:
128,213,125776,1,0,0:0:0:0:
199,247,125856,1,0,0:0:0:0:
213,255,125936,6,0,P|222:211|219:168,1,85,8|0,0:0|0:0,0:0:0:0:
97,0,126176,2,0,P|105:31|108:59,2,56.66667,0|0|0,0:0|0:0|0:0,0:0:0:0:
45,111,126416,5,2,1:2:0:0:
80,129,126496,1,0,0:0:0:0:
119,133,126576,1,0,0:0:0:0:
156,121,126656,1,0,0:0:0:0:
184,92,126736,1,0,0:0:0:0:
197,54,126816,1,0,0:0:0:0:
272,20,126896,5,8,0:0:0:0:
288,22,126976,1,0,0:0:0:0:
304,24,127056,1,0,0:0:0:0:
320,26,127136,1,0,0:0:0:0:
336,28,127216,1,0,0:0:0:0:
352,30,127296,1,0,0:0:0:0:
437,14,127376,5,0,1:0:0:0:
412,91,127496,2,0,P|416:137|423:183,1,85,0|0,0:0|0:0,0:0:0:0:
475,235,127736,1,0,0:0:0:0:
269,381,127856,2,0,P|186:347|185:260,1,170,8|0,0:0|0:0,0:0:0:0:
253,300,128216,5,0,0:0:0:0:
82,370,128336,2,0,P|70:320|77:247,1,85,2|0,1:2|0:0,0:0:0:0:
191,43,128576,2,0,P|203:93|196:166,1,85,0|0,0:0|0:0,0:0:0:0:
0,143,128816,2,0,B|62:151|62:151|95:188|95:188|158:196,1,170,8|0,0:0|0:0,0:0:0:0:
236,211,129176,5,0,0:0:0:0:
253,300,129296,2,0,P|302:309|351:325,1,85,0|0,1:0|0:0,0:0:0:0:
381,95,129536,2,0,P|421:83|463:75,1,85,0|0,0:0|0:0,0:0:0:0:
470,233,129776,2,0,B|408:225|408:225|375:188|375:188|312:180,1,170,8|0,0:0|0:0,0:0:0:0:
236,211,130136,5,0,0:0:0:0:
152,195,130256,2,0,B|127:159|127:159|144:105,1,85,0|0,1:0|0:0,0:0:0:0:
253,300,130496,2,0,B|278:336|278:336|261:390,1,85,2|0,0:0|0:0,0:0:0:0:
470,128,130736,2,0,B|408:136|408:136|375:173|375:173|312:181,1,170,10|0,0:0|0:0,0:0:0:0:
236,211,131096,5,2,0:0:0:0:
254,134,131216,2,0,P|246:96|255:33,1,85,2|0,1:2|0:0,0:0:0:0:
369,298,131456,2,0,P|377:336|368:399,1,85,0|0,0:0|0:0,0:0:0:0:
69,196,131696,2,0,B|186:183|119:225|237:210,1,170,8|0,0:0|0:0,0:0:0:0:
402,185,132056,2,0,P|344:182|287:176,1,85,0|2,0:0|1:2,0:0:0:0:
46,69,132296,5,0,0:0:0:0:
120,26,132416,2,0,B|137:67|137:67|116:120,1,85,0|0,0:0|0:0,0:0:0:0:
56,306,132656,5,8,0:0:0:0:
69,196,132776,1,0,0:0:0:0:
179,210,132896,1,0,0:0:0:0:
165,320,133016,2,0,P|201:315|266:318,1,85,0|0,0:0|1:0,0:0:0:0:
450,320,133256,5,0,0:0:0:0:
376,363,133376,2,0,B|359:322|359:322|380:269,1,85,0|0,0:0|0:0,0:0:0:0:
440,83,133616,5,8,0:0:0:0:
427,193,133736,1,0,0:0:0:0:
317,179,133856,1,0,0:0:0:0:
331,69,133976,2,0,P|295:74|230:71,1,85,0|2,0:0|1:2,0:0:0:0:
181,29,134216,5,0,0:0:0:0:
181,29,134276,1,0,0:0:0:0:
181,29,134336,1,0,0:0:0:0:
103,47,134456,1,0,0:0:0:0:
55,110,134576,5,8,0:0:0:0:
132,126,134696,1,0,0:0:0:0:
181,187,134816,5,0,0:0:0:0:
25,215,134936,1,0,0:0:0:0:
77,274,135056,6,0,B|61:320|61:320|87:368,1,85,2|0,1:2|0:0,0:0:0:0:
190,242,135296,2,0,P|187:214|175:171,2,56.66667,0|0|0,0:0|0:0|0:0,0:0:0:0:
310,363,135536,5,8,0:0:0:0:
446,358,135656,1,0,0:0:0:0:
441,222,135776,1,0,0:0:0:0:
306,227,135896,2,0,P|302:183|294:127,1,85,0|2,0:0|1:2,0:0:0:0:
341,76,136136,5,0,0:2:0:0:
410,113,136256,2,0,P|452:110|499:102,1,85,0|0,0:0|0:0,0:0:0:0:
281,27,136496,5,8,0:0:0:0:
206,0,136616,1,0,0:0:0:0:
128,14,136736,1,0,0:0:0:0:
76,74,136856,2,0,P|43:85|-21:97,1,85,0|0,0:0|1:0,0:0:0:0:
123,315,137096,5,0,0:0:0:0:
183,365,137216,2,0,P|200:329|184:267,1,85,0|0,0:0|0:0,0:0:0:0:
156,186,137456,5,8,0:0:0:0:
228,155,137616,1,0,0:0:0:0:
305,168,137776,1,0,0:0:0:0:
356,227,137936,1,0,1:0:0:0:
450,298,138056,5,0,0:0:0:0:
491,230,138176,2,0,P|484:190|481:140,1,85,2|0,0:0|0:0,0:0:0:0:
488,27,138416,5,10,0:0:0:0:
446,56,138496,1,0,0:0:0:0:
397,41,138576,1,0,0:0:0:0:
310,53,138656,5,2,0:0:0:0:
250,0,138736,1,0,0:0:0:0:
172,18,138816,1,0,0:0:0:0:
154,95,138896,5,2,1:2:0:0:
84,133,138976,2,0,P|50:131|10:122,1,56.66667,0|0,0:0|0:0,0:0:0:0:
323,266,139136,5,2,0:0:0:0:
393,304,139216,2,0,P|427:302|467:293,1,56.66667
203,384,139376,5,10,0:0:0:0:
174,228,139496,1,2,0:0:0:0:
230,172,139616,5,2,0:0:0:0:
238,93,139736,1,2,0:0:0:0:
144,364,140816,6,0,L|148:343,11,16.9999994812012,2|0|0|0|0|0|0|0|0|0|0|0,0:0|0:0|0:0|0:0|0:0|0:0|0:0|0:0|0:0|0:0|0:0|0:0,0:0:0:0:
144,364,141776,6,0,P|57:343|63:246,1,170,4|0,1:0|0:0,0:0:0:0:
201,118,142136,1,0,0:0:0:0:
126,77,142256,2,0,P|117:122|120:163,1,85,8|0,0:0|0:0,0:0:0:0:
244,378,142496,2,0,P|235:336|237:294,1,85,0|0,0:0|0:0,0:0:0:0:
501,154,142736,5,2,1:2:0:0:
453,218,142856,2,0,B|354:208,1,85,0|0,0:0|0:0,0:0:0:0:
201,118,143096,5,0,0:0:0:0:
85,241,143216,2,0,B|147:249|147:249|180:286|180:286|243:294,1,170,10|2,0:2|0:0,0:0:0:0:
390,368,143576,2,0,B|410:328|410:328|396:282,1,85,0|2,0:0|1:2,0:0:0:0:
477,24,143816,5,0,0:0:0:0:
425,83,143936,1,0,0:0:0:0:
350,55,144056,1,0,0:0:0:0:
253,46,144176,5,8,0:0:0:0:
256,21,144296,1,0,0:0:0:0:
201,118,144416,5,0,0:0:0:0:
122,107,144536,1,0,0:0:0:0:
77,172,144656,5,2,1:2:0:0:
0,191,144776,2,0,P|-1:232|6:281,1,85,0|0,0:0|0:0,0:0:0:0:
161,357,145016,1,0,0:0:0:0:
9,384,145136,2,0,P|84:339|179:371,1,170,8|0,0:0|0:0,0:0:0:0:
220,304,145496,1,0,0:0:0:0:
288,343,145616,5,2,1:2:0:0:
372,340,145736,2,0,P|333:339|282:343,1,85,0|0,0:0|0:0,0:0:0:0:
220,304,145976,1,0,0:0:0:0:
173,239,146096,5,8,0:0:0:0:
89,236,146216,2,0,P|128:235|179:239,1,85,0|0,0:0|0:0,0:0:0:0:
237,191,146456,1,0,0:0:0:0:
314,212,146576,5,0,1:0:0:0:
326,93,146696,1,0,0:0:0:0:
444,105,146816,1,0,0:0:0:0:
432,224,146936,1,0,0:0:0:0:
377,281,147056,2,0,P|269:273|203:322,1,170,8|0,0:0|0:0,0:0:0:0:
45,40,147536,5,0,1:0:0:0:
122,54,147656,1,0,0:0:0:0:
170,116,147776,5,2,0:0:0:0:
326,93,147896,1,0,0:0:0:0:
289,23,148016,5,10,0:2:0:0:
243,87,148136,1,0,0:0:0:0:
273,159,148256,1,0,0:0:0:0:
377,198,148376,5,0,0:0:0:0:
296,281,148496,5,2,1:2:0:0:
220,303,148616,1,0,0:0:0:0:
159,251,148736,5,0,0:0:0:0:
2,232,148856,1,0,0:0:0:0:
63,377,148976,5,10,0:2:0:0:
81,242,149096,1,0,0:0:0:0:
100,107,149216,1,0,0:0:0:0:
300,30,149456,6,0,P|390:56|394:148,1,170,4|0,1:0|0:0,0:0:0:0:
377,198,149816,1,0,0:0:0:0:
437,323,149936,2,0,P|446:281|443:239,1,85,8|0,0:0|0:0,0:0:0:0:
243,87,150176,2,0,P|252:128|249:170,1,85,0|0,0:0|0:0,0:0:0:0:
159,356,150416,5,2,1:2:0:0:
88,320,150536,2,0,B|69:284|69:284|83:232,1,85,0|0,0:0|0:0,0:0:0:0:
116,4,150776,1,0,0:0:0:0:
55,56,150896,2,0,P|88:134|168:137,1,170,10|0,0:2|0:0,0:0:0:0:
235,8,151256,2,0,B|254:44|254:44|240:96,1,85,0|2,0:0|1:2,0:0:0:0:
157,274,151496,5,0,0:0:0:0:
228,307,151616,1,0,0:0:0:0:
288,256,151736,1,0,0:0:0:0:
360,286,151856,5,8,0:0:0:0:
437,269,151976,1,0,0:0:0:0:
477,201,152096,5,0,0:0:0:0:
320,180,152216,1,0,0:0:0:0:
374,123,152336,5,2,1:2:0:0:
447,95,152456,2,0,B|466:56|466:56|436:-27,1,85,0|0,0:0|0:0,0:0:0:0:
320,180,152696,5,0,0:0:0:0:
253,137,152816,2,0,B|187:145|187:145|154:176|154:176|94:181,1,170,8|0,0:0|0:0,0:0:0:0:
31,133,153176,1,0,0:0:0:0:
47,244,153296,5,2,1:2:0:0:
49,327,153416,2,0,P|41:291|51:232,1,85,0|0,0:0|0:0,0:0:0:0:
95,180,153656,1,0,0:0:0:0:
135,112,153776,5,8,0:0:0:0:
137,29,153896,2,0,P|129:65|139:124,1,85,0|0,0:0|0:0,0:0:0:0:
183,176,154136,1,0,0:0:0:0:
253,137,154256,5,0,1:0:0:0:
241,18,154376,1,0,0:0:0:0:
359,8,154496,1,0,0:0:0:0:
371,125,154616,1,0,0:0:0:0:
347,201,154736,2,0,P|256:172|155:181,1,170,8|0,0:0|0:0,0:0:0:0:
58,374,155216,5,2,1:2:0:0:
120,325,155336,1,0,0:0:0:0:
184,370,155456,1,0,0:0:0:0:
247,291,155576,5,0,0:0:0:0:
328,360,155696,5,10,0:2:0:0:
332,384,155816,1,0,0:0:0:0:
420,323,155936,5,0,0:0:0:0:
429,244,156056,1,0,0:0:0:0:
376,185,156176,5,2,1:2:0:0:
354,28,156296,1,0,0:0:0:0:
433,68,156416,5,0,0:0:0:0:
364,106,156536,1,0,0:0:0:0:
286,88,156656,1,10,0:2:0:0:
230,144,156776,5,0,0:0:0:0:
174,65,156896,1,0,0:0:0:0:
83,101,157016,1,0,0:0:0:0:
9,72,157136,6,0,P|28:166|121:162,1,170,4|0,1:0|0:0,0:0:0:0:
148,232,157496,1,0,0:0:0:0:
98,366,157616,2,0,P|87:325|87:283,1,85,8|0,0:0|0:0,0:0:0:0:
174,65,157856,2,0,P|163:105|162:148,1,85,0|0,0:0|0:0,0:0:0:0:
370,345,158096,6,0,P|367:304|357:248,1,85,0|0,1:0|0:0,0:0:0:0:
310,168,158336,2,0,P|373:225|462:204,1,170,0|10,0:0|0:0,0:0:0:0:
408,52,158696,2,0,P|401:93|397:136,1,85,0|2,0:0|0:0,0:0:0:0:
484,111,158936,1,0,0:0:0:0:
310,168,159056,6,0,P|265:176|213:192,1,85,2|0,1:2|0:0,0:0:0:0:
138,374,159296,2,0,P|97:362|55:355,1,85,0|0,0:0|0:0,0:0:0:0:
153,251,159536,5,8,0:0:0:0:
75,239,159656,1,0,0:0:0:0:
291,290,159776,5,0,0:0:0:0:
213,302,159896,1,0,0:0:0:0:
356,334,160016,6,0,P|400:326|451:328,1,85,2|0,1:2|0:0,0:0:0:0:
329,91,160256,2,0,P|239:121|247:223,1,170,0|8,0:0|0:0,0:0:0:0:
396,219,160616,2,0,P|404:179|387:115,1,85,0|2,0:0|0:0,0:0:0:0:
408,57,160856,1,2,0:0:0:0:
226,186,160976,6,0,B|160:195|160:195|132:227|132:227|69:236,1,170,2|0,1:2|0:0,0:0:0:0:
12,182,161336,1,0,0:0:0:0:
71,130,161456,2,0,B|84:89|84:89|70:49,1,85,8|0,0:0|0:0,0:0:0:0:
0,261,161696,6,0,P|23:345|111:352,1,170,0|0,0:0|1:0,0:0:0:0:
240,293,162056,1,0,0:0:0:0:
175,247,162176,2,0,P|162:287|168:336,1,85,0|0,0:0|0:0,0:0:0:0:
304,343,162416,2,0,P|317:303|311:254,1,85,8|0,0:0|0:0,0:0:0:0:
242,86,162656,6,0,B|308:95|308:95|336:127|336:127|399:136,1,170,0|2,0:0|1:2,0:0:0:0:
456,188,163016,1,0,0:0:0:0:
168,129,163136,2,0,B|144:94|144:94|161:44,1,85,0|0,0:0|0:0,0:0:0:0:
44,69,163376,5,8,0:0:0:0:
60,146,163496,1,0,0:0:0:0:
115,202,163616,5,0,0:0:0:0:
95,358,163736,1,0,0:0:0:0:
24,323,163856,6,0,P|20:280|13:226,1,85,2|0,1:2|0:0,0:0:0:0:
232,170,164096,2,0,P|236:127|243:73,1,85,0|0,0:0|0:0,0:0:0:0:
187,26,164336,1,10,0:2:0:0:
313,260,164456,5,0,0:0:0:0:
377,214,164576,1,0,0:0:0:0:
447,250,164696,1,0,0:0:0:0:
385,299,164816,2,0,P|295:301|202:332,1,170,4|0,1:0|0:0,0:0:0:0:
24,323,165176,1,0,0:0:0:0:
95,358,165296,2,0,B|111:315|111:315|100:275,1,85,8|0,0:0|0:0,0:0:0:0:
44,69,165536,2,0,B|28:112|28:112|39:152,1,85,0|0,0:0|0:0,0:0:0:0:
232,170,165776,6,0,P|188:169|143:160,1,85,2|0,1:2|0:0,0:0:0:0:
38,149,166016,2,0,P|124:135|141:55,1,170,0|10,0:0|0:0,0:0:0:0:
30,239,166376,2,0,P|22:267|23:322,1,85,0|0,0:0|0:0,0:0:0:0:
95,358,166616,1,0,0:0:0:0:
218,323,166736,6,0,P|268:328|322:339,1,85,2|0,1:2|0:0,0:0:0:0:
320,140,166976,2,0,P|361:132|404:128,1,85,0|0,0:0|0:0,0:0:0:0:
496,273,167216,5,8,0:0:0:0:
418,288,167336,1,0,0:0:0:0:
363,231,167456,5,0,0:0:0:0:
284,220,167576,1,0,0:0:0:0:
404,128,167696,6,0,P|412:94|411:43,1,85,2|0,1:2|0:0,0:0:0:0:
227,38,167936,2,0,P|249:124|348:125,1,170,0|8,0:0|0:0,0:0:0:0:
286,304,168296,2,0,P|281:270|287:205,1,85,0|0,0:0|0:0,0:0:0:0:
363,231,168536,1,0,0:0:0:0:
194,277,168656,6,0,B|133:268|133:268|95:294|95:294|21:285,1,170,2|0,1:2|0:0,0:0:0:0:
129,161,169016,1,0,0:0:0:0:
58,124,169136,2,0,B|45:165|45:165|62:209,1,85,8|0,0:0|0:0,0:0:0:0:
221,353,169376,6,0,P|229:255|302:216,1,170,0|0,0:0|1:0,0:0:0:0:
434,268,169736,1,0,0:0:0:0:
369,313,169856,2,0,P|357:259|365:225,1,85,0|0,0:0|0:0,0:0:0:0:
448,7,170096,2,0,P|436:61|444:95,1,85,8|0,0:0|0:0,0:0:0:0:
479,164,170336,6,0,B|417:171|417:171|379:145|379:145|318:154,1,170,0|2,0:0|1:2,0:0:0:0:
253,108,170696,5,0,0:0:0:0:
187,152,170816,2,0,P|145:149|102:140,1,85,0|0,0:0|0:0,0:0:0:0:
30,109,171056,5,10,0:0:0:0:
41,187,171176,1,0,0:0:0:0:
112,220,171296,5,0,0:0:0:0:
92,376,171416,1,0,0:0:0:0:
42,314,171536,6,0,P|88:313|143:302,1,85,2|0,1:2|0:0,0:0:0:0:
197,343,171776,1,0,0:0:0:0:
251,285,171896,1,0,0:0:0:0:
382,359,172016,6,0,B|397:320|397:320|380:272,1,85,10|0,0:0|0:0,0:0:0:0:
130,25,172256,2,0,B|115:64|115:64|132:112,1,85,0|0,0:0|0:0,0:0:0:0:
440,224,172496,5,4,1:0:0:0:
