osu file format v14

[General]
AudioFilename: audio.mp3
AudioLeadIn: 0
PreviewTime: 64004
Countdown: 1
SampleSet: Normal
StackLeniency: 0.7
Mode: 0
LetterboxInBreaks: 0
WidescreenStoryboard: 1

[Editor]
DistanceSpacing: 1.2
BeatDivisor: 4
GridSize: 4
TimelineZoom: 1.8

[Metadata]
Title:Like A Man
TitleUnicode:남자답게
Artist:Outsider
ArtistUnicode:Outsider
Creator:IceBeam
Version:Reiji's Hard
Source:Pump It Up 2011 Fiesta EX
Tags:reiji-rj pandahero piu video dance game korean hip-hop soliloquist
BeatmapID:1418862
BeatmapSetID:666566

[Difficulty]
HPDrainRate:5
CircleSize:4
OverallDifficulty:6
ApproachRate:8
SliderMultiplier:1.4
SliderTickRate:1

[Events]
//Background and Video events
0,0,"2b09e677a2e9158bf6bf53a819f38770.jpg",0,0
//Break Periods
2,85621,89171
//Storyboard Layer 0 (Background)
//Storyboard Layer 1 (Fail)
//Storyboard Layer 2 (Pass)
//Storyboard Layer 3 (Foreground)
//Storyboard Sound Samples

[TimingPoints]
88,333.333333333333,4,1,0,35,1,0
88,-100,4,2,0,35,0,0
10754,-100,4,2,1,45,0,0
16087,-100,4,1,1,45,0,0
21421,-100,4,1,1,55,0,1
26754,-100,4,1,1,45,0,0
32087,-100,4,1,1,55,0,1
37421,-100,4,1,1,45,0,0
42754,-133.333333333333,4,1,1,45,0,1
42837,-133.333333333333,4,1,1,45,0,0
50754,-133.333333333333,4,1,1,45,0,0
51421,-133.333333333333,4,1,1,45,0,0
64087,-100,4,1,1,55,0,1
74671,-100,4,1,1,55,0,0
74754,-100,4,1,1,55,0,1
85337,-100,4,1,1,45,0,0
85421,-100,4,1,1,45,0,1
85504,-100,4,1,1,35,0,0
90754,-100,4,2,1,45,0,0
96087,-100,4,2,1,45,0,0
109421,-100,4,1,1,45,0,0
114754,-100,4,1,1,55,0,1
120087,-100,4,1,1,45,0,0
125421,-100,4,1,1,55,0,1
130671,-100,4,1,1,45,0,0
130754,-100,4,1,1,30,0,1
130837,-100,4,1,1,30,0,0
132087,-100,4,1,1,35,0,1
132171,-100,4,1,1,35,0,0
133421,-100,4,1,1,40,0,1
133504,-100,4,1,1,40,0,0
134754,-100,4,1,1,45,0,1
134837,-100,4,1,1,45,0,0
136087,-100,4,1,1,50,0,1
136171,-100,4,1,1,50,0,0
137421,-100,4,1,1,55,0,1
137504,-100,4,1,1,55,0,0
138754,-100,4,1,1,60,0,1
138837,-100,4,1,1,60,0,0
140087,-100,4,1,1,65,0,1
140171,-100,4,1,1,65,0,0
141421,-100,4,1,1,55,0,1
152004,-100,4,1,1,55,0,0
152087,-100,4,1,1,55,0,1
162671,-100,4,1,1,55,0,0
162754,-100,4,1,1,55,0,1
162837,-100,4,1,1,55,0,0

[Colours]
Combo1 : 121,13,202
Combo2 : 204,21,77

[HitObjects]
32,332,88,6,0,P|96:320|152:272,1,140
236,308,587,2,0,L|376:320,1,140
460,288,1087,1,2,0:0:0:0:
375,319,1254,1,2,0:0:0:0:
384,228,1421,6,0,L|396:148,1,70,0|4,0:0|0:0,0:0:0:0:
364,72,1754,1,0,0:0:0:0:
276,96,1921,2,0,P|204:80|148:32,1,140
64,24,2421,1,2,0:0:0:0:
153,39,2587,1,2,0:0:0:0:
92,108,2754,6,0,P|92:172|132:236,1,140
90,304,3254,2,0,P|147:264|216:264,1,140,0|2,0:0|0:0,0:0:0:0:
306,280,3754,2,0,L|338:348,1,70,0|2,0:0|0:0,0:0:0:0:
335,343,4087,5,0,0:0:0:0:
335,343,4254,2,0,P|391:315|467:327,2,140,4|0|2,0:0|0:0|0:0,0:0:0:0:
252,308,5087,1,2,0:0:0:0:
172,348,5254,1,2,0:0:0:0:
96,300,5421,6,0,L|16:308,1,70,0|0,1:0|0:0,0:0:0:0:
26,306,5671,1,2,0:0:0:0:
26,306,5754,1,2,0:0:0:0:
76,212,5921,2,0,L|220:196,1,140,2|0,0:0|0:0,0:0:0:0:
300,228,6421,1,2,0:0:0:0:
215,196,6587,1,2,0:0:0:0:
284,136,6754,6,0,L|268:64,1,70,0|4,1:0|0:0,0:0:0:0:
352,28,7087,1,0,0:0:0:0:
400,104,7254,2,0,P|396:176|372:244,1,140,2|0,0:0|0:0,0:0:0:0:
364,332,7754,2,0,L|440:324,1,70,2|2,0:0|0:0,0:0:0:0:
374,239,8087,6,0,L|298:247,1,70,0|0,1:0|0:0,0:0:0:0:
304,246,8337,1,2,0:0:0:0:
304,246,8421,1,2,0:0:0:0:
244,312,8587,2,0,P|180:312|112:268,1,140,2|2,0:0|0:0,0:0:0:0:
144,188,9087,1,0,0:0:0:0:
116,273,9254,1,2,0:0:0:0:
52,208,9421,5,0,1:0:0:0:
144,188,9587,2,0,P|208:188|276:232,2,140,4|0|2,0:0|0:0|0:0,0:0:0:0:
52,208,10421,2,0,L|16:204,2,35,2|2|0,0:0|0:0|0:0,0:0:0:0:
84,124,10754,5,0,0:0:0:0:
152,196,10921,1,0,0:0:0:0:
152,196,11087,1,0,1:0:0:0:
172,292,11254,2,0,P|240:296|308:264,1,140,0|2,1:0|0:0,0:0:0:0:
400,296,11754,1,0,1:0:0:0:
304,266,11921,1,0,1:0:0:0:
376,200,12087,6,0,L|384:128,1,70,0|4,0:0|0:0,0:0:0:0:
284,160,12421,2,0,L|216:136,1,70,0|0,1:0|0:0,0:0:0:0:
192,232,12754,1,2,0:0:0:0:
192,232,12921,1,0,0:0:0:0:
100,196,13087,2,0,P|68:128|72:60,1,140,0|0,1:0|0:0,0:0:0:0:
168,40,13587,5,2,0:0:0:0:
168,40,13754,1,0,1:0:0:0:
260,76,13921,1,0,0:0:0:0:
356,52,14087,2,0,L|432:48,1,70,0|2,0:0|0:0,0:0:0:0:
376,148,14421,2,0,L|364:224,1,70,0|0,1:0|1:0,0:0:0:0:
365,217,14671,1,0,1:0:0:0:
365,217,14754,5,0,0:0:0:0:
272,252,14921,1,4,0:0:0:0:
308,344,15087,1,0,1:0:0:0:
400,308,15254,1,0,0:0:0:0:
365,217,15421,1,2,0:0:0:0:
324,128,15587,1,0,0:0:0:0:
416,92,15754,1,0,1:0:0:0:
456,180,15921,1,0,1:0:0:0:
365,217,16087,6,0,B|308:224|308:224|224:192,1,140,0|8,0:0|0:0,0:0:0:0:
154,281,16587,2,0,B|211:274|211:274|295:306,1,140
372,360,17087,1,8,0:0:0:0:
289,304,17254,1,8,0:0:0:0:
380,268,17421,6,0,L|448:236,1,70,0|4,0:0|2:0,0:0:0:0:
360,168,17754,1,8,0:0:0:0:
360,168,17921,2,0,L|428:136,1,70,0|0,0:0|2:0,0:0:0:0:
384,48,18254,1,0,0:0:0:0:
292,84,18421,2,0,P|228:76|172:28,1,140,8|0,0:0|0:0,0:0:0:0:
92,84,18921,5,2,2:0:0:0:
92,84,19087,2,0,L|20:88,1,70,8|0,0:0|0:0,0:0:0:0:
68,176,19421,2,0,L|140:172,1,70,0|0,2:0|0:0,0:0:0:0:
228,212,19754,2,0,P|256:236|300:244,1,70,8|8,0:0|0:0,0:0:0:0:
287,244,20004,1,8,0:0:0:0:
287,244,20087,5,0,0:0:0:0:
384,260,20254,1,4,2:0:0:0:
396,164,20421,1,8,0:0:0:0:
300,152,20587,1,0,0:0:0:0:
296,252,20754,1,2,2:0:0:0:
281,348,20921,1,0,0:0:0:0:
185,336,21087,1,8,0:0:0:0:
197,240,21254,1,8,0:0:0:0:
213,144,21421,6,0,P|277:116|321:60,1,140,4|8,0:0|0:0,0:0:0:0:
392,112,21921,2,0,P|420:168|488:212,1,140,4|8,0:0|0:0,0:0:0:0:
482,210,22421,1,8,0:0:0:0:
460,304,22587,1,0,0:0:0:0:
364,332,22754,6,0,L|216:324,1,140,4|8,0:0|0:0,0:0:0:0:
160,228,23254,2,0,L|304:236,1,140,4|0,0:0|0:0,0:0:0:0:
299,235,23754,1,8,0:0:0:0:
388,280,23921,1,0,0:0:0:0:
476,240,24087,6,0,P|496:176|480:104,1,140,4|8,0:0|0:0,0:0:0:0:
384,116,24587,2,0,B|332:108|332:108|260:56,1,140,4|0,0:0|0:0,0:0:0:0:
176,108,25087,2,0,L|106:115,1,70,8|8,0:0|0:0,0:0:0:0:
106,115,25337,1,0,0:0:0:0:
106,115,25421,6,0,L|28:96,2,70,0|4|8,0:0|2:0|0:0,0:0:0:0:
144,204,25921,1,0,0:0:0:0:
144,204,26087,2,0,L|216:192,2,70,2|0|8,2:0|0:0|0:0,0:0:0:0:
76,276,26587,1,8,0:0:0:0:
160,328,26754,6,2,P|232:332|304:356,1,140,6|8,0:0|0:0,0:0:0:0:
384,312,27254,2,0,P|384:240|404:168,1,140,2|2,0:0|0:0,0:0:0:0:
400,76,27754,2,0,L|308:60,1,70,8|10,0:0|0:0,0:0:0:0:
236,44,28087,6,2,L|96:68,1,140,2|8,0:0|0:0,0:0:0:0:
100,164,28587,2,0,L|240:188,1,140,2|2,0:0|0:0,0:0:0:0:
284,276,29087,1,8,0:0:0:0:
237,187,29254,1,2,0:0:0:0:
336,196,29421,6,2,P|392:152|416:84,1,140,0|8,0:0|0:0,0:0:0:0:
328,40,29921,2,0,L|244:28,1,70,2|0,0:0|0:0,0:0:0:0:
176,140,30254,1,2,0:0:0:0:
176,140,30421,2,0,L|252:132,1,70,8|10,0:0|0:0,0:0:0:0:
344,136,30754,5,0,0:0:0:0:
420,200,30921,2,0,P|420:264|384:340,2,140,2|2|2,0:0|0:0|0:0,0:0:0:0:
344,136,31754,1,10,0:0:0:0:
268,200,31921,1,8,0:0:0:0:
200,128,32087,6,0,L|48:108,1,140,4|8,0:0|0:0,0:0:0:0:
32,204,32587,2,0,P|36:280|76:340,1,140,4|0,0:0|0:0,0:0:0:0:
68,333,33087,1,8,0:0:0:0:
164,316,33254,1,8,0:0:0:0:
160,216,33421,6,0,B|192:200|192:200|296:228,1,140,4|8,0:0|0:0,0:0:0:0:
384,268,33921,2,0,P|416:212|408:132,1,140,4|0,0:0|0:0,0:0:0:0:
410,138,34421,1,8,0:0:0:0:
340,72,34587,1,0,0:0:0:0:
264,132,34754,6,0,P|196:116|136:80,1,140,4|8,0:0|0:0,0:0:0:0:
36,144,35254,2,0,P|104:160|164:196,1,140,4|0,0:0|0:0,0:0:0:0:
236,264,35754,1,8,0:0:0:0:
164,332,35921,1,8,0:0:0:0:
164,332,36004,1,0,0:0:0:0:
164,332,36087,6,0,L|88:324,2,70,0|4|8,0:0|2:0|0:0,0:0:0:0:
236,264,36587,1,0,0:0:0:0:
236,264,36754,2,0,L|316:268,2,70,0|0|8,0:0|0:0|0:0,0:0:0:0:
168,196,37254,1,8,0:0:0:0:
72,204,37421,6,2,P|36:144|40:68,1,140,6|8,0:0|0:0,0:0:0:0:
136,64,37921,2,2,P|205:48|280:36,1,140
368,60,38421,1,8,0:0:0:0:
273,37,38587,1,10,0:0:0:0:
300,132,38754,6,0,P|291:193|284:272,1,140,2|8,0:0|0:0,0:0:0:0:
380,280,39254,2,2,P|390:207|396:136,1,140,0|2,0:0|0:0,0:0:0:0:
356,52,39754,1,8,0:0:0:0:
395,140,39921,1,2,0:0:0:0:
300,132,40087,6,2,P|232:160|156:152,1,140,2|8,0:0|0:0,0:0:0:0:
72,124,40587,2,0,L|100:264,1,140,2|2,0:0|0:0,0:0:0:0:
184,344,41087,2,0,L|200:272,1,70,8|8,0:0|0:0,0:0:0:0:
199,275,41337,1,0,0:0:0:0:
199,275,41421,5,0,0:0:0:0:
188,180,41587,2,0,P|260:168|328:164,1,140,2|2,0:0|0:0,0:0:0:0:
326,164,42254,1,2,0:0:0:0:
408,220,42421,1,2,0:0:0:0:
416,124,42587,1,0,0:0:0:0:
332,172,42754,6,0,P|328:224|336:284,1,105.000004005432,4|2,0:0|2:0,0:0:0:0:
404,328,43254,1,0,2:0:0:0:
404,328,43421,2,0,L|376:376,1,52.5000020027161,8|2,0:0|2:0,0:0:0:0:
292,372,43754,2,0,L|260:316,1,52.5000020027161,2|0,2:0|2:0,2:0:0:0:
196,292,44087,5,4,0:0:0:0:
196,292,44254,2,0,L|92:304,1,105.000004005432,4|0,2:0|0:0,0:0:0:0:
40,224,44754,2,0,L|28:168,1,52.5000020027161,8|2,0:0|2:0,0:0:0:0:
124,160,45087,2,0,L|175:167,1,52.5000020027161,2|0,2:0|2:0,2:0:0:0:
260,180,45421,6,0,P|296:144|316:80,1,105.000004005432,4|2,0:0|2:0,0:0:0:0:
252,40,45921,1,0,2:0:0:0:
252,40,46087,2,0,L|188:28,1,52.5000020027161,8|0,0:0|0:0,0:0:0:0:
314,94,46421,2,0,L|380:80,1,52.5000020027161,2|0,2:0|2:0,2:0:0:0:
432,124,46754,6,0,P|432:152|420:184,1,52.5000020027161,6|4,1:0|2:0,0:0:0:0:
452,256,47087,1,2,2:0:0:0:
424,175,47254,1,0,0:0:0:0:
368,236,47421,2,0,B|308:224|328:244|252:228,1,105.000004005432,10|0,1:0|2:0,0:0:0:0:
263,230,48087,6,0,P|280:180|272:120,1,105.000004005432,6|2,1:0|2:0,0:0:0:0:
272,48,48587,1,0,2:0:0:0:
192,52,48754,2,0,L|140:60,1,52.5000020027161,8|2,0:0|2:0,0:0:0:0:
27,105,49087,2,0,L|80:112,1,52.5000020027161,2|0,2:0|2:0,0:0:0:0:
156,168,49421,5,4,0:0:0:0:
180,244,49588,1,4,2:0:0:0:
104,268,49755,1,2,2:0:0:0:
80,192,49921,1,0,0:0:0:0:
156,168,50087,2,0,P|184:160|220:160,2,52.5000020027161,8|2|2,0:0|2:0|2:0,0:0:0:0:
80,216,50587,1,0,2:0:0:0:
80,216,50754,5,4,0:0:0:0:
200,320,51087,1,0,0:0:0:0:
336,236,51421,2,0,L|364:296,1,52.5000020027161,8|0,0:0|0:0,0:0:0:0:
428,216,51754,2,0,L|400:160,1,52.5000020027161,0|0,2:0|0:0,0:0:0:0:
320,144,52087,6,0,B|256:128|280:148|212:132,1,105.000004005432,6|2,0:0|2:0,0:0:0:0:
136,164,52587,1,0,0:0:0:0:
56,120,52754,2,0,P|40:84|36:56,2,52.5000020027161,2|2|2,0:0|2:0|2:0,0:0:0:0:
116,192,53254,1,0,0:0:0:0:
116,192,53421,6,0,L|100:256,1,52.5000020027161,6|0,0:0|2:0,0:0:0:0:
148,308,53754,2,0,L|208:320,1,52.5000020027161,2|0,2:0|2:0,0:0:0:0:
264,276,54087,1,8,0:0:0:0:
336,304,54254,1,2,2:0:0:0:
388,248,54421,1,2,2:0:0:0:
316,220,54587,1,0,2:0:0:0:
264,276,54754,6,0,L|256:328,2,52.5000020027161,4|4|0,0:0|2:0|2:0,0:0:0:0:
204,212,55254,1,0,0:0:0:0:
204,212,55421,2,0,L|212:156,2,52.5000020027161,8|2|0,0:0|2:0|2:0,0:0:0:0:
256,72,56087,6,0,L|140:60,1,105.000004005432,4|2,0:0|2:0,0:0:0:0:
60,56,56587,1,0,2:0:0:0:
28,140,56754,2,0,L|96:152,1,52.5000020027161,8|0,0:0|0:0,0:0:0:0:
176,208,57087,2,0,L|116:224,1,52.5000020027161,0|2,2:0|2:0,0:0:0:0:
56,268,57421,6,0,L|64:332,1,52.5000020027161,6|4,0:0|2:0,0:0:0:0:
144,356,57754,1,2,2:0:0:0:
228,324,57921,1,0,0:0:0:0:
228,324,58087,2,0,P|260:308|332:304,1,105.000004005432,10|2,0:0|2:0,0:0:0:0:
408,340,58587,1,0,2:0:0:0:
480,288,58754,6,0,P|504:236|504:188,1,105.000004005432,6|2,0:0|2:0,0:0:0:0:
440,124,59254,1,0,2:0:0:0:
396,204,59421,2,0,L|328:212,1,52.5000020027161,8|2,0:0|2:0,0:0:0:0:
260,236,59754,2,0,L|200:216,1,52.5000020027161,2|0,2:0|2:0,2:0:0:0:
124,236,60087,6,0,B|132:268|132:268|104:352,1,105.000004005432,4|2,0:0|2:0,0:0:0:0:
16,344,60587,1,0,0:0:0:0:
16,344,60754,2,0,L|36:288,1,52.5000020027161,8|0,0:0|2:0,0:0:0:0:
16,208,61087,1,0,2:0:0:0:
16,208,61421,6,0,L|44:148,1,52.5000020027161,4|0,0:0|2:0,0:0:0:0:
60,72,61754,2,0,L|0:64,1,52.5000020027161,2|0,2:0|2:0,0:0:0:0:
38,160,62087,2,0,L|99:171,1,52.5000020027161,8|0,0:0|0:0,0:0:0:0:
152,232,62421,1,2,2:0:0:0:
240,220,62587,1,2,2:0:0:0:
240,220,62754,6,0,P|284:204|356:208,1,105.000004005432,6|2,0:0|2:0,0:0:0:0:
432,192,63254,1,4,3:0:0:0:
368,128,63421,1,2,0:0:0:0:
456,116,63587,1,4,3:0:0:0:
396,48,63754,2,0,L|360:40,3,26.2500010013581,4|4|4|4,0:3|0:3|0:3|0:3,0:0:0:0:
344,48,64087,6,0,L|329:189,1,140,4|8,0:0|0:0,0:0:0:0:
264,264,64587,2,0,P|200:236|128:232,1,140,4|0,0:0|0:0,0:0:0:0:
130,231,65087,1,8,0:0:0:0:
48,272,65254,1,8,0:0:0:0:
60,180,65421,6,0,P|92:116|88:40,1,140,4|8,0:0|0:0,0:0:0:0:
180,56,65921,2,0,L|324:48,1,140,4|0,0:0|0:0,0:0:0:0:
319,48,66421,1,8,0:0:0:0:
408,32,66587,1,0,0:0:0:0:
468,100,66754,6,0,L|448:176,1,70,4|0,0:0|2:0,0:0:0:0:
460,260,67087,1,8,0:0:0:0:
460,260,67254,2,0,L|440:336,1,70,4|0,0:0|2:0,0:0:0:0:
360,292,67587,1,0,0:0:0:0:
296,356,67754,1,8,0:0:0:0:
212,320,67921,1,8,0:0:0:0:
113,288,68087,6,0,P|115:323|128:356,2,70,4|4|8,0:0|2:0|0:0,0:0:0:0:
212,320,68587,1,0,0:0:0:0:
212,320,68754,2,0,P|210:285|197:252,2,70,2|0|8,2:0|0:0|0:0,0:0:0:0:
296,356,69254,1,8,0:0:0:0:
384,328,69421,6,0,L|453:338,1,70,4|0,0:0|0:0,0:0:0:0:
456,248,69754,2,0,L|468:180,1,70,8|0,0:0|0:0,0:0:0:0:
400,116,70087,1,0,0:0:0:0:
312,144,70254,1,0,0:0:0:0:
284,56,70421,1,8,0:0:0:0:
372,32,70587,1,8,0:0:0:0:
312,144,70754,6,0,L|224:152,1,70,4|0,0:0|0:0,0:0:0:0:
152,148,71087,2,0,L|132:228,1,70,8|0,0:0|0:0,0:0:0:0:
148,308,71421,1,0,0:0:0:0:
60,324,71587,1,0,0:0:0:0:
48,232,71754,1,8,0:0:0:0:
135,215,71921,1,0,0:0:0:0:
232,272,72087,6,0,L|328:260,1,70,4|0,0:0|0:0,0:0:0:0:
388,228,72421,1,8,0:0:0:0:
384,320,72587,1,0,0:0:0:0:
468,280,72754,2,0,P|476:248|480:212,1,70
448,124,73087,1,8,0:0:0:0:
364,92,73254,1,8,0:0:0:0:
364,92,73337,1,0,0:0:0:0:
364,92,73421,5,4,0:0:0:0:
276,108,73587,2,0,P|208:96|132:88,2,140,4|0|0,2:0|0:0|0:0,0:0:0:0:
336,176,74421,1,8,0:0:0:0:
336,176,74587,1,8,0:0:0:0:
408,228,74754,6,0,P|444:176|448:96,1,140,4|8,0:0|0:0,0:0:0:0:
376,48,75254,2,0,P|340:100|336:180,1,140,4|0,0:0|0:0,0:0:0:0:
334,174,75754,1,8,0:0:0:0:
292,256,75921,1,8,0:0:0:0:
244,332,76087,6,0,L|88:320,1,140,4|8,0:0|0:0,0:0:0:0:
56,228,76587,2,0,L|212:240,1,140,4|0,0:0|0:0,0:0:0:0:
195,238,77087,1,8,0:0:0:0:
276,280,77254,1,0,0:0:0:0:
364,264,77421,6,0,B|400:232|400:232|408:136,1,140,4|8,0:0|0:0,0:0:0:0:
356,68,77921,2,0,P|292:56|220:24,1,140,4|0,0:0|0:0,0:0:0:0:
136,52,78421,1,8,0:0:0:0:
44,56,78587,1,8,0:0:0:0:
44,56,78671,1,0,0:0:0:0:
44,56,78754,5,4,0:0:0:0:
76,140,78921,2,0,L|80:228,1,70,4|8,2:0|0:0,0:0:0:0:
184,160,79254,1,0,0:0:0:0:
184,160,79421,2,0,L|188:244,1,70,2|0,2:0|0:0,0:0:0:0:
196,320,79754,1,8,0:0:0:0:
272,272,79921,1,8,0:0:0:0:
187,229,80087,6,0,L|108:220,1,70,4|0,0:0|0:0,0:0:0:0:
36,296,80421,2,0,L|112:304,1,70,8|0,0:0|0:0,0:0:0:0:
196,320,80754,2,0,P|220:348|252:368,1,70
320,308,81087,1,8,0:0:0:0:
396,356,81254,1,8,0:0:0:0:
452,284,81421,6,0,L|460:208,2,70,4|4|8,0:0|2:0|0:0,0:0:0:0:
364,264,81921,1,0,0:0:0:0:
364,264,82087,2,0,L|356:340,2,70,2|0|8,2:0|0:0|0:0,0:0:0:0:
272,268,82587,1,0,0:0:0:0:
272,268,82754,6,0,L|202:274,1,70,4|0,0:0|0:0,0:0:0:0:
120,316,83087,1,8,0:0:0:0:
36,280,83254,1,0,0:0:0:0:
36,280,83421,2,0,P|24:248|20:212,1,70
60,128,83754,2,0,L|136:120,1,70,8|8,0:0|0:0,0:0:0:0:
129,120,84004,1,0,0:0:0:0:
129,120,84087,5,4,0:0:0:0:
188,192,84254,2,0,P|248:216|324:224,1,140,4|0,2:0|0:0,0:0:0:0:
448,92,84921,1,0,0:0:0:0:
356,100,85087,1,8,0:0:0:0:
448,92,85254,1,8,0:0:0:0:
412,176,85421,5,0,3:0:0:0:
412,176,89921,5,0,0:0:0:0:
340,148,90087,1,8,0:0:0:0:
400,100,90254,1,0,0:0:0:0:
476,128,90421,2,0,L|512:120,3,35
510,120,90754,6,0,P|505:185|486:280,1,140,0|2,1:0|0:0,0:0:0:0:
452,340,91254,1,0,0:0:0:0:
452,340,91421,2,0,P|392:316|308:308,1,140,0|2,1:0|0:0,0:0:0:0:
232,340,91921,1,2,0:0:0:0:
140,336,92087,6,0,P|124:304|120:268,1,70,0|4,1:0|0:0,0:0:0:0:
96,180,92421,2,0,L|20:164,1,70,2|0,0:0|1:0,0:0:0:0:
120,88,92754,2,0,L|268:68,1,140,0|2,1:0|0:0,0:0:0:0:
340,112,93254,1,2,0:0:0:0:
408,52,93421,6,0,P|380:32|340:24,1,70,0|0,1:0|0:0,0:0:0:0:
340,112,93754,2,0,P|367:131|408:140,1,70,2|0,0:0|0:0,0:0:0:0:
480,184,94087,1,0,1:0:0:0:
408,240,94254,1,0,1:0:0:0:
488,280,94421,2,0,P|483:317|472:360,1,70,2|2,0:0|0:0,0:0:0:0:
384,352,94754,5,0,1:0:0:0:
384,352,94921,2,0,B|344:336|344:336|240:348,1,140,4|0,0:0|1:0,0:0:0:0:
172,300,95421,1,0,1:0:0:0:
96,348,95587,1,0,1:0:0:0:
32,284,95754,2,0,L|25:249,3,35,0|0|0|0,1:0|1:0|1:0|1:0,0:0:0:0:
36,228,96087,6,0,P|84:224|132:200,1,93.3333333333333,0|0,1:0|0:0,0:0:0:0:
180,204,96421,2,0,L|160:112,1,93.3333333333333,0|0,1:0|0:0,0:0:0:0:
188,64,96754,2,0,P|236:60|284:76,1,93.3333333333333,8|0,1:0|0:0,0:0:0:0:
328,96,97087,2,0,L|428:76,1,93.3333333333333,0|0,1:0|0:0,0:0:0:0:
464,112,97421,6,0,L|520:124,2,46.6666666666667,0|2|0,1:0|0:0|0:0,0:0:0:0:
464,168,97754,2,0,L|520:180,2,46.6666666666667
464,224,98087,2,0,L|512:236,2,46.6666666666667,8|2|0,1:0|0:0|0:0,0:0:0:0:
408,240,98421,2,0,P|356:248|320:272,1,93.3333333333333,2|0,0:0|0:0,0:0:0:0:
300,320,98754,6,0,L|220:316,1,70,0|0,1:0|0:0,0:0:0:0:
184,224,99087,2,0,L|256:228,1,70,2|0,0:0|0:0,0:0:0:0:
332,196,99421,1,8,1:0:0:0:
412,220,99587,1,0,1:0:0:0:
480,172,99754,2,0,P|488:136|488:104,1,70,2|2,0:0|0:0,0:0:0:0:
412,68,100087,6,0,L|342:56,2,70,0|4|0,1:0|0:0|0:0,0:0:0:0:
404,152,100587,1,0,1:0:0:0:
404,152,100754,2,0,L|476:164,1,70,0|0,1:0|1:0,0:0:0:0:
468,248,101087,2,0,L|456:280,3,35,0|0|0|0,1:0|1:0|1:0|1:0,0:0:0:0:
464,304,101421,6,0,P|420:300|372:312,1,93.3333333333333,0|0,1:0|0:0,0:0:0:0:
328,344,101754,2,0,P|280:348|236:328,1,93.3333333333333,2|0,0:0|0:0,0:0:0:0:
184,324,102087,2,0,L|172:232,1,93.3333333333333,8|0,1:0|0:0,0:0:0:0:
204,184,102421,2,0,P|236:152|252:108,1,93.3333333333333
236,52,102754,6,0,L|136:36,1,93.3333333333333,0|0,1:0|0:0,0:0:0:0:
88,52,103087,2,0,P|80:100|96:148,1,93.3333333333333
68,192,103421,2,0,L|16:188,2,46.6666666666667,8|2|0,1:0|0:0|0:0,0:0:0:0:
80,248,103754,2,0,L|136:252,2,46.6666666666667
40,284,104087,6,0,P|40:328|56:368,1,70,0|0,1:0|0:0,0:0:0:0:
132,344,104421,2,0,P|155:336|201:332,1,70,2|0,0:0|0:0,0:0:0:0:
284,352,104754,1,8,1:0:0:0:
364,324,104921,1,0,1:0:0:0:
300,272,105087,1,2,0:0:0:0:
284,352,105254,1,2,0:0:0:0:
364,324,105421,5,0,1:0:0:0:
444,348,105587,2,0,P|461:270|464:208,1,140,4|0,0:0|1:0,0:0:0:0:
436,132,106087,2,0,L|364:124,1,70,0|0,1:0|1:0,0:0:0:0:
288,96,106421,1,0,1:0:0:0:
268,100,106504,1,0,1:0:0:0:
248,104,106587,1,0,1:0:0:0:
228,108,106671,1,0,1:0:0:0:
212,112,106754,5,0,1:0:0:0:
212,112,109421,6,2,L|72:100,1,140,6|8,0:0|0:0,0:0:0:0:
16,184,109921,2,0,L|156:196,1,140,2|2,0:0|0:0,0:0:0:0:
232,228,110421,2,0,P|244:260|276:296,1,70,8|8,0:0|0:0,0:0:0:0:
340,328,110754,6,2,L|480:300,1,140,2|8,0:0|0:0,0:0:0:0:
480,204,111254,2,0,L|340:232,1,140,2|2,0:0|0:0,0:0:0:0:
268,196,111754,1,8,0:0:0:0:
232,120,111921,1,2,0:0:0:0:
160,76,112087,6,2,P|84:80|24:116,1,140,2|8,0:0|0:0,0:0:0:0:
64,188,112587,2,0,L|84:332,1,140,2|2,0:0|0:0,0:0:0:0:
168,340,113087,2,0,L|244:328,1,70,8|8,0:0|0:0,0:0:0:0:
237,329,113337,1,0,0:0:0:0:
237,329,113421,5,4,0:0:0:0:
312,272,113587,2,0,P|380:276|444:312,2,140,2|2|2,0:0|0:0|0:0,0:0:0:0:
228,252,114421,1,8,0:0:0:0:
312,272,114587,1,10,0:0:0:0:
244,336,114754,6,0,P|208:344|172:344,1,70,4|0,0:0|0:0,0:0:0:0:
92,332,115087,2,0,L|76:248,1,70,8|0,0:0|0:0,0:0:0:0:
48,184,115421,2,0,P|52:152|64:112,1,70
108,44,115754,1,8,0:0:0:0:
192,76,115921,1,8,0:0:0:0:
192,76,116087,6,0,L|268:72,1,70,4|0,0:0|0:0,0:0:0:0:
268,164,116421,2,0,L|196:168,1,70,8|0,0:0|0:0,0:0:0:0:
140,236,116754,2,0,P|140:272|160:308,1,70
232,352,117087,1,8,0:0:0:0:
292,284,117254,1,0,0:0:0:0:
372,332,117421,6,0,L|444:324,1,70,4|0,0:0|0:0,0:0:0:0:
500,252,117754,1,8,0:0:0:0:
412,224,117921,1,0,0:0:0:0:
472,156,118087,2,0,P|484:124|484:88,1,70
404,48,118421,2,0,L|328:52,1,70,8|8,0:0|0:0,0:0:0:0:
334,51,118671,1,0,0:0:0:0:
334,51,118754,5,4,0:0:0:0:
256,96,118921,2,0,P|192:72|116:76,2,140,4|0|0,2:0|0:0|0:0,0:0:0:0:
308,168,119754,1,8,0:0:0:0:
244,236,119921,1,8,0:0:0:0:
280,320,120087,6,2,P|320:304|416:308,1,140,6|8,0:0|0:0,0:0:0:0:
500,336,120587,2,0,P|528:272|520:204,1,140,2|2,0:0|0:0,0:0:0:0:
456,136,121087,2,0,L|384:148,1,70,8|8,0:0|0:0,0:0:0:0:
296,168,121420,6,2,P|232:140|160:144,1,140,2|8,0:0|0:0,0:0:0:0:
152,236,121921,2,0,P|216:264|288:260,1,140,2|2,0:0|0:0,0:0:0:0:
368,228,122420,1,8,0:0:0:0:
384,140,122587,1,2,0:0:0:0:
296,168,122754,6,2,P|232:140|160:144,1,140,2|8,0:0|0:0,0:0:0:0:
80,180,123253,2,0,P|44:120|52:52,1,140,2|2,0:0|0:0,0:0:0:0:
140,32,123754,2,0,L|212:36,1,70,8|8,0:0|0:0,0:0:0:0:
209,35,124004,1,0,0:0:0:0:
209,35,124087,5,4,0:0:0:0:
284,84,124254,2,0,P|348:60|428:68,2,140,2|2|2,0:0|0:0|0:0,0:0:0:0:
236,160,125087,1,10,0:0:0:0:
292,232,125253,1,8,0:0:0:0:
260,316,125421,6,0,L|184:324,1,70,4|0,0:0|0:0,0:0:0:0:
108,288,125754,2,0,L|40:276,1,70,8|0,0:0|0:0,0:0:0:0:
84,196,126087,2,0,L|152:208,2,70,0|0|8,0:0|0:0|0:0,0:0:0:0:
48,112,126587,1,8,0:0:0:0:
116,52,126754,6,0,P|144:40|184:36,1,70,4|0,0:0|0:0,0:0:0:0:
264,80,127087,2,0,P|296:88|344:88,1,70,8|0,0:0|0:0,0:0:0:0:
424,96,127421,2,0,L|436:24,2,70,0|0|8,0:0|0:0|0:0,0:0:0:0:
372,172,127920,1,0,0:0:0:0:
432,240,128087,6,0,L|420:312,1,70,4|0,0:0|0:0,0:0:0:0:
340,348,128420,1,8,0:0:0:0:
288,272,128587,1,0,0:0:0:0:
220,328,128754,2,0,L|144:340,1,70
104,260,129087,2,0,L|180:248,1,70,8|8,0:0|0:0,0:0:0:0:
173,249,129337,1,0,0:0:0:0:
173,249,129421,5,4,0:0:0:0:
236,184,129587,2,0,P|256:116|240:48,2,140,4|0|0,2:0|0:0|0:0,0:0:0:0:
316,228,130420,1,8,0:0:0:0:
316,228,130587,1,8,0:0:0:0:
264,304,130754,5,4,0:0:0:0:
264,304,130921,1,4,0:3:0:0:
264,304,131087,1,4,0:3:0:0:
264,304,131254,1,4,0:3:0:0:
180,344,131421,2,0,L|104:336,1,70,4|4,3:0|3:0,0:0:0:0:
64,244,131754,2,0,L|133:251,1,70,4|8,0:3|0:0,0:0:0:0:
228,228,132087,5,4,0:3:0:0:
228,228,132254,1,4,0:3:0:0:
228,228,132421,1,4,0:3:0:0:
228,228,132587,1,4,0:3:0:0:
272,140,132754,2,0,L|256:68,1,70,4|4,0:3|0:3,0:0:0:0:
356,84,133087,2,0,L|372:152,1,70,4|4,0:3|0:3,0:0:0:0:
444,220,133421,5,4,0:3:0:0:
444,220,133587,1,4,0:3:0:0:
444,220,133754,1,4,0:3:0:0:
444,220,133921,1,4,0:3:0:0:
424,316,134087,2,0,P|388:320|348:308,1,70,4|4,0:3|0:3,0:0:0:0:
272,260,134421,2,0,P|232:260|196:276,1,70,4|8,0:3|0:0,0:0:0:0:
204,270,134671,1,0,0:0:0:0:
204,270,134754,5,4,0:0:0:0:
112,308,134921,2,0,P|88:240|88:164,1,140,4|0,2:0|0:0,0:0:0:0:
68,76,135421,2,0,L|144:64,1,70,4|4,0:3|0:3,0:0:0:0:
224,112,135754,1,4,0:3:0:0:
224,112,135921,1,8,0:0:0:0:
316,84,136087,5,4,0:0:0:0:
316,84,136254,1,4,0:3:0:0:
316,84,136421,1,4,0:3:0:0:
316,84,136587,1,4,0:3:0:0:
404,132,136754,2,0,P|404:172|396:204,1,70,4|4,0:3|0:3,0:0:0:0:
308,244,137087,2,0,P|308:204|316:172,1,70,4|8,0:3|0:0,0:0:0:0:
400,300,137421,5,4,0:3:0:0:
400,300,137587,1,4,0:3:0:0:
400,300,137754,1,4,0:3:0:0:
400,300,137921,1,4,0:3:0:0:
308,336,138087,2,0,P|272:348|238:345,1,70,4|4,0:3|0:3,0:0:0:0:
184,264,138421,2,0,P|220:252|253:254,1,70,4|4,0:3|0:3,0:0:0:0:
160,360,138754,5,4,0:3:0:0:
160,360,138921,1,4,0:3:0:0:
160,360,139087,1,4,0:3:0:0:
160,360,139254,1,4,0:3:0:0:
72,316,139421,2,0,L|60:244,1,70,4|4,0:3|0:3,0:0:0:0:
108,160,139754,2,0,L|120:80,1,70,4|8,0:3|0:0,0:0:0:0:
118,90,140004,1,0,0:0:0:0:
118,90,140087,5,4,0:0:0:0:
212,64,140254,2,0,P|281:60|356:48,1,140,0|0,0:2|0:0,0:0:0:0:
444,76,140754,2,0,L|428:148,1,70,4|4,0:3|0:3,0:0:0:0:
436,244,141087,2,0,L|356:256,1,70,4|8,0:3|0:0,0:0:0:0:
296,316,141421,6,2,B|252:296|252:296|156:316,1,140,6|8,0:0|0:0,0:0:0:0:
72,328,141921,2,2,P|48:284|52:192,1,140,6|0,0:0|0:0,0:0:0:0:
28,108,142421,1,8,0:0:0:0:
50,196,142587,1,8,0:0:0:0:
128,148,142754,6,2,P|192:128|240:64,1,140,6|8,0:0|0:0,0:0:0:0:
316,120,143254,2,2,P|360:172|424:200,1,140,6|0,0:0|0:0,0:0:0:0:
512,172,143754,2,0,L|496:96,1,70,8|0,0:0|0:0,0:0:0:0:
424,200,144087,6,2,L|448:340,1,140,6|8,0:0|0:0,0:0:0:0:
356,340,144587,2,2,P|288:320|208:332,1,140,6|0,0:0|0:0,0:0:0:0:
160,260,145087,1,8,0:0:0:0:
136,348,145254,1,8,0:0:0:0:
136,348,145337,1,0,0:0:0:0:
136,348,145421,5,4,0:0:0:0:
72,284,145587,2,0,P|44:224|44:148,2,140,4|0|0,2:0|0:0|0:0,0:0:0:0:
160,260,146421,1,8,0:0:0:0:
248,240,146587,1,8,0:0:0:0:
332,272,146754,6,0,L|356:356,1,70,6|0,0:0|0:0,0:0:0:0:
424,284,147087,2,0,L|400:200,1,70,8|2,0:0|0:0,0:0:0:0:
392,124,147421,1,0,0:0:0:0:
300,116,147587,1,2,0:0:0:0:
208,112,147754,1,8,0:0:0:0:
208,112,147921,1,8,0:0:0:0:
124,148,148087,6,0,P|92:128|76:96,1,70,6|0,0:0|0:0,0:0:0:0:
161,64,148421,2,0,P|193:84|209:116,1,70,8|2,0:0|0:0,0:0:0:0:
280,168,148754,1,0,0:0:0:0:
264,260,148921,1,2,0:0:0:0:
252,348,149087,1,8,0:0:0:0:
252,348,149254,1,0,0:0:0:0:
168,316,149421,6,0,L|92:308,1,70,6|0,0:0|0:0,0:0:0:0:
64,224,149754,2,0,L|136:232,1,70,8|2,0:0|0:0,0:0:0:0:
216,196,150087,2,0,P|232:164|232:120,1,70,0|2,0:0|0:0,0:0:0:0:
188,52,150421,1,8,0:0:0:0:
96,56,150587,1,8,0:0:0:0:
96,56,150671,1,0,0:0:0:0:
96,56,150754,5,6,0:0:0:0:
188,52,150921,2,0,P|256:48|328:24,1,140,4|2,2:0|0:0,0:0:0:0:
404,68,151421,2,0,L|476:76,1,70,0|2,0:0|0:0,0:0:0:0:
408,156,151754,2,0,L|336:148,1,70,10|8,0:0|0:0,0:0:0:0:
248,132,152087,6,2,P|232:192|248:268,1,140,6|8,0:0|0:0,0:0:0:0:
184,332,152587,2,2,L|40:312,1,140,6|0,0:0|0:0,0:0:0:0:
45,312,153087,1,8,0:0:0:0:
16,228,153254,1,8,0:0:0:0:
92,180,153421,6,2,L|232:200,1,140,6|8,0:0|0:0,0:0:0:0:
300,256,153921,2,2,P|336:204|344:128,1,140,6|0,0:0|0:0,0:0:0:0:
344,129,154421,1,8,0:0:0:0:
316,44,154587,1,0,0:0:0:0:
228,72,154754,6,2,P|156:60|96:20,1,140,6|8,0:0|0:0,0:0:0:0:
48,100,155254,2,2,P|68:148|68:240,1,140,6|0,0:0|0:0,0:0:0:0:
60,324,155754,1,8,0:0:0:0:
152,312,155921,1,8,0:0:0:0:
152,312,156004,1,0,0:0:0:0:
152,312,156087,6,0,L|232:300,2,70,6|4|8,0:0|2:0|0:0,0:0:0:0:
138,224,156587,1,2,0:0:0:0:
138,224,156754,2,0,L|58:236,2,70,2|2|10,2:0|0:0|0:0,0:0:0:0:
228,208,157254,1,8,0:0:0:0:
316,228,157421,6,0,P|328:192|328:160,1,70,6|0,0:0|0:0,0:0:0:0:
304,72,157754,2,0,L|234:79,1,70,8|2,0:0|0:0,0:0:0:0:
144,64,158087,1,0,0:0:0:0:
234,79,158254,1,2,0:0:0:0:
220,168,158421,1,8,0:0:0:0:
132,152,158587,1,8,0:0:0:0:
52,192,158754,6,0,P|52:224|68:264,1,70,6|0,0:0|0:0,0:0:0:0:
120,332,159087,2,0,L|196:320,1,70,8|2,0:0|0:0,0:0:0:0:
280,332,159421,1,0,0:0:0:0:
189,321,159587,1,2,0:0:0:0:
200,232,159754,1,8,0:0:0:0:
292,240,159921,1,0,0:0:0:0:
368,288,160087,6,0,L|440:280,1,70,6|0,0:0|0:0,0:0:0:0:
444,188,160421,2,0,L|372:196,1,70,8|2,0:0|0:0,0:0:0:0:
292,240,160754,2,0,P|276:208|268:172,1,70,0|2,0:0|0:0,0:0:0:0:
252,84,161087,1,8,0:0:0:0:
164,60,161254,1,8,0:0:0:0:
164,60,161337,1,0,0:0:0:0:
164,60,161421,5,6,0:0:0:0:
80,104,161587,2,0,P|80:168|104:240,1,140,4|2,2:0|0:0,0:0:0:0:
136,324,162087,2,0,L|208:316,1,70,0|2,0:0|0:0,0:0:0:0:
292,344,162421,1,10,0:0:0:0:
272,256,162587,1,8,0:0:0:0:
205,316,162754,5,4,0:0:0:0:
