osu file format v14

[General]
AudioFilename: audio.mp3
AudioLeadIn: 0
PreviewTime: 64004
Countdown: 1
SampleSet: Normal
StackLeniency: 0.7
Mode: 0
LetterboxInBreaks: 0
WidescreenStoryboard: 1

[Editor]
Bookmarks: 85421,90754,106754,109421
DistanceSpacing: 1
BeatDivisor: 4
GridSize: 4
TimelineZoom: 2.2

[Metadata]
Title:Like A Man
TitleUnicode:남자답게
Artist:Outsider
ArtistUnicode:Outsider
Creator:IceBeam
Version:PandaHero's Normal
Source:Pump It Up 2011 Fiesta EX
Tags:reiji-rj pandahero piu video dance game korean hip-hop soliloquist
BeatmapID:1418341
BeatmapSetID:666566

[Difficulty]
HPDrainRate:4
CircleSize:4
OverallDifficulty:4
ApproachRate:5
SliderMultiplier:1.2
SliderTickRate:1

[Events]
//Background and Video events
0,0,"2b09e677a2e9158bf6bf53a819f38770.jpg",0,0
//Break Periods
2,85621,89554
//Storyboard Layer 0 (Background)
//Storyboard Layer 1 (Fail)
//Storyboard Layer 2 (Pass)
//Storyboard Layer 3 (Foreground)
//Storyboard Sound Samples

[TimingPoints]
88,333.333333333333,4,1,0,35,1,0
88,-100,4,2,0,35,0,0
10754,-100,4,2,1,40,0,0
16087,-100,4,1,1,45,0,0
21421,-100,4,1,1,55,0,1
26754,-100,4,1,1,45,0,0
32087,-100,4,1,1,55,0,1
37421,-100,4,1,1,45,0,0
42754,-100,4,1,1,45,0,1
42837,-100,4,2,1,45,0,0
64087,-100,4,1,1,55,0,1
74671,-100,4,1,1,55,0,0
74754,-100,4,1,1,55,0,1
85337,-100,4,1,1,45,0,0
85421,-100,4,1,1,45,0,1
85504,-100,4,1,1,35,0,0
90754,-100,4,2,1,45,0,0
96087,-100,4,2,1,45,0,0
109421,-100,4,1,1,45,0,0
114754,-100,4,1,1,55,0,1
120087,-100,4,1,1,45,0,0
125421,-100,4,1,1,55,0,1
130671,-100,4,1,1,45,0,0
130754,-100,4,1,1,30,0,1
130837,-100,4,1,1,30,0,0
132087,-100,4,1,1,35,0,1
132171,-100,4,1,1,35,0,0
133421,-100,4,1,1,40,0,1
133504,-100,4,1,1,40,0,0
134754,-100,4,1,1,45,0,1
134837,-100,4,1,1,45,0,0
136087,-100,4,1,1,50,0,1
136171,-100,4,1,1,50,0,0
137421,-100,4,1,1,55,0,1
137504,-100,4,1,1,55,0,0
138754,-100,4,1,1,60,0,1
138837,-100,4,1,1,60,0,0
140087,-100,4,1,1,65,0,1
140171,-100,4,1,1,65,0,0
141421,-100,4,1,1,55,0,1
152004,-100,4,1,1,55,0,0
152087,-100,4,1,1,55,0,1
162671,-100,4,1,1,55,0,0
162754,-100,4,1,1,55,0,1
162837,-100,4,1,1,55,0,0

[Colours]
Combo1 : 121,13,202
Combo2 : 204,21,77

[HitObjects]
186,61,88,6,0,L|374:52,1,180,2|0,0:0|0:0,0:0:0:0:
484,36,921,2,0,L|480:106,1,60,2|0,0:0|0:0,0:0:0:0:
395,180,1421,6,0,L|215:173,1,180,2|2,0:0|0:0,0:0:0:0:
96,152,2254,2,0,L|102:224,1,60,2|0,0:0|0:0,0:0:0:0:
45,318,2754,6,0,L|239:310,1,180,2|2,0:0|0:0,0:0:0:0:
342,286,3587,2,0,L|335:369,1,60,2|0,0:0|0:0,0:0:0:0:
454,319,4087,5,2,0:0:0:0:
454,319,4254,2,0,L|473:179,2,120,4|2|2,0:0|0:0|0:0,0:0:0:0:
414,364,5087,1,0,0:0:0:0:
326,281,5421,6,0,L|320:94,1,180,2|2,0:0|0:0,0:0:0:0:
230,21,6254,1,2,0:0:0:0:
127,83,6587,5,0,0:0:0:0:
127,83,6754,2,0,L|122:279,1,180,2|2,0:0|0:0,0:0:0:0:
193,359,7587,2,0,L|115:347,1,60,2|0,0:0|0:0,0:0:0:0:
34,282,8087,6,0,L|29:99,1,180,2|0,0:0|0:0,0:0:0:0:
147,123,8921,2,0,L|209:135,1,60,2|0,0:0|0:0,0:0:0:0:
325,140,9421,5,2,0:0:0:0:
325,140,9587,2,0,L|453:104,2,120,4|2|2,0:0|0:0|0:0,0:0:0:0:
267,158,10421,1,0,0:0:0:0:
160,213,10754,5,0,1:0:0:0:
129,328,11087,1,0,1:0:0:0:
129,328,11254,1,0,1:0:0:0:
26,179,11754,2,0,L|27:108,1,60,0|0,1:0|1:0,0:0:0:0:
34,59,12087,6,0,P|93:62|163:59,1,120,2|0,0:0|1:0,0:0:0:0:
267,21,12754,2,0,L|269:97,1,60,0|2,0:0|0:0,0:0:0:0:
268,141,13087,1,0,1:0:0:0:
266,259,13421,5,2,0:0:0:0:
346,348,13754,1,0,1:0:0:0:
462,320,14087,1,0,0:0:0:0:
484,201,14421,2,0,L|491:131,1,60,0|0,1:0|0:0,0:0:0:0:
496,81,14754,6,0,P|437:86|370:77,1,120,2|0,0:0|1:0,0:0:0:0:
261,101,15421,2,0,L|259:177,1,60,0|2,0:0|0:0,0:0:0:0:
257,221,15754,1,0,1:0:0:0:
139,243,16087,6,0,P|123:183|90:125,1,120,4|8,0:0|0:0,0:0:0:0:
55,87,16587,1,0,0:0:0:0:
19,201,16921,1,0,0:0:0:0:
19,201,17087,2,0,L|23:282,1,60,8|8,0:0|0:0,0:0:0:0:
50,314,17421,6,0,P|109:306|168:312,1,120,0|8,0:0|0:0,0:0:0:0:
213,352,17921,2,0,P|272:359|331:351,1,120
372,307,18421,1,8,0:0:0:0:
473,371,18754,6,0,P|475:305|487:224,1,120,4|8,0:0|0:0,0:0:0:0:
485,191,19254,1,0,0:0:0:0:
384,125,19587,1,0,0:0:0:0:
384,125,19754,2,0,L|389:206,1,60,8|0,0:0|0:0,0:0:0:0:
365,240,20087,6,0,P|305:228|226:221,1,120,0|8,0:0|0:0,0:0:0:0:
197,256,20587,2,0,P|193:191|175:123,1,120
156,82,21087,1,8,0:0:0:0:
37,61,21421,5,6,0:0:0:0:
21,179,21754,1,8,0:0:0:0:
21,179,21921,1,2,0:0:0:0:
111,257,22254,1,0,0:0:0:0:
111,257,22421,2,0,L|176:248,1,60,8|8,0:0|0:0,0:0:0:0:
225,272,22754,5,2,0:0:0:0:
310,355,23087,1,8,0:0:0:0:
310,355,23254,1,2,0:0:0:0:
352,243,23587,2,0,L|372:166,2,60,0|8|0,0:0|0:0|2:0,0:0:0:0:
293,256,24087,5,6,0:0:0:0:
199,180,24421,1,8,0:0:0:0:
199,180,24587,1,2,0:0:0:0:
281,92,24921,2,0,L|329:49,1,60,0|8,0:0|0:0,0:0:0:0:
445,49,25421,6,0,L|436:136,1,60,2|4,0:0|2:0,0:0:0:0:
430,168,25754,1,10,0:0:0:0:
315,202,26087,2,0,L|353:280,1,60,0|2,2:0|0:0,0:0:0:0:
368,309,26421,1,10,0:0:0:0:
478,354,26754,6,0,L|495:229,1,120,4|8,0:0|0:0,0:0:0:0:
495,174,27254,2,0,P|437:181|355:171,1,120
315,173,27754,1,8,0:0:0:0:
304,53,28087,6,0,P|372:60|444:50,1,120,0|8,0:0|0:0,0:0:0:0:
479,33,28587,1,0,0:0:0:0:
437,146,28921,1,0,0:0:0:0:
437,146,29087,1,8,0:0:0:0:
319,171,29421,6,0,L|303:313,1,120,4|8,0:0|0:0,0:0:0:0:
297,349,29921,2,0,P|239:342|157:352,1,120
118,355,30421,1,8,0:0:0:0:
166,245,30754,1,0,0:0:0:0:
76,165,31087,1,8,0:0:0:0:
76,165,31254,2,0,L|36:299,1,120
25,338,31754,1,8,0:0:0:0:
143,358,32087,5,6,0:0:0:0:
265,356,32421,1,8,0:0:0:0:
265,356,32587,1,2,0:0:0:0:
248,236,32921,1,0,0:0:0:0:
248,236,33087,2,0,L|236:154,1,60,8|8,0:0|0:0,0:0:0:0:
233,116,33421,5,2,0:0:0:0:
344,160,33754,1,8,0:0:0:0:
344,160,33921,1,2,0:0:0:0:
248,236,34254,2,0,L|184:297,2,60,0|8|0,0:0|0:0|2:0,0:0:0:0:
308,236,34754,5,6,0:0:0:0:
313,355,35087,1,8,0:0:0:0:
313,355,35254,1,2,0:0:0:0:
432,353,35587,2,0,L|438:269,1,60,0|8,0:0|0:0,0:0:0:0:
451,173,36087,6,0,P|417:172|380:169,1,60,2|4,0:0|2:0,0:0:0:0:
331,160,36421,1,10,0:0:0:0:
241,239,36754,2,0,L|220:158,2,60,0|2|10,2:0|0:0|0:0,0:0:0:0:
197,351,37421,6,0,P|134:358|78:352,1,120,4|8,0:0|0:0,0:0:0:0:
30,314,37921,2,0,P|22:260|31:182,1,120
66,148,38421,1,8,0:0:0:0:
184,167,38754,6,0,P|237:172|311:169,1,120,0|8,0:0|0:0,0:0:0:0:
362,158,39254,1,0,0:0:0:0:
360,38,39587,1,0,0:0:0:0:
360,38,39754,1,8,0:0:0:0:
475,70,40087,6,0,P|480:130|475:192,1,120,4|8,0:0|0:0,0:0:0:0:
458,247,40587,2,0,P|413:217|342:187,1,120
293,180,41087,1,8,0:0:0:0:
174,201,41421,5,0,0:0:0:0:
174,201,41587,2,0,P|171:150|188:60,2,120,4|0|0,2:0|0:0|0:0,0:0:0:0:
209,249,42421,1,8,0:0:0:0:
301,331,42754,6,0,B|248:316|248:316|172:352,1,120,4|2,0:0|0:0,0:0:0:0:
68,352,43421,2,0,L|60:216,1,120,8|2,1:0|0:0,0:0:0:0:
56,112,44087,2,0,B|132:109|132:109|161:128|161:128|247:121,1,180,0|2,1:0|0:0,0:0:0:0:
285,109,44754,2,0,L|286:246,1,120,8|0,1:0|0:0,0:0:0:0:
349,331,45421,6,0,B|400:316|400:316|484:352,1,120,4|2,1:0|0:0,0:0:0:0:
504,232,46087,2,0,P|444:232|392:192,1,120,8|2,1:0|0:0,0:0:0:0:
288,148,46754,2,0,P|296:245|288:340,1,180,0|2,1:0|0:0,0:0:0:0:
236,356,47421,2,0,L|174:324,1,60,8|0,1:0|2:0,1:0:0:0:
135,297,47754,1,2,0:0:0:0:
122,177,48087,6,0,B|129:125|129:125|136:52,1,120,4|2,1:0|0:0,0:0:0:0:
252,28,48754,2,0,L|236:156,1,120,8|2,1:0|0:0,0:0:0:0:
256,264,49421,2,0,P|337:240|443:224,1,180,0|0,1:0|0:0,0:0:0:0:
484,253,50087,2,0,L|488:120,1,120,8|2,1:0|0:0,0:0:0:0:
413,38,50754,5,4,1:0:0:0:
298,74,51087,1,0,2:0:0:0:
297,195,51421,1,8,1:0:0:0:
412,236,51754,1,2,0:0:0:0:
297,195,52087,2,0,B|248:176|248:176|164:200,1,120,0|2,1:0|0:0,0:0:0:0:
148,308,52754,2,0,B|197:327|197:327|281:303,1,120,8|2,1:0|0:0,0:0:0:0:
364,244,53421,6,0,L|363:376,1,120,4|2,1:0|0:0,0:0:0:0:
468,304,54087,2,0,L|468:174,1,120,8|2,1:0|0:0,0:0:0:0:
368,120,54754,2,0,B|291:120|291:120|186:173,1,180,0|0,1:0|0:0,0:0:0:0:
208,224,55421,2,0,L|335:224,1,120,8|2,1:0|0:0,0:0:0:0:
322,346,56087,6,0,P|264:352|194:345,1,120,4|2,1:0|0:0,0:0:0:0:
92,298,56754,1,8,1:0:0:0:
93,178,57087,1,2,0:0:0:0:
208,143,57421,2,0,L|398:145,1,180,0|0,1:0|0:0,0:0:0:0:
442,171,58087,2,0,L|432:238,2,60,8|0|2,1:0|0:0|0:0,0:0:0:0:
473,55,58754,6,0,B|428:28|428:28|352:48,1,120,4|2,1:0|0:0,1:0:0:0:
244,28,59421,2,0,L|236:159,1,120,8|2,1:0|0:0,0:0:0:0:
176,252,60087,2,0,P|147:172|74:83,1,180,0|0,1:0|0:0,0:0:0:0:
37,68,60754,1,8,1:0:0:0:
4,183,61087,1,2,0:0:0:0:
50,293,61421,6,0,B|99:293|99:293|173:339,1,120,4|2,1:0|0:0,0:0:0:0:
277,350,62087,1,8,1:0:0:0:
244,234,62421,1,2,0:0:0:0:
277,350,62754,2,0,L|412:350,1,120,0|2,1:0|0:0,0:0:0:0:
444,239,63421,1,8,1:0:0:0:
444,239,63754,1,0,1:0:0:0:
482,125,64087,5,6,0:0:0:0:
364,157,64421,1,8,0:0:0:0:
364,157,64587,1,2,0:0:0:0:
268,83,64921,1,0,0:0:0:0:
268,83,65087,2,0,L|215:42,1,60,8|8,0:0|0:0,0:0:0:0:
163,26,65421,5,2,0:0:0:0:
160,145,65754,1,8,0:0:0:0:
160,145,65921,1,2,0:0:0:0:
69,223,66254,2,0,L|9:277,2,60,0|8|0,0:0|0:0|2:0,0:0:0:0:
119,255,66754,5,6,0:0:0:0:
204,338,67087,1,8,0:0:0:0:
204,338,67254,1,2,0:0:0:0:
314,291,67587,2,0,L|389:250,1,60,0|8,0:0|0:0,0:0:0:0:
441,168,68087,6,0,L|362:132,1,60,2|4,0:0|2:0,0:0:0:0:
331,116,68421,1,10,0:0:0:0:
232,48,68754,2,0,L|241:135,1,60,0|2,2:0|0:0,0:0:0:0:
241,167,69087,1,10,0:0:0:0:
259,285,69421,6,0,L|403:281,1,120,6|8,0:0|0:0,0:0:0:0:
476,211,70087,2,0,L|479:296,2,60,0|2|8,2:0|0:0|0:0,0:0:0:0:
471,90,70754,6,0,L|337:93,1,120,2|8,0:0|0:0,0:0:0:0:
241,42,71421,2,0,L|240:124,2,60,0|2|8,2:0|0:0|0:0,0:0:0:0:
125,74,72087,5,6,0:0:0:0:
139,193,72421,1,8,0:0:0:0:
38,258,72754,1,0,2:0:0:0:
33,138,73087,1,10,0:0:0:0:
139,193,73421,6,0,P|207:195|276:193,1,120,2|8,0:0|0:0,0:0:0:0:
377,176,74087,1,0,2:0:0:0:
335,288,74421,1,10,0:0:0:0:
258,193,74754,5,6,0:0:0:0:
288,76,75087,1,8,0:0:0:0:
288,76,75254,1,2,0:0:0:0:
168,90,75587,1,0,0:0:0:0:
168,90,75754,2,0,L|85:95,1,60,8|8,0:0|0:0,0:0:0:0:
48,99,76087,5,2,0:0:0:0:
64,218,76421,1,8,0:0:0:0:
64,218,76587,1,2,0:0:0:0:
183,205,76921,2,0,L|267:195,2,60,0|8|0,0:0|0:0|2:0,0:0:0:0:
144,251,77421,5,6,0:0:0:0:
96,361,77754,1,8,0:0:0:0:
96,361,77921,1,2,0:0:0:0:
215,360,78254,2,0,L|289:356,1,60,0|8,0:0|0:0,0:0:0:0:
395,361,78754,6,0,L|401:284,1,60,2|4,0:0|2:0,0:0:0:0:
405,241,79087,1,10,0:0:0:0:
302,177,79421,2,0,L|236:210,2,60,0|2|10,2:0|0:0|0:0,0:0:0:0:
407,119,80087,5,6,0:0:0:0:
490,32,80421,1,8,0:0:0:0:
370,33,80754,2,0,L|226:40,1,120,0|10,2:0|0:0,0:0:0:0:
134,72,81421,6,0,L|137:201,2,120,2|8|0,0:0|0:0|2:0,0:0:0:0:
22,116,82421,1,10,0:0:0:0:
37,234,82754,5,6,0:0:0:0:
37,234,83087,1,8,0:0:0:0:
139,297,83421,1,0,2:0:0:0:
139,297,83754,1,10,0:0:0:0:
243,355,84087,6,0,L|243:209,1,120,2|8,0:0|0:0,0:0:0:0:
245,114,84754,1,0,2:0:0:0:
245,114,85087,1,10,0:0:0:0:
352,167,85421,5,0,2:0:0:0:
49,18,90754,6,0,P|44:134|52:270,1,240,4|8,1:0|1:0,0:0:0:0:
113,359,91754,1,2,0:0:0:0:
226,321,92087,2,0,P|345:313|483:322,1,240,0|8,1:0|1:0,0:0:0:0:
498,204,93087,1,2,0:0:0:0:
395,195,93421,6,0,L|258:184,1,120,4|2,1:0|0:0,0:0:0:0:
155,175,94087,1,8,1:0:0:0:
204,65,94421,1,2,0:0:0:0:
323,73,94754,2,0,L|460:84,2,120,0|2|8,1:0|0:0|1:0,0:0:0:0:
204,65,95754,1,0,1:0:0:0:
92,21,96087,6,0,L|97:159,1,120,4|0,1:0|1:0,0:0:0:0:
198,204,96754,2,0,L|193:342,1,120,8|0,1:0|1:0,0:0:0:0:
78,357,97421,1,0,1:0:0:0:
50,240,97754,1,2,0:0:0:0:
126,147,98087,1,8,1:0:0:0:
50,240,98421,1,2,0:0:0:0:
169,251,98754,6,0,L|299:196,1,120,4|2,1:0|0:0,0:0:0:0:
272,84,99421,2,0,L|161:37,1,120,8|2,1:0|0:0,0:0:0:0:
60,101,100087,2,0,L|62:243,2,120,0|2|8,1:0|0:0|1:0,0:0:0:0:
161,37,101087,1,0,1:0:0:0:
263,100,101421,5,4,1:0:0:0:
263,100,101754,1,2,0:0:0:0:
360,168,102087,2,0,L|352:300,1,120,8|2,1:0|2:0,0:0:0:0:
464,336,102754,2,0,L|476:188,1,120,0|2,1:0|0:0,0:0:0:0:
496,100,103421,1,8,1:0:0:0:
380,124,103754,1,2,0:0:0:0:
272,72,104087,6,0,L|146:9,2,120,4|2|8,1:0|0:0|1:0,0:0:0:0:
380,124,105087,1,2,0:0:0:0:
383,242,105421,2,0,L|383:364,1,120,0|2,1:0|0:0,0:0:0:0:
263,362,106087,2,0,L|263:117,1,240,8|0,1:0|2:0,0:0:0:0:
314,129,109421,5,4,0:0:0:0:
211,66,109754,2,0,L|191:246,1,180,8|0,0:0|0:0,0:0:0:0:
182,304,110421,1,8,0:0:0:0:
75,249,110754,2,0,L|70:65,2,180,0|0|8,0:0|0:0|0:0,0:0:0:0:
82,308,111921,1,0,0:0:0:0:
140,321,112087,6,0,P|213:331|334:368,1,180,4|0,0:0|0:0,0:0:0:0:
434,370,112921,2,0,L|434:301,1,60,0|8,0:0|0:0,0:0:0:0:
430,189,113421,1,0,0:0:0:0:
430,189,113587,2,0,P|376:188|301:183,2,120,4|0|0,2:0|0:0|0:0,0:0:0:0:
488,175,114421,1,8,0:0:0:0:
487,55,114754,5,6,0:0:0:0:
487,55,115087,1,8,0:0:0:0:
366,48,115421,2,0,L|301:48,1,60,0|2,2:0|0:0,0:0:0:0:
245,47,115754,1,8,0:0:0:0:
148,118,116087,5,2,0:0:0:0:
148,118,116421,1,8,0:0:0:0:
150,237,116754,2,0,L|81:196,2,60,0|2|8,2:0|0:0|0:0,0:0:0:0:
200,345,117421,6,0,L|340:346,1,120,6|8,0:0|0:0,0:0:0:0:
394,252,118087,2,0,L|254:253,1,120,0|10,2:0|0:0,0:0:0:0:
348,158,118754,2,0,L|488:159,2,120,2|8|0,0:0|0:0|2:0,0:0:0:0:
227,159,119754,1,10,0:0:0:0:
120,214,120087,6,0,L|103:23,1,180,4|0,0:0|0:0,0:0:0:0:
222,14,120921,2,0,L|220:92,1,60,0|8,0:0|0:0,0:0:0:0:
213,193,121421,2,0,B|185:286|234:280|203:390,2,180,0|0|8,0:0|0:0|0:0,0:0:0:0:
304,115,122754,6,0,P|394:113|489:96,1,180,4|0,0:0|0:0,0:0:0:0:
495,217,123587,2,0,L|494:297,1,60,0|8,0:0|0:0,0:0:0:0:
388,335,124087,1,0,0:0:0:0:
388,335,124254,2,0,L|387:211,2,120,4|0|0,2:0|0:0|0:0,0:0:0:0:
337,368,125087,1,8,0:0:0:0:
238,298,125421,5,6,0:0:0:0:
238,298,125754,1,8,0:0:0:0:
131,352,126087,2,0,L|62:353,1,60,0|2,2:0|0:0,0:0:0:0:
16,326,126421,1,8,0:0:0:0:
27,206,126754,5,2,0:0:0:0:
27,206,127087,1,8,0:0:0:0:
146,195,127421,2,0,L|226:191,2,60,0|2|8,2:0|0:0|0:0,0:0:0:0:
105,82,128087,6,0,L|246:75,1,120,6|8,0:0|0:0,0:0:0:0:
337,34,128754,2,0,L|344:175,1,120,0|10,2:0|0:0,0:0:0:0:
385,266,129421,2,0,L|245:267,2,120,2|8|0,0:0|0:0|2:0,0:0:0:0:
478,342,130421,1,10,0:0:0:0:
509,226,130754,5,4,0:0:0:0:
437,129,131087,2,0,L|310:146,1,120,8|0,1:0|0:0,0:0:0:0:
259,159,131587,1,0,0:0:0:0:
259,159,131754,1,8,0:0:0:0:
146,117,132087,6,0,L|145:251,1,120,4|8,0:0|0:0,0:0:0:0:
61,323,132754,2,0,L|12:266,2,60,0|0|8,0:0|0:0|0:0,0:0:0:0:
175,359,133421,5,4,0:0:0:0:
270,286,133754,2,0,L|277:151,1,120,8|0,0:0|0:0,0:0:0:0:
283,106,134254,1,0,2:0:0:0:
283,106,134421,1,8,0:0:0:0:
184,37,134754,6,0,L|44:37,1,120,4|8,0:0|0:0,0:0:0:0:
15,147,135421,2,0,L|93:148,1,60,0|0,0:0|1:0,0:0:0:0:
135,150,135754,1,8,0:0:0:0:
209,244,136087,5,4,0:0:0:0:
285,336,136421,2,0,L|298:195,1,120,8|0,0:0|0:0,0:0:0:0:
305,157,136921,1,0,1:0:0:0:
305,157,137087,1,8,0:0:0:0:
322,37,137421,6,0,L|461:41,1,120,4|8,0:0|0:0,0:0:0:0:
483,153,138087,2,0,L|409:150,2,60,0|0|8,0:0|1:0|0:0,0:0:0:0:
469,272,138754,5,4,0:0:0:0:
381,354,139087,2,0,L|350:221,1,120,8|0,0:0|0:0,0:0:0:0:
340,178,139587,1,0,1:0:0:0:
340,178,139754,1,8,0:0:0:0:
230,129,140087,6,0,L|238:257,1,120,4|8,0:0|0:0,0:0:0:0:
171,349,140754,2,0,L|160:282,1,60,0|0,0:0|1:0,0:0:0:0:
149,230,141087,1,8,0:0:0:0:
39,167,141421,6,0,L|44:302,1,120,6|8,0:0|0:0,0:0:0:0:
51,346,141921,2,0,L|189:349,1,120,2|0,0:0|0:0,0:0:0:0:
350,353,142754,6,0,L|345:218,1,120,2|8,0:0|0:0,0:0:0:0:
343,173,143254,2,0,L|489:175,1,120,2|0,0:0|0:0,0:0:0:0:
355,30,144087,6,0,L|217:47,1,120,6|8,0:0|0:0,0:0:0:0:
178,62,144587,2,0,L|163:182,1,120,2|0,0:0|0:0,0:0:0:0:
307,288,145421,5,2,0:0:0:0:
307,288,145587,2,0,L|430:299,2,120,4|2|2,2:0|0:0|0:0,0:0:0:0:
246,292,146421,1,8,0:0:0:0:
139,346,146754,5,6,0:0:0:0:
139,346,147087,1,8,0:0:0:0:
44,271,147421,2,0,L|78:205,1,60,0|2,2:0|0:0,0:0:0:0:
102,165,147754,1,8,0:0:0:0:
208,220,148087,5,2,0:0:0:0:
208,220,148421,1,8,0:0:0:0:
314,275,148754,2,0,L|378:263,2,60,0|2|8,2:0|0:0|0:0,0:0:0:0:
324,155,149421,6,0,L|331:14,1,120,6|8,0:0|0:0,0:0:0:0:
228,98,150087,2,0,L|102:162,1,120,0|10,2:0|0:0,0:0:0:0:
122,273,150754,2,0,L|240:349,2,120,2|8|0,0:0|0:0|2:0,0:0:0:0:
26,199,151754,1,10,0:0:0:0:
32,79,152087,5,6,0:0:0:0:
151,89,152421,1,8,0:0:0:0:
151,89,152587,1,2,0:0:0:0:
136,208,152921,1,0,0:0:0:0:
136,208,153087,2,0,L|127:273,1,60,8|8,0:0|0:0,0:0:0:0:
124,327,153421,5,2,0:0:0:0:
242,344,153754,1,8,0:0:0:0:
242,344,153921,1,2,0:0:0:0:
259,225,154254,2,0,L|266:162,2,60,0|8|0,0:0|0:0|2:0,0:0:0:0:
310,256,154754,5,6,0:0:0:0:
426,287,155087,1,8,0:0:0:0:
426,287,155254,1,2,0:0:0:0:
446,168,155587,2,0,L|460:98,1,60,0|8,0:0|0:0,0:0:0:0:
353,49,156087,6,0,L|266:58,1,60,2|4,0:0|2:0,0:0:0:0:
233,64,156421,1,10,0:0:0:0:
166,164,156754,2,0,L|175:251,2,60,0|2|10,2:0|0:0|0:0,0:0:0:0:
145,45,157421,5,6,0:0:0:0:
145,45,157754,1,8,0:0:0:0:
44,111,158087,2,0,L|40:185,1,60,0|2,2:0|0:0,0:0:0:0:
37,230,158421,1,8,0:0:0:0:
35,349,158754,5,2,0:0:0:0:
35,349,159087,1,8,0:0:0:0:
154,345,159421,2,0,L|225:339,2,60,0|2|8,2:0|0:0|0:0,0:0:0:0:
159,223,160087,6,0,L|166:82,1,120,6|8,0:0|0:0,0:0:0:0:
277,61,160754,2,0,L|270:202,1,120,0|10,2:0|0:0,0:0:0:0:
373,244,161421,2,0,L|380:103,2,120,2|8|0,0:0|0:0|2:0,0:0:0:0:
365,363,162421,1,10,0:0:0:0:
268,292,162754,5,6,1:0:0:0:
