osu file format v14

[General]
AudioFilename: audio.mp3
AudioLeadIn: 0
PreviewTime: 64004
Countdown: 1
SampleSet: Normal
StackLeniency: 0.7
Mode: 0
LetterboxInBreaks: 0
WidescreenStoryboard: 1

[Editor]
DistanceSpacing: 1
BeatDivisor: 4
GridSize: 4
TimelineZoom: 2.2

[Metadata]
Title:Like A Man
TitleUnicode:남자답게
Artist:Outsider
ArtistUnicode:Outsider
Creator:IceBeam
Version:Freestyle
Source:Pump It Up 2011 Fiesta EX
Tags:reiji-rj pandahero piu video dance game korean hip-hop soliloquist
BeatmapID:1410776
BeatmapSetID:666566

[Difficulty]
HPDrainRate:7
CircleSize:4
OverallDifficulty:8
ApproachRate:9
SliderMultiplier:1.6
SliderTickRate:1

[Events]
//Background and Video events
0,0,"2b09e677a2e9158bf6bf53a819f38770.jpg",0,0
//Break Periods
2,85621,89321
//Storyboard Layer 0 (Background)
//Storyboard Layer 1 (Fail)
//Storyboard Layer 2 (Pass)
//Storyboard Layer 3 (Foreground)
//Storyboard Sound Samples

[TimingPoints]
88,333.333333333333,4,1,0,35,1,0
88,-133.333333333333,4,2,0,35,0,0
10754,-111.111111111111,4,2,1,40,0,0
16087,-100,4,1,1,45,0,0
21421,-100,4,1,1,55,0,1
26754,-111.111111111111,4,1,1,45,0,0
32087,-100,4,1,1,55,0,1
37421,-111.111111111111,4,1,1,45,0,0
42754,-111.111111111111,4,1,1,45,0,1
42837,-111.111111111111,4,2,1,45,0,0
50754,-66.6666666666667,4,1,1,45,0,0
51421,-111.111111111111,4,2,1,45,0,0
64087,-100,4,1,1,55,0,1
74671,-100,4,1,1,55,0,0
74754,-100,4,1,1,55,0,1
85337,-100,4,1,1,45,0,0
85421,-100,4,1,1,45,0,1
85504,-111.111111111111,4,1,1,35,0,0
90754,-111.111111111111,4,2,1,45,0,0
96087,-100,4,2,1,45,0,0
108921,-200,4,2,1,5,0,0
109421,-111.111111111111,4,1,1,45,0,0
114754,-100,4,1,1,55,0,1
120087,-111.111111111111,4,1,1,45,0,0
125421,-100,4,1,1,55,0,1
130671,-100,4,1,1,45,0,0
130754,-117.647058823529,4,1,1,30,0,1
130837,-117.647058823529,4,1,1,30,0,0
132087,-111.111111111111,4,1,1,35,0,1
132171,-111.111111111111,4,1,1,35,0,0
133421,-105.263157894737,4,1,1,40,0,1
133504,-105.263157894737,4,1,1,40,0,0
134754,-100,4,1,1,45,0,1
134837,-100,4,1,1,45,0,0
136087,-95.2380952380952,4,1,1,50,0,1
136171,-95.2380952380952,4,1,1,50,0,0
137421,-90.9090909090909,4,1,1,55,0,1
137504,-90.9090909090909,4,1,1,55,0,0
138754,-86.9565217391304,4,1,1,60,0,1
138837,-86.9565217391304,4,1,1,60,0,0
140087,-83.3333333333333,4,1,1,65,0,1
140171,-83.3333333333333,4,1,1,65,0,0
141421,-100,4,1,1,55,0,1
152004,-100,4,1,1,55,0,0
152087,-100,4,1,1,55,0,1
162671,-100,4,1,1,55,0,0
162754,-100,4,1,1,55,0,1
162837,-100,4,1,1,55,0,0

[Colours]
Combo1 : 121,13,202
Combo2 : 204,21,77

[HitObjects]
32,128,88,5,2,0:0:0:0:
108,60,254,2,0,L|96:16,2,30.0000011444092
200,104,587,2,0,P|256:96|304:52,1,120.000004577637,2|2,0:0|0:0,0:0:0:0:
416,40,1087,2,0,L|408:108,1,60.0000022888184
380,196,1421,1,2,0:0:0:0:
284,176,1588,1,4,0:0:0:0:
308,272,1754,1,0,0:0:0:0:
212,252,1921,2,0,P|148:260|88:276,1,120.000004577637,2|2,0:0|0:0,0:0:0:0:
100,292,2337,1,0,0:0:0:0:
104,312,2421,1,0,0:0:0:0:
196,356,2587,1,0,0:0:0:0:
284,304,2754,5,2,0:0:0:0:
380,340,2921,1,0,0:0:0:0:
404,344,3004,1,0,0:0:0:0:
428,348,3087,1,0,0:0:0:0:
456,248,3254,2,0,B|476:196|476:196|456:128,1,120.000004577637,2|2,0:0|0:0,0:0:0:0:
340,88,3754,2,0,P|332:64|336:16,2,60.0000022888184,0|0|2,0:0|0:0|0:0,0:0:0:0:
352,200,4254,1,4,0:0:0:0:
356,208,4588,1,2,0:0:0:0:
360,216,4921,1,2,0:0:0:0:
472,184,5088,1,0,0:0:0:0:
448,320,5254,1,0,0:0:0:0:
336,352,5421,5,2,0:0:0:0:
260,280,5587,2,0,L|268:252,2,30.0000011444092
172,340,5921,2,0,P|112:332|76:284,1,120.000004577637,2|2,0:0|0:0,0:0:0:0:
84,180,6421,2,0,L|16:192,1,60.0000022888184
168,248,6754,2,0,L|236:236,1,60.0000022888184,2|4,0:0|0:0,0:0:0:0:
316,304,7088,1,0,0:0:0:0:
400,232,7254,2,0,P|428:184|416:120,1,120.000004577637,2|2,0:0|0:0,0:0:0:0:
300,64,7754,2,0,L|312:144,1,60.0000022888184
224,188,8087,5,2,0:0:0:0:
124,136,8254,1,0,0:0:0:0:
100,140,8337,1,0,0:0:0:0:
76,144,8421,1,0,0:0:0:0:
24,232,8587,2,0,P|36:292|48:356,1,120.000004577637,2|2,0:0|0:0,0:0:0:0:
160,296,9087,1,0,0:0:0:0:
160,296,9254,2,0,L|144:232,1,60.0000022888184,0|2,0:0|0:0,0:0:0:0:
116,144,9588,1,4,0:0:0:0:
224,28,9921,1,2,0:0:0:0:
368,88,10254,1,2,0:0:0:0:
312,176,10421,1,0,0:0:0:0:
320,196,10504,1,0,0:0:0:0:
328,216,10587,1,2,0:0:0:0:
376,344,10754,5,0,1:0:0:0:
232,284,10921,1,0,0:0:0:0:
240,304,11004,1,0,0:0:0:0:
248,324,11087,2,0,P|208:320|176:316,1,71.9999978027344,0|0,1:0|1:0,0:0:0:0:
44,212,11421,1,0,0:0:0:0:
116,144,11587,2,0,P|104:112|108:72,1,71.9999978027344,2|0,0:0|1:0,0:0:0:0:
256,160,11921,1,0,1:0:0:0:
256,180,12004,1,0,0:0:0:0:
252,200,12087,1,2,0:0:0:0:
168,292,12254,1,4,0:0:0:0:
180,308,12337,1,0,0:0:0:0:
188,328,12421,1,0,1:0:0:0:
336,308,12587,1,2,0:0:0:0:
356,300,12671,1,0,0:0:0:0:
376,296,12754,1,0,0:0:0:0:
456,216,12921,1,2,0:0:0:0:
348,188,13087,1,0,1:0:0:0:
376,296,13254,1,0,0:0:0:0:
432,112,13421,5,2,0:0:0:0:
340,56,13587,2,0,L|332:16,2,35.9999989013672,0|0|0,0:0|0:0|1:0,0:0:0:0:
256,120,13921,1,2,0:0:0:0:
160,80,14087,2,0,B|124:80|124:80|92:108,1,71.9999978027344,0|2,0:0|0:0,0:0:0:0:
80,244,14421,2,0,P|120:232|144:204,1,71.9999978027344,0|0,1:0|1:0,0:0:0:0:
160,216,14671,1,0,1:0:0:0:
180,224,14754,1,2,0:0:0:0:
240,332,14921,1,4,0:0:0:0:
260,324,15004,1,0,0:0:0:0:
280,320,15087,1,0,1:0:0:0:
396,256,15254,1,2,0:0:0:0:
392,236,15337,1,0,0:0:0:0:
396,216,15421,1,0,0:0:0:0:
428,112,15587,1,2,0:0:0:0:
344,32,15754,1,0,1:0:0:0:
312,136,15920,1,0,1:0:0:0:
359,331,16087,6,0,L|275:319,1,80,4|0,0:0|2:0,0:0:0:0:
204,188,16421,1,8,0:0:0:0:
212,204,16587,2,0,P|132:220|76:272,1,160
16,180,17087,2,0,B|43:156|43:156|53:113,1,80,8|8,0:0|0:0,0:0:0:0:
152,40,17421,1,0,0:0:0:0:
252,108,17587,2,0,P|304:100|340:96,1,80,4|8,2:0|0:0,0:0:0:0:
464,220,17921,2,0,B|412:184|412:184|304:200,1,160
152,224,18421,1,8,0:0:0:0:
160,248,18504,1,0,0:0:0:0:
168,272,18587,1,0,0:0:0:0:
176,296,18671,1,0,0:0:0:0:
184,320,18754,6,0,P|232:304|252:272,1,80,4|0,0:0|2:0,0:0:0:0:
132,168,19087,1,8,0:0:0:0:
144,184,19254,2,0,P|64:200|16:260,1,160
112,328,19754,1,8,0:0:0:0:
208,272,19921,1,0,0:0:0:0:
228,280,20004,1,0,0:0:0:0:
248,292,20087,1,0,0:0:0:0:
368,328,20254,1,4,2:0:0:0:
404,208,20421,1,8,0:0:0:0:
284,172,20587,1,0,0:0:0:0:
360,348,20754,2,0,P|408:336|444:328,1,80,0|0,2:0|0:0,0:0:0:0:
260,144,21087,2,0,P|212:156|176:164,1,80,8|8,0:0|0:0,0:0:0:0:
72,120,21421,6,0,P|64:200|116:264,1,160,6|8,0:0|0:0,0:0:0:0:
444,312,21921,2,0,B|392:280|392:280|284:304,1,160,2|0,0:0|0:0,0:0:0:0:
284,320,22337,1,0,2:0:0:0:
276,336,22421,2,0,L|256:232,1,80,8|8,0:0|0:0,0:0:0:0:
236,148,22754,1,2,0:0:0:0:
124,212,22921,2,0,L|104:108,1,80,4|8,2:0|0:0,0:0:0:0:
280,48,23254,2,0,B|364:40|364:40|444:88,1,160,2|0,0:0|0:0,0:0:0:0:
420,100,23671,1,0,2:0:0:0:
412,120,23754,2,0,P|456:112|484:84,1,80,8|0,0:0|2:0,0:0:0:0:
416,248,24087,6,0,P|336:260|284:320,1,160,6|8,0:0|0:0,0:0:0:0:
76,196,24587,2,0,B|40:144|40:144|56:40,1,160,2|0,0:0|0:0,0:0:0:0:
200,32,25087,2,0,L|184:116,1,80,8|0,0:0|0:0,0:0:0:0:
192,136,25338,1,0,0:0:0:0:
200,160,25421,5,2,0:0:0:0:
160,308,25588,1,4,2:0:0:0:
308,348,25754,1,8,0:0:0:0:
348,200,25921,1,2,0:0:0:0:
200,160,26088,1,0,2:0:0:0:
208,184,26171,1,0,2:0:0:0:
216,208,26254,5,2,0:0:0:0:
400,296,26421,1,10,0:0:0:0:
488,112,26587,1,8,0:0:0:0:
304,24,26754,5,4,0:0:0:0:
208,72,26921,2,0,P|172:68|120:84,1,71.9999978027344,0|8,2:0|0:0,0:0:0:0:
264,160,27254,2,0,P|336:164|412:140,1,143.999995605469
404,143,27754,1,8,0:0:0:0:
456,272,27921,2,0,L|448:348,1,71.9999978027344,8|0,0:0|0:0,0:0:0:0:
324,300,28254,2,0,L|312:224,1,71.9999978027344,4|8,2:0|0:0,0:0:0:0:
328,128,28587,2,0,B|280:120|280:120|240:132|240:132|184:120,1,143.999995605469
160,24,29088,1,8,0:0:0:0:
56,44,29254,1,0,2:0:0:0:
36,200,29421,5,4,0:0:0:0:
140,180,29587,1,0,2:0:0:0:
108,276,29754,1,8,0:0:0:0:
212,256,29921,2,0,P|288:248|344:196,1,143.999995605469
368,92,30421,2,0,L|448:116,1,71.9999978027344,8|0,0:0|0:0,0:0:0:0:
444,140,30671,1,0,0:0:0:0:
452,168,30754,1,0,0:0:0:0:
472,264,30921,1,4,2:0:0:0:
392,324,31088,1,8,0:0:0:0:
296,304,31254,2,0,P|224:312|148:328,1,143.999995605469
36,248,31754,2,0,P|76:240|124:228,1,71.9999978027344,8|8,0:0|0:0,0:0:0:0:
268,120,32087,6,0,B|224:96|224:96|112:120,1,160,6|8,0:0|0:0,0:0:0:0:
320,316,32587,2,0,P|404:316|464:272,1,160,2|0,0:0|0:0,0:0:0:0:
472,288,33004,1,0,2:0:0:0:
484,300,33087,2,0,L|468:216,1,80,8|8,0:0|0:0,0:0:0:0:
444,120,33421,1,2,0:0:0:0:
328,232,33587,2,0,L|312:148,1,80,4|8,2:0|0:0,0:0:0:0:
288,52,33921,2,0,P|216:60|136:12,1,160,2|0,0:0|0:0,0:0:0:0:
36,120,34421,2,0,B|76:124|76:124|112:160,1,80,8|0,0:0|2:0,0:0:0:0:
124,304,34754,6,0,P|76:300|44:272,2,80,6|0|8,0:0|2:0|0:0,0:0:0:0:
300,136,35254,2,0,B|360:116|360:116|464:144,1,160,2|0,0:0|0:0,0:0:0:0:
464,256,35754,2,8,L|384:236,1,80
380,256,36004,1,0,0:0:0:0:
376,276,36087,5,2,0:0:0:0:
268,320,36254,1,4,2:0:0:0:
76,280,36421,5,8,0:0:0:0:
184,236,36588,1,2,0:0:0:0:
296,40,36754,1,0,2:0:0:0:
304,68,36837,1,0,2:0:0:0:
312,96,36921,5,2,0:0:0:0:
288,228,37088,1,10,0:0:0:0:
416,176,37254,1,8,0:0:0:0:
312,96,37421,5,4,0:0:0:0:
200,144,37587,2,0,P|156:152|124:160,1,71.9999978027344,0|8,2:0|0:0,0:0:0:0:
76,296,37921,2,0,B|108:252|108:252|196:236,1,143.999995605469
196,235,38421,1,8,0:0:0:0:
280,312,38587,2,0,P|312:300|336:264,1,71.9999978027344,8|0,0:0|0:0,0:0:0:0:
396,104,38921,2,0,P|364:116|340:152,1,71.9999978027344,4|8,2:0|0:0,0:0:0:0:
236,140,39254,2,0,B|184:128|184:128|148:140|148:140|84:128,1,143.999995605469
40,208,39754,1,8,0:0:0:0:
64,296,39921,1,0,2:0:0:0:
216,348,40087,5,4,0:0:0:0:
192,260,40254,1,0,2:0:0:0:
308,280,40421,1,8,0:0:0:0:
284,192,40587,2,0,P|336:172|380:88,1,143.999995605469
379,98,41087,1,8,0:0:0:0:
448,208,41254,1,0,0:0:0:0:
456,228,41337,1,0,0:0:0:0:
464,248,41421,2,0,P|416:268|396:304,1,71.9999978027344,0|4,0:0|2:0,0:0:0:0:
296,304,41754,1,8,0:0:0:0:
300,200,41921,2,0,P|220:180|152:168,1,143.999995605469
64,108,42421,1,8,0:0:0:0:
52,216,42587,1,8,0:0:0:0:
60,240,42671,1,0,1:0:0:0:
68,264,42754,5,4,0:0:0:0:
192,216,42921,1,0,0:0:0:0:
184,239,43005,1,0,0:0:0:0:
177,264,43088,1,2,0:0:0:0:
252,340,43254,1,0,0:0:0:0:
340,296,43421,1,8,1:0:0:0:
364,300,43504,1,0,0:0:0:0:
388,304,43587,1,0,0:0:0:0:
412,308,43671,1,0,0:0:0:0:
432,276,43754,1,2,0:0:0:0:
456,272,43837,1,0,0:0:0:0:
480,268,43921,1,0,0:0:0:0:
464,172,44087,5,0,1:0:0:0:
328,36,44254,1,4,0:0:0:0:
312,132,44420,1,2,0:0:0:0:
176,120,44587,2,0,L|136:112,1,35.9999989013672,0|0,1:0|0:0,0:0:0:0:
188,152,44754,2,0,L|136:140,1,35.9999989013672,8|0,1:0|0:0,0:0:0:0:
200,184,44921,1,0,0:0:0:0:
232,280,45087,1,2,0:0:0:0:
64,236,45254,1,0,0:0:0:0:
32,140,45420,5,4,1:0:0:0:
116,36,45587,1,0,0:0:0:0:
124,56,45671,1,0,0:0:0:0:
132,76,45754,1,2,0:0:0:0:
280,120,45921,1,0,0:0:0:0:
300,112,46004,1,0,0:0:0:0:
320,104,46087,1,8,1:0:0:0:
340,96,46171,1,0,0:0:0:0:
356,64,46254,1,0,1:0:0:0:
376,68,46337,1,0,0:0:0:0:
396,72,46421,1,2,0:0:0:0:
488,124,46587,1,0,0:0:0:0:
332,280,46754,6,0,P|328:320|348:356,1,71.9999978027344,0|4,1:0|0:0,0:0:0:0:
472,276,47087,2,0,B|484:244|484:244|472:208,1,71.9999978027344,2|0,0:0|1:0,0:0:0:0:
432,180,47337,1,0,0:0:0:0:
404,184,47421,1,8,1:0:0:0:
376,188,47504,1,0,0:0:0:0:
348,192,47587,1,0,0:0:0:0:
228,168,47754,1,2,0:0:0:0:
256,280,47921,1,0,0:0:0:0:
348,192,48087,5,4,1:0:0:0:
312,76,48254,1,0,0:0:0:0:
228,168,48421,1,2,0:0:0:0:
372,320,48587,2,0,P|424:312|452:308,1,71.9999978027344,0|8,0:0|1:0,0:0:0:0:
488,144,48921,1,0,0:0:0:0:
480,164,49004,1,0,0:0:0:0:
472,184,49087,2,0,P|420:192|392:196,1,71.9999978027344,2|0,0:0|0:0,0:0:0:0:
160,308,49421,2,0,P|128:296|96:260,1,71.9999978027344,0|4,1:0|0:0,0:0:0:0:
100,120,49754,2,0,B|140:128|140:128|168:156,1,71.9999978027344,2|0,0:0|0:0,0:0:0:0:
304,252,50087,1,8,1:0:0:0:
300,232,50171,1,0,0:0:0:0:
296,212,50254,1,0,0:0:0:0:
292,196,50337,1,0,0:0:0:0:
288,176,50421,1,2,0:0:0:0:
400,124,50587,1,0,0:0:0:0:
392,288,50754,6,0,P|316:340|236:320,1,180.000006866455,4|0,0:0|2:0,0:0:0:0:
168,236,51087,6,0,B|132:176|132:176|156:68,1,180.000006866455,0|0,2:0|2:0,0:0:0:0:
164,40,51421,5,8,1:0:0:0:
264,60,51587,1,0,1:0:0:0:
320,180,51754,1,2,0:0:0:0:
220,160,51920,1,0,0:0:0:0:
148,304,52087,6,0,L|132:248,2,47.9999985351563,0|0|0,1:0|0:0|0:0,0:0:0:0:
328,204,52421,2,0,L|312:260,2,47.9999985351563,2|0|0,0:0|0:0|0:0,0:0:0:0:
148,52,52754,5,8,1:0:0:0:
168,148,52921,1,0,0:0:0:0:
440,264,53087,5,2,0:0:0:0:
464,136,53254,1,0,0:0:0:0:
296,112,53421,6,0,P|284:76|288:36,1,71.9999978027344,4|0,1:0|0:0,0:0:0:0:
440,120,53754,2,0,B|448:156|448:156|432:192,1,71.9999978027344,2|0,0:0|0:0,0:0:0:0:
312,240,54087,5,8,1:0:0:0:
336,340,54254,1,0,0:0:0:0:
172,192,54421,5,2,0:0:0:0:
196,292,54588,1,0,0:0:0:0:
148,172,54754,6,0,L|68:184,1,71.9999978027344,0|4,1:0|0:0,0:0:0:0:
188,48,55087,2,0,L|272:60,1,71.9999978027344,2|0,0:0|1:0,0:0:0:0:
444,204,55421,2,0,P|452:168|440:132,1,71.9999978027344,8|0,1:0|0:0,0:0:0:0:
304,208,55754,2,0,P|300:264|328:312,1,107.999996704102,2|0,0:0|0:0,0:0:0:0:
336,328,56087,5,4,1:0:0:0:
196,308,56254,1,0,0:0:0:0:
196,308,56337,1,0,0:0:0:0:
196,308,56421,2,0,B|156:312|156:312|132:336,1,71.9999978027344,2|0,0:0|0:0,0:0:0:0:
176,184,56754,2,0,B|216:180|216:180|240:156,1,71.9999978027344,8|0,1:0|1:0,0:0:0:0:
356,84,57087,1,2,0:0:0:0:
460,100,57254,1,0,0:0:0:0:
360,272,57421,5,0,1:0:0:0:
256,256,57587,1,4,0:0:0:0:
212,160,57754,1,2,0:0:0:0:
316,176,57920,1,0,1:0:0:0:
472,120,58087,2,0,P|464:80|456:48,1,71.9999978027344,8|0,1:0|0:0,0:0:0:0:
256,28,58421,2,0,P|264:68|272:100,1,71.9999978027344,2|0,0:0|0:0,0:0:0:0:
280,120,58754,6,0,B|248:100|248:100|200:104,1,71.9999978027344,4|0,1:0|0:0,0:0:0:0:
300,244,59087,2,0,P|344:240|376:208,1,71.9999978027344,2|0,0:0|0:0,0:0:0:0:
396,124,59421,5,8,1:0:0:0:
224,192,59587,1,0,0:0:0:0:
368,312,59754,1,2,0:0:0:0:
332,208,59921,5,0,0:0:0:0:
224,192,60087,1,0,1:0:0:0:
136,256,60254,1,4,0:0:0:0:
84,112,60421,6,0,P|60:96|36:56,1,71.9999978027344,2|0,0:0|1:0,0:0:0:0:
204,40,60754,2,0,P|228:56|252:96,1,71.9999978027344,8|0,1:0|0:0,0:0:0:0:
312,208,61087,2,0,B|364:196|364:196|404:144,1,107.999996704102,2|0,0:0|0:0,0:0:0:0:
428,160,61421,6,0,L|416:84,1,71.9999978027344,4|0,1:0|0:0,0:0:0:0:
388,60,61671,1,0,0:0:0:0:
396,36,61754,1,2,0:0:0:0:
288,24,61921,1,0,0:0:0:0:
224,108,62087,1,8,1:0:0:0:
288,192,62254,1,0,1:0:0:0:
284,216,62337,1,0,0:0:0:0:
280,240,62421,1,2,0:0:0:0:
452,340,62587,1,0,0:0:0:0:
448,316,62670,1,0,0:0:0:0:
444,292,62754,6,0,P|480:268|488:232,1,71.9999978027344,0|4,1:0|0:0,0:0:0:0:
412,68,63087,2,0,B|376:84|376:84|356:116,1,71.9999978027344,2|0,0:0|1:0,0:0:0:0:
272,64,63421,1,8,1:0:0:0:
164,88,63587,1,0,1:0:0:0:
132,184,63754,1,0,1:0:0:0:
140,212,63837,1,0,1:0:0:0:
184,228,63921,1,0,1:0:0:0:
192,256,64004,1,0,1:0:0:0:
232,280,64087,6,0,B|288:252|288:252|388:280,1,160,6|8,0:0|0:0,0:0:0:0:
476,124,64587,2,0,P|396:92|380:20,1,160,2|0,0:0|0:0,0:0:0:0:
356,32,65004,1,0,2:0:0:0:
334,38,65087,2,0,L|252:24,1,80,8|8,0:0|0:0,0:0:0:0:
68,208,65421,2,0,L|150:194,1,80,2|4,0:0|2:0,0:0:0:0:
264,236,65754,1,8,0:0:0:0:
324,132,65921,2,0,B|384:108|384:108|496:144,1,160,2|0,0:0|0:0,0:0:0:0:
472,164,66337,1,0,2:0:0:0:
468,192,66421,1,8,0:0:0:0:
484,296,66587,1,0,2:0:0:0:
240,264,66754,6,0,L|72:292,1,160,6|8,0:0|0:0,0:0:0:0:
176,88,67254,2,0,L|344:60,1,160,2|0,0:0|0:0,0:0:0:0:
432,120,67754,1,8,0:0:0:0:
364,208,67921,1,0,0:0:0:0:
356,232,68004,1,0,0:0:0:0:
348,256,68087,2,0,B|388:244|388:244|428:252,1,80,2|4,0:0|2:0,0:0:0:0:
220,320,68421,2,0,P|176:316|144:296,1,80,8|2,0:0|0:0,0:0:0:0:
172,64,68754,1,0,2:0:0:0:
180,96,68837,1,0,2:0:0:0:
188,128,68921,1,2,0:0:0:0:
320,88,69087,1,10,0:0:0:0:
360,220,69254,1,8,0:0:0:0:
228,260,69421,6,0,L|140:244,1,80,6|0,0:0|2:0,0:0:0:0:
128,240,69671,1,0,2:0:0:0:
108,236,69754,1,8,0:0:0:0:
36,132,69921,1,2,0:0:0:0:
140,56,70087,2,0,P|192:40|224:24,1,80,0|2,2:0|0:0,0:0:0:0:
408,80,70421,2,0,P|356:96|324:112,1,80,8|8,0:0|0:0,0:0:0:0:
252,184,70754,1,2,0:0:0:0:
328,260,70921,1,4,2:0:0:0:
324,284,71004,1,0,2:0:0:0:
328,308,71087,1,8,0:0:0:0:
464,232,71254,1,2,0:0:0:0:
468,208,71337,1,0,2:0:0:0:
464,184,71420,5,0,2:0:0:0:
348,160,71587,1,2,0:0:0:0:
220,36,71754,5,8,0:0:0:0:
336,60,71921,1,0,2:0:0:0:
180,128,72087,5,6,0:0:0:0:
64,104,72254,1,0,2:0:0:0:
68,128,72337,1,0,2:0:0:0:
72,152,72421,1,8,0:0:0:0:
156,228,72587,1,2,0:0:0:0:
100,320,72754,2,0,P|56:324|24:352,2,80,0|2|8,2:0|0:0|0:0,0:0:0:0:
332,324,73254,1,0,0:0:0:0:
352,336,73337,1,0,0:0:0:0:
372,348,73421,2,0,L|360:268,1,80,2|4,0:0|2:0,0:0:0:0:
444,96,73754,1,8,0:0:0:0:
440,120,73837,1,0,2:0:0:0:
436,144,73921,1,2,0:0:0:0:
344,104,74087,1,0,2:0:0:0:
256,152,74254,1,2,0:0:0:0:
296,244,74421,2,0,B|304:284|304:284|284:320,1,80,10|8,0:0|0:0,0:0:0:0:
60,268,74754,6,0,P|36:196|56:116,1,160,6|8,0:0|0:0,0:0:0:0:
292,60,75254,2,0,B|376:52|376:52|456:100,1,160,2|0,0:0|0:0,0:0:0:0:
444,120,75671,1,0,2:0:0:0:
448,148,75754,1,8,0:0:0:0:
476,268,75921,1,8,0:0:0:0:
352,228,76087,1,2,0:0:0:0:
324,108,76254,2,0,P|336:72|320:24,1,80,4|8,2:0|0:0,0:0:0:0:
120,132,76587,2,0,P|112:216|160:280,1,160,2|0,0:0|0:0,0:0:0:0:
148,296,77004,1,0,2:0:0:0:
144,316,77087,2,0,L|236:304,1,80,8|0,0:0|2:0,0:0:0:0:
456,232,77421,6,0,B|408:192|408:192|292:208,1,160,6|8,0:0|0:0,0:0:0:0:
52,104,77921,2,0,L|224:80,1,160,2|0,0:0|0:0,0:0:0:0:
308,32,78421,1,8,0:0:0:0:
408,64,78587,1,0,0:0:0:0:
416,88,78671,1,0,0:0:0:0:
424,112,78754,5,2,0:0:0:0:
412,216,78921,1,4,2:0:0:0:
272,316,79087,5,8,0:0:0:0:
284,212,79254,1,2,0:0:0:0:
136,44,79421,1,0,2:0:0:0:
144,68,79505,1,0,2:0:0:0:
152,92,79588,5,2,0:0:0:0:
112,260,79754,1,10,0:0:0:0:
284,212,79921,1,8,0:0:0:0:
332,40,80087,5,6,0:0:0:0:
420,104,80254,1,0,2:0:0:0:
416,124,80337,1,0,2:0:0:0:
412,144,80421,1,8,0:0:0:0:
284,212,80587,1,2,0:0:0:0:
412,284,80754,1,0,2:0:0:0:
412,144,80921,1,2,0:0:0:0:
284,72,81087,2,0,P|240:64|188:56,1,80,8|8,0:0|0:0,0:0:0:0:
68,168,81421,2,0,P|112:176|164:184,1,80,2|4,0:0|2:0,0:0:0:0:
152,204,81671,1,0,2:0:0:0:
160,224,81754,1,8,0:0:0:0:
288,312,81921,1,2,0:0:0:0:
288,312,82004,1,0,2:0:0:0:
288,312,82087,2,0,P|328:296|348:264,1,80,0|2,2:0|0:0,0:0:0:0:
424,88,82421,2,0,B|384:96|384:96|356:128,1,80,8|0,0:0|0:0,0:0:0:0:
196,228,82754,5,6,0:0:0:0:
164,120,82921,1,0,2:0:0:0:
172,100,83004,1,0,2:0:0:0:
180,80,83087,5,8,0:0:0:0:
296,36,83254,1,2,0:0:0:0:
476,120,83421,5,0,2:0:0:0:
360,164,83588,1,2,0:0:0:0:
204,340,83754,5,8,0:0:0:0:
320,296,83921,1,0,0:0:0:0:
336,312,84004,1,0,0:0:0:0:
352,328,84087,6,0,P|392:312|432:296,1,80,2|0,0:0|2:0,0:0:0:0:
376,192,84421,1,8,0:0:0:0:
384,168,84504,1,0,2:0:0:0:
392,144,84587,1,2,0:0:0:0:
320,48,84754,1,0,2:0:0:0:
204,92,84921,1,2,0:0:0:0:
208,212,85087,1,10,0:0:0:0:
328,244,85254,1,8,0:0:0:0:
292,148,85421,5,0,2:0:0:0:
28,264,89921,5,0,0:0:0:0:
108,240,90087,1,0,0:0:0:0:
96,328,90254,1,0,0:0:0:0:
176,304,90420,1,0,0:0:0:0:
200,308,90504,1,0,0:0:0:0:
224,312,90587,1,0,0:0:0:0:
248,316,90671,1,0,0:0:0:0:
272,320,90754,5,4,1:0:0:0:
376,352,90921,1,0,0:0:0:0:
436,272,91087,2,0,P|476:256|500:224,1,71.9999978027344,2|0,0:0|0:0,0:0:0:0:
352,196,91421,2,0,B|300:196|300:196|252:232,1,107.999996704102,8|0,1:0|0:0,0:0:0:0:
255,229,91754,2,0,L|176:216,1,71.9999978027344,2|0,0:0|0:0,0:0:0:0:
140,92,92087,6,0,L|219:105,1,71.9999978027344,0|4,1:0|0:0,0:0:0:0:
332,100,92421,2,0,B|316:68|316:68|324:24,1,71.9999978027344,2|0,0:0|1:0,0:0:0:0:
476,128,92754,2,0,P|480:180|448:232,1,107.999996704102,8|0,1:0|0:0,0:0:0:0:
453,227,93087,2,0,L|360:212,1,71.9999978027344,2|0,0:0|0:0,0:0:0:0:
336,348,93421,5,4,1:0:0:0:
308,256,93587,1,0,0:0:0:0:
200,352,93754,5,2,0:0:0:0:
217,258,93920,1,0,0:0:0:0:
76,312,94087,5,8,1:0:0:0:
135,233,94253,1,0,1:0:0:0:
0,212,94421,5,2,0:0:0:0:
83,163,94587,1,0,0:0:0:0:
224,88,94754,6,0,L|208:12,1,71.9999978027344,0|4,1:0|0:0,0:0:0:0:
364,84,95087,2,0,L|348:160,1,71.9999978027344,2|0,0:0|1:0,0:0:0:0:
252,196,95421,1,8,1:0:0:0:
328,260,95587,1,0,1:0:0:0:
424,212,95754,1,0,1:0:0:0:
432,236,95837,1,0,1:0:0:0:
440,260,95921,1,0,1:0:0:0:
448,284,96004,1,0,1:0:0:0:
456,308,96087,6,0,L|448:364,2,53.3333333333333,4|0|0,1:0|0:0|0:0,0:0:0:0:
308,284,96421,2,0,L|300:228,2,53.3333333333333,0|0|0,1:0|0:0|0:0,0:0:0:0:
120,288,96754,2,0,L|170:305,2,53.3333333333333,8|0|0,1:0|0:0|0:0,0:0:0:0:
192,144,97087,2,0,L|128:164,2,53.3333333333333,0|0|0,1:0|0:0|0:0,0:0:0:0:
281,74,97421,5,0,1:0:0:0:
295,108,97532,1,0,0:0:0:0:
309,143,97643,1,0,0:0:0:0:
392,196,97754,1,2,0:0:0:0:
376,230,97865,1,0,0:0:0:0:
359,263,97976,1,0,0:0:0:0:
340,352,98087,2,0,L|288:340,2,53.3333333333333,8|0|0,1:0|0:0|0:0,0:0:0:0:
148,296,98421,2,0,L|204:280,2,53.3333333333333,2|0|0,0:0|0:0|0:0,0:0:0:0:
72,216,98754,5,4,1:0:0:0:
80,120,98921,1,0,0:0:0:0:
184,164,99087,1,2,0:0:0:0:
192,68,99254,1,0,0:0:0:0:
320,112,99421,2,0,L|400:92,1,80,8|0,1:0|1:0,0:0:0:0:
488,192,99754,2,0,L|408:212,1,80,2|0,0:0|0:0,0:0:0:0:
408,236,100004,1,0,0:0:0:0:
404,260,100087,5,0,1:0:0:0:
312,232,100254,1,4,0:0:0:0:
216,256,100421,1,2,0:0:0:0:
180,348,100587,1,0,1:0:0:0:
156,340,100671,1,0,0:0:0:0:
132,332,100754,1,8,1:0:0:0:
60,240,100921,1,0,1:0:0:0:
128,64,101087,1,0,1:0:0:0:
132,88,101171,1,0,1:0:0:0:
136,112,101254,1,0,1:0:0:0:
140,136,101337,1,0,1:0:0:0:
144,160,101421,6,0,L|196:144,2,53.3333333333333,4|0|0,1:0|0:0|0:0,0:0:0:0:
320,272,101754,2,0,L|248:256,2,53.3333333333333,2|0|0,0:0|0:0|0:0,0:0:0:0:
436,232,102087,1,8,1:0:0:0:
423,191,102199,1,0,0:0:0:0:
413,152,102310,1,0,0:0:0:0:
332,84,102421,1,0,1:0:0:0:
293,97,102533,1,0,0:0:0:0:
254,109,102644,1,0,0:0:0:0:
168,168,102754,6,0,L|112:156,2,53.3333333333333,0|0|0,1:0|0:0|0:0,0:0:0:0:
232,288,103087,2,0,L|308:264,2,53.3333333333333,2|0|0,0:0|0:0|0:0,0:0:0:0:
424,240,103421,2,0,L|416:304,2,53.3333333333333,8|0|0,1:0|0:0|0:0,0:0:0:0:
324,136,103754,2,0,L|316:80,2,53.3333333333333,2|0|0,0:0|0:0|0:0,0:0:0:0:
228,208,104087,5,4,1:0:0:0:
216,120,104254,1,0,0:0:0:0:
64,84,104421,5,2,0:0:0:0:
76,172,104588,1,0,0:0:0:0:
96,296,104754,6,0,P|56:300|16:328,1,80,8|0,1:0|1:0,0:0:0:0:
228,336,105087,2,0,P|268:332|308:304,1,80,2|0,0:0|0:0,0:0:0:0:
320,324,105337,1,0,0:0:0:0:
340,336,105421,5,0,1:0:0:0:
448,248,105587,1,4,0:0:0:0:
316,208,105754,1,2,0:0:0:0:
448,248,105921,1,0,1:0:0:0:
452,220,106004,1,0,0:0:0:0:
456,192,106087,1,8,1:0:0:0:
376,84,106254,1,0,1:0:0:0:
240,108,106421,1,0,1:0:0:0:
208,100,106504,1,0,1:0:0:0:
176,92,106587,1,0,1:0:0:0:
144,84,106671,1,0,1:0:0:0:
112,76,106754,5,0,2:0:0:0:
64,304,108921,6,0,P|104:292|144:252,1,100
144,251,109421,6,0,L|216:260,1,71.9999978027344,4|0,0:0|2:0,0:0:0:0:
304,316,109754,1,8,0:0:0:0:
392,256,109921,2,0,P|424:200|408:116,1,143.999995605469
412,123,110421,1,8,0:0:0:0:
276,40,110587,2,0,L|296:112,1,71.9999978027344,8|0,0:0|0:0,0:0:0:0:
212,228,110921,2,0,L|192:156,1,71.9999978027344,4|8,2:0|0:0,0:0:0:0:
44,60,111254,2,0,B|92:36|92:36|188:60,1,143.999995605469
280,92,111754,2,0,P|316:68|328:40,1,71.9999978027344,8|0,0:0|0:0,0:0:0:0:
480,40,112087,6,0,P|444:64|432:92,1,71.9999978027344,4|0,0:0|2:0,0:0:0:0:
480,180,112421,1,8,0:0:0:0:
384,228,112587,2,0,B|340:200|340:200|232:224,1,143.999995605469
250,219,113087,1,8,0:0:0:0:
188,312,113254,1,0,0:0:0:0:
184,328,113337,1,0,0:0:0:0:
180,344,113421,2,0,L|260:324,1,71.9999978027344,0|4,0:0|2:0,0:0:0:0:
356,352,113754,1,8,0:0:0:0:
436,280,113921,2,0,P|456:216|432:144,1,143.999995605469
328,100,114421,2,0,B|300:76|300:76|288:32,1,71.9999978027344,8|8,0:0|0:0,0:0:0:0:
48,112,114754,5,6,0:0:0:0:
152,164,114920,1,0,2:0:0:0:
148,184,115004,1,0,2:0:0:0:
144,204,115087,1,8,0:0:0:0:
284,172,115254,1,2,0:0:0:0:
184,68,115420,1,0,2:0:0:0:
144,204,115587,1,2,0:0:0:0:
244,292,115754,2,0,L|328:272,1,80,8|8,0:0|0:0,0:0:0:0:
348,40,116087,2,0,L|264:60,1,80,2|4,0:0|2:0,0:0:0:0:
248,52,116337,1,0,2:0:0:0:
226,44,116421,1,8,0:0:0:0:
96,128,116587,1,2,0:0:0:0:
104,148,116671,1,0,2:0:0:0:
112,168,116754,5,0,2:0:0:0:
84,284,116921,1,2,0:0:0:0:
256,216,117087,5,8,0:0:0:0:
284,100,117254,1,0,2:0:0:0:
76,196,117421,5,6,0:0:0:0:
48,312,117588,1,0,2:0:0:0:
56,332,117671,1,0,2:0:0:0:
64,352,117754,2,0,L|144:332,1,80,8|2,0:0|0:0,0:0:0:0:
344,340,118087,1,0,2:0:0:0:
96,224,118254,2,0,L|176:204,1,80,2|8,0:0|0:0,0:0:0:0:
244,92,118587,1,0,0:0:0:0:
256,108,118671,1,0,0:0:0:0:
268,124,118754,1,2,0:0:0:0:
372,184,118921,1,4,2:0:0:0:
368,72,119087,1,8,0:0:0:0:
368,72,119171,1,0,2:0:0:0:
368,72,119254,5,2,0:0:0:0:
264,232,119421,1,0,2:0:0:0:
468,252,119587,1,2,0:0:0:0:
372,184,119754,1,10,0:0:0:0:
356,300,119921,1,8,0:0:0:0:
476,136,120087,6,0,L|492:56,2,71.9999978027344,4|0|8,0:0|2:0|0:0,0:0:0:0:
364,156,120587,2,0,B|312:144|312:144|272:156|272:156|200:140,1,143.999995605469
224,145,121087,1,8,0:0:0:0:
172,228,121253,1,8,0:0:0:0:
80,252,121420,1,0,0:0:0:0:
156,344,121587,1,4,2:0:0:0:
248,320,121754,1,0,0:0:0:0:
304,216,121921,2,0,B|348:192|348:192|448:212,1,143.999995605469
460,320,122421,2,0,L|388:304,1,71.9999978027344,8|0,0:0|2:0,0:0:0:0:
220,300,122754,6,0,P|180:316|160:344,2,71.9999978027344,4|0|8,0:0|2:0|0:0,0:0:0:0:
184,204,123254,2,0,P|232:156|228:84,1,143.999995605469
320,24,123754,1,8,0:0:0:0:
424,56,123921,1,0,0:0:0:0:
420,76,124003,1,0,0:0:0:0:
416,96,124087,2,0,L|496:84,1,71.9999978027344,0|4,0:0|2:0,0:0:0:0:
448,204,124421,1,8,0:0:0:0:
336,172,124587,2,0,P|272:152|240:84,1,143.999995605469
136,160,125087,2,0,P|96:164|68:184,1,71.9999978027344,8|8,0:0|0:0,0:0:0:0:
216,292,125421,6,0,P|264:288|300:256,1,80,6|0,0:0|2:0,0:0:0:0:
308,280,125671,1,0,2:0:0:0:
328,288,125754,1,8,0:0:0:0:
444,260,125921,1,2,0:0:0:0:
472,124,126087,1,0,2:0:0:0:
356,152,126254,1,2,0:0:0:0:
200,64,126421,2,0,L|116:80,1,80,8|8,0:0|0:0,0:0:0:0:
80,216,126754,2,0,L|164:200,1,80,2|4,0:0|2:0,0:0:0:0:
176,216,127004,1,0,2:0:0:0:
192,232,127088,1,8,0:0:0:0:
264,332,127254,1,2,0:0:0:0:
264,332,127337,1,0,2:0:0:0:
264,332,127421,2,0,P|304:328|336:300,1,80,0|2,2:0|0:0,0:0:0:0:
432,120,127754,2,0,P|392:124|360:152,1,80,8|0,0:0|2:0,0:0:0:0:
244,260,128088,5,6,0:0:0:0:
184,156,128254,1,0,2:0:0:0:
160,160,128338,1,0,2:0:0:0:
136,164,128421,5,8,0:0:0:0:
56,252,128587,1,2,0:0:0:0:
244,260,128754,5,0,2:0:0:0:
324,172,128920,1,2,0:0:0:0:
121,50,129087,5,8,0:0:0:0:
41,138,129253,1,0,0:0:0:0:
49,158,129338,1,0,0:0:0:0:
57,178,129421,2,0,L|141:162,1,80,2|4,0:0|2:0,0:0:0:0:
252,212,129754,1,8,0:0:0:0:
248,236,129838,1,0,2:0:0:0:
244,260,129921,1,2,0:0:0:0:
104,300,130087,1,0,2:0:0:0:
135,163,130254,1,2,0:0:0:0:
240,92,130421,1,10,0:0:0:0:
252,212,130587,1,8,0:0:0:0:
135,163,130754,6,0,L|64:148,1,68.0000012969971,4|0,0:0|0:0,0:0:0:0:
264,52,131087,2,0,L|336:40,1,68.0000012969971,8|0,1:0|2:0,0:0:0:0:
351,44,131337,1,0,2:0:0:0:
372,48,131421,1,0,0:0:0:0:
408,148,131587,1,0,0:0:0:0:
284,140,131754,1,8,0:0:0:0:
320,240,131920,1,8,0:0:0:0:
108,180,132087,6,0,P|64:188|36:224,1,71.9999978027344,4|0,0:0|0:0,0:0:0:0:
320,320,132421,2,0,P|364:312|392:276,1,71.9999978027344,8|0,0:0|2:0,0:0:0:0:
376,272,132671,1,0,2:0:0:0:
368,252,132754,1,0,0:0:0:0:
460,180,132921,1,0,0:0:0:0:
360,112,133087,1,8,0:0:0:0:
452,40,133254,1,0,0:0:0:0:
68,72,133421,6,0,L|84:152,1,75.9999979705811,4|0,0:0|0:0,0:0:0:0:
332,212,133754,2,0,L|340:132,1,75.9999979705811,8|0,0:0|2:0,0:0:0:0:
336,112,134004,1,0,2:0:0:0:
332,88,134087,1,0,0:0:0:0:
216,40,134254,1,0,0:0:0:0:
40,160,134421,1,8,0:0:0:0:
156,208,134588,1,0,0:0:0:0:
176,200,134671,1,0,0:0:0:0:
196,192,134754,5,4,0:0:0:0:
368,188,134921,2,0,L|332:172,1,40,0|0,1:0|2:0,0:0:0:0:
380,212,135087,2,0,L|336:192,1,40,8|0,0:0|2:0,0:0:0:0:
388,236,135254,1,0,2:0:0:0:
256,332,135421,1,0,0:0:0:0:
236,176,135587,1,0,0:0:0:0:
256,332,135754,1,8,0:0:0:0:
96,260,135921,1,8,0:0:0:0:
92,112,136087,6,0,L|76:24,1,83.9999974365235,4|0,0:0|0:0,0:0:0:0:
304,116,136421,2,0,L|288:204,1,83.9999974365235,8|0,0:0|0:0,0:0:0:0:
297,219,136671,1,0,2:0:0:0:
305,239,136754,1,0,0:0:0:0:
428,208,136921,1,0,0:0:0:0:
392,320,137087,1,8,0:0:0:0:
269,351,137254,1,8,0:0:0:0:
104,204,137421,6,0,P|64:184|48:144,1,88.000002685547,4|0,0:0|0:0,0:0:0:0:
292,32,137754,2,0,P|332:52|348:92,1,88.000002685547,8|0,0:0|0:0,0:0:0:0:
344,112,138004,1,0,2:0:0:0:
340,132,138087,1,0,0:0:0:0:
468,88,138254,1,0,0:0:0:0:
304,252,138421,1,8,0:0:0:0:
432,208,138588,1,0,0:0:0:0:
208,160,138754,6,0,L|112:180,1,92.0000017547608,4|0,0:0|0:0,0:0:0:0:
325,346,139087,2,0,L|425:322,1,92.0000017547608,8|0,0:0|0:0,0:0:0:0:
432,336,139337,1,0,2:0:0:0:
448,348,139421,1,0,0:0:0:0:
472,200,139587,1,0,0:0:0:0:
292,60,139754,1,8,0:0:0:0:
268,208,139920,1,0,0:0:0:0:
276,232,140004,1,0,0:0:0:0:
284,256,140087,5,4,0:0:0:0:
136,200,140254,1,0,0:0:0:0:
128,172,140337,1,0,2:0:0:0:
120,144,140421,1,8,0:0:0:0:
112,116,140504,1,0,2:0:0:0:
104,88,140587,1,0,1:0:0:0:
316,80,140754,2,0,L|424:108,1,95.9999970703126
168,320,141087,2,0,L|60:292,1,95.9999970703126,8|8,0:0|0:0,0:0:0:0:
292,32,141421,6,0,L|480:72,1,160,6|8,0:0|0:0,0:0:0:0:
468,304,141921,2,0,B|388:284|388:284|296:328,1,160,2|0,0:0|0:0,0:0:0:0:
216,344,142421,2,0,P|176:336|148:304,1,80,8|8,0:0|0:0,0:0:0:0:
36,92,142754,2,0,B|84:60|84:60|204:76,1,160,2|8,0:0|0:0,0:0:0:0:
404,224,143254,2,0,P|428:156|400:76,1,160,2|0,0:0|0:0,0:0:0:0:
316,20,143754,1,8,0:0:0:0:
224,56,143921,1,0,2:0:0:0:
60,272,144087,6,0,B|144:256|144:256|232:304,1,160,6|8,0:0|0:0,0:0:0:0:
456,276,144587,2,0,L|304:204,1,160,2|0,0:0|0:0,0:0:0:0:
280,96,145087,1,8,0:0:0:0:
164,136,145254,1,0,0:0:0:0:
172,156,145337,1,0,0:0:0:0:
180,176,145421,1,2,0:0:0:0:
209,291,145587,1,4,2:0:0:0:
400,128,145754,1,8,0:0:0:0:
220,312,145921,2,0,B|164:276|164:276|68:300,1,160,2|2,0:0|0:0,0:0:0:0:
20,216,146421,1,8,0:0:0:0:
48,124,146587,1,8,0:0:0:0:
244,84,146754,5,6,0:0:0:0:
328,136,146921,1,0,2:0:0:0:
324,156,147004,1,0,2:0:0:0:
320,176,147087,2,0,P|360:164|400:168,1,80,8|2,0:0|0:0,0:0:0:0:
276,296,147421,2,0,P|236:308|196:304,1,80,0|2,2:0|0:0,0:0:0:0:
120,228,147754,1,8,0:0:0:0:
12,260,147921,1,8,0:0:0:0:
92,336,148087,5,2,0:0:0:0:
228,208,148254,1,4,2:0:0:0:
228,208,148337,1,0,2:0:0:0:
228,208,148421,1,8,0:0:0:0:
56,116,148587,1,2,0:0:0:0:
48,136,148671,1,0,2:0:0:0:
40,156,148754,5,0,2:0:0:0:
120,228,148921,1,2,0:0:0:0:
228,208,149087,1,8,0:0:0:0:
284,120,149254,1,0,2:0:0:0:
148,104,149421,5,6,0:0:0:0:
120,228,149587,1,0,2:0:0:0:
128,252,149671,1,0,2:0:0:0:
136,276,149754,2,0,L|52:260,1,80,8|2,0:0|0:0,0:0:0:0:
264,92,150087,2,0,L|348:108,1,80,0|2,2:0|0:0,0:0:0:0:
440,184,150421,1,8,0:0:0:0:
436,208,150504,1,0,2:0:0:0:
432,232,150587,1,0,0:0:0:0:
428,256,150671,1,0,1:0:0:0:
424,280,150754,5,2,0:0:0:0:
240,332,150921,1,4,2:0:0:0:
236,308,151004,1,0,2:0:0:0:
232,284,151087,1,8,0:0:0:0:
227,153,151254,1,2,0:0:0:0:
300,288,151421,2,0,P|260:284|228:260,1,80,0|2,2:0|0:0,0:0:0:0:
60,228,151754,2,0,P|92:204|140:208,1,80,10|8,0:0|0:0,0:0:0:0:
264,16,152087,6,0,P|276:92|196:164,1,160,6|8,0:0|0:0,0:0:0:0:
64,324,152587,2,0,B|116:292|116:292|220:316,1,160,2|0,0:0|0:0,0:0:0:0:
232,320,153004,1,0,2:0:0:0:
252,328,153087,1,8,0:0:0:0:
328,252,153254,5,8,0:0:0:0:
436,272,153421,1,2,0:0:0:0:
360,104,153587,5,4,2:0:0:0:
252,124,153754,1,8,0:0:0:0:
156,288,153921,6,0,P|92:256|72:172,1,160,2|0,0:0|0:0,0:0:0:0:
84,160,154337,1,0,2:0:0:0:
96,144,154421,2,0,L|16:124,1,80,8|0,0:0|2:0,0:0:0:0:
232,24,154754,6,0,L|312:44,1,80,6|0,0:0|2:0,0:0:0:0:
456,204,155087,1,8,0:0:0:0:
384,284,155254,2,0,B|328:252|328:252|212:280,1,160,2|0,0:0|0:0,0:0:0:0:
128,252,155754,2,0,P|96:232|84:192,1,80,8|0,0:0|0:0,0:0:0:0:
88,172,156004,1,0,0:0:0:0:
96,152,156087,1,2,0:0:0:0:
188,52,156254,1,4,2:0:0:0:
232,180,156421,1,8,0:0:0:0:
96,152,156587,1,2,0:0:0:0:
336,80,156754,5,0,2:0:0:0:
348,100,156837,1,0,2:0:0:0:
360,120,156921,1,2,0:0:0:0:
336,272,157087,1,8,0:0:0:0:
180,348,157254,1,8,0:0:0:0:
192,192,157420,5,6,0:0:0:0:
344,228,157587,1,0,2:0:0:0:
340,252,157671,1,0,2:0:0:0:
336,272,157754,2,0,L|416:252,1,80,8|2,0:0|0:0,0:0:0:0:
256,88,158087,2,0,L|176:108,1,80,0|2,2:0|0:0,0:0:0:0:
72,272,158421,1,8,0:0:0:0:
176,224,158587,1,8,0:0:0:0:
80,164,158754,1,2,0:0:0:0:
168,332,158921,1,4,2:0:0:0:
192,324,159004,1,0,2:0:0:0:
216,316,159087,1,8,0:0:0:0:
420,248,159254,1,2,0:0:0:0:
396,240,159337,1,0,2:0:0:0:
372,232,159421,2,0,P|387:197|375:151,1,80,0|2,2:0|0:0,0:0:0:0:
172,260,159754,2,0,B|168:300|168:300|200:340,1,80,8|0,0:0|0:0,0:0:0:0:
332,348,160087,5,6,0:0:0:0:
352,204,160254,1,0,2:0:0:0:
352,204,160337,1,0,2:0:0:0:
352,204,160421,1,8,0:0:0:0:
208,252,160587,1,2,0:0:0:0:
472,288,160754,1,0,2:0:0:0:
372,72,160921,1,2,0:0:0:0:
208,252,161087,1,8,0:0:0:0:
176,244,161171,1,0,2:0:0:0:
144,236,161254,1,0,0:0:0:0:
112,228,161337,1,0,0:0:0:0:
80,220,161421,5,2,0:0:0:0:
108,100,161587,1,4,2:0:0:0:
288,212,161754,5,8,0:0:0:0:
260,332,161920,1,2,0:0:0:0:
280,344,162004,1,0,2:0:0:0:
300,356,162087,1,0,2:0:0:0:
428,280,162254,1,2,0:0:0:0:
408,136,162421,1,10,0:0:0:0:
280,72,162587,1,8,0:0:0:0:
288,212,162754,5,4,0:0:0:0:
