osu file format v14

[General]
AudioFilename: audio.mp3
AudioLeadIn: 0
PreviewTime: 64004
Countdown: 1
SampleSet: Normal
StackLeniency: 0.7
Mode: 0
LetterboxInBreaks: 0
WidescreenStoryboard: 1

[Editor]
DistanceSpacing: 1
BeatDivisor: 4
GridSize: 4
TimelineZoom: 2.2

[Metadata]
Title:Like A Man
TitleUnicode:남자답게
Artist:Outsider
ArtistUnicode:Outsider
Creator:IceBeam
Version:Easy
Source:Pump It Up 2011 Fiesta EX
Tags:reiji-rj pandahero piu video dance game korean hip-hop soliloquist
BeatmapID:1414732
BeatmapSetID:666566

[Difficulty]
HPDrainRate:3
CircleSize:3
OverallDifficulty:2
ApproachRate:3
SliderMultiplier:0.9
SliderTickRate:1

[Events]
//Background and Video events
0,0,"2b09e677a2e9158bf6bf53a819f38770.jpg",0,0
//Break Periods
2,85621,89314
//Storyboard Layer 0 (Background)
//Storyboard Layer 1 (Fail)
//Storyboard Layer 2 (Pass)
//Storyboard Layer 3 (Foreground)
//Storyboard Sound Samples

[TimingPoints]
88,333.333333333333,4,2,1,35,1,0
10754,-100,4,1,1,40,0,0
16087,-100,4,1,1,45,0,0
21421,-100,4,1,1,55,0,1
26754,-100,4,1,1,45,0,0
32087,-100,4,1,1,55,0,1
37421,-100,4,1,1,45,0,0
42754,-100,4,1,1,45,0,1
42837,-100,4,1,1,45,0,0
64087,-100,4,1,1,55,0,1
74671,-100,4,1,1,55,0,0
74754,-100,4,1,1,55,0,1
85337,-100,4,1,1,45,0,0
85421,-100,4,1,1,45,0,1
85504,-100,4,1,1,35,0,0
90754,-100,4,1,1,45,0,0
105421,-100,4,2,1,20,0,0
107087,-100,4,1,1,45,0,0
114754,-100,4,1,1,55,0,1
120087,-100,4,1,1,45,0,0
125421,-100,4,1,1,55,0,1
130671,-100,4,1,1,45,0,0
130754,-100,4,1,1,30,0,1
130837,-100,4,1,1,30,0,0
132087,-100,4,1,1,35,0,1
132171,-100,4,1,1,35,0,0
133421,-100,4,1,1,40,0,1
133504,-100,4,1,1,40,0,0
134754,-100,4,1,1,45,0,1
134837,-100,4,1,1,45,0,0
136087,-100,4,1,1,50,0,1
136171,-100,4,1,1,50,0,0
137421,-100,4,1,1,55,0,1
137504,-100,4,1,1,55,0,0
138754,-100,4,1,1,60,0,1
138837,-100,4,1,1,60,0,0
140087,-100,4,1,1,65,0,1
140171,-100,4,1,1,65,0,0
141421,-100,4,1,1,55,0,1
152004,-100,4,1,1,55,0,0
152087,-100,4,1,1,55,0,1
162671,-100,4,1,1,55,0,0
162754,-100,4,1,1,55,0,1
162837,-100,4,1,1,55,0,0

[Colours]
Combo1 : 121,13,202
Combo2 : 204,21,77

[HitObjects]
48,132,88,6,0,L|208:112,1,135,2|2,0:0|0:0,0:0:0:0:
304,220,1087,1,2,0:0:0:0:
376,148,1421,2,0,P|408:216|376:296,2,135,2|2|2,0:0|0:0|0:0,0:0:0:0:
320,64,2754,6,0,B|280:80|248:68|248:68|236:96|184:104,1,135,2|2,0:0|0:0,0:0:0:0:
36,84,3754,1,2,0:0:0:0:
52,184,4087,2,0,P|40:256|80:332,2,135,2|2|2,0:0|0:0|0:0,0:0:0:0:
128,116,5421,6,0,L|292:128,1,135,2|2,0:0|0:0,0:0:0:0:
420,192,6421,1,2,0:0:0:0:
352,268,6754,2,0,L|188:256,2,135,2|2|2,0:0|0:0|0:0,0:0:0:0:
420,192,8087,6,0,P|440:132|416:52,1,135,2|2,0:0|0:0,0:0:0:0:
264,44,9087,1,2,0:0:0:0:
184,104,9421,2,0,B|104:76|116:120|32:84,2,135,2|2|2,0:0|0:0|0:0,0:0:0:0:
264,44,10754,5,0,1:0:0:0:
356,84,11087,2,0,P|436:128|444:220,1,180,8|8,0:0|0:0,0:0:0:0:
416,300,12087,1,0,0:0:0:0:
316,296,12421,2,0,P|236:252|228:160,1,180,8|8,0:0|0:0,0:0:0:0:
300,96,13421,5,0,0:0:0:0:
204,56,13754,2,0,L|16:88,1,180,8|8,0:0|0:0,0:0:0:0:
44,192,14754,1,0,0:0:0:0:
44,192,15087,2,0,L|232:160,1,180,8|8,0:0|0:0,0:0:0:0:
308,96,16087,5,4,0:0:0:0:
416,200,16587,2,0,P|420:256|368:336,1,135,0|8,0:0|0:0,0:0:0:0:
280,344,17421,2,0,L|136:328,1,135
88,184,18421,1,8,0:0:0:0:
180,120,18754,6,0,P|248:96|272:28,1,135,4|0,0:0|0:0,0:0:0:0:
428,96,19754,1,8,0:0:0:0:
384,188,20087,2,0,L|400:336,2,135,0|0|8,0:0|0:0|0:0,0:0:0:0:
276,160,21421,6,0,L|260:12,2,135,6|2|8,0:0|0:0|0:0,0:0:0:0:
176,200,22754,2,0,P|128:164|48:176,1,135,2|2,0:0|0:0,0:0:0:0:
84,308,23754,1,8,0:0:0:0:
196,312,24087,6,0,P|244:348|324:336,1,135,6|2,0:0|0:0,0:0:0:0:
452,264,25087,1,8,0:0:0:0:
384,180,25421,2,0,L|408:48,2,135,2|2|10,0:0|0:0|0:0,0:0:0:0:
344,280,26754,5,4,0:0:0:0:
248,232,27087,2,0,B|152:200|168:256|64:224,1,180,8|8,0:0|0:0,0:0:0:0:
64,124,28087,1,0,0:0:0:0:
64,124,28421,2,0,B|160:156|144:100|248:132,1,180,8|8,0:0|0:0,0:0:0:0:
328,68,29421,5,4,0:0:0:0:
420,120,29754,2,0,P|436:200|400:292,1,180,8|8,0:0|0:0,0:0:0:0:
308,344,30754,1,0,0:0:0:0:
228,272,31087,2,0,B|164:244|164:244|44:280,1,180,8|8,0:0|0:0,0:0:0:0:
24,176,32087,6,0,L|156:136,1,135,6|2,0:0|0:0,0:0:0:0:
292,52,33087,1,8,0:0:0:0:
368,128,33421,2,0,P|436:140|480:196,1,135,2|2,0:0|0:0,0:0:0:0:
380,320,34421,1,8,0:0:0:0:
304,244,34755,6,0,P|236:232|192:176,1,135,6|2,0:0|0:0,0:0:0:0:
284,60,35754,1,8,0:0:0:0:
176,36,36087,2,0,L|8:24,2,135,2|2|10,0:0|0:0|0:0,0:0:0:0:
196,140,37421,5,4,0:0:0:0:
312,96,37754,2,0,P|396:120|416:204,1,180,8|8,0:0|0:0,0:0:0:0:
416,304,38754,1,0,0:0:0:0:
308,304,39087,2,0,P|224:280|204:196,1,180,8|8,0:0|0:0,0:0:0:0:
304,152,40087,5,4,0:0:0:0:
212,88,40421,2,0,B|160:52|160:52|36:80,1,180,8|8,0:0|0:0,0:0:0:0:
108,176,41421,1,0,0:0:0:0:
108,176,41754,2,0,P|100:264|164:336,1,180,8|8,0:0|0:0,0:0:0:0:
264,304,42754,6,0,B|368:276|340:332|452:292,1,180,4|8,0:0|0:0,0:0:0:0:
384,104,44087,2,0,B|280:132|308:76|196:116,1,180,0|8,0:0|0:0,0:0:0:0:
24,220,45421,6,0,B|68:240|68:292|68:292|112:292|136:344,1,180,4|8,0:0|0:0,0:0:0:0:
316,276,46754,2,0,B|372:236|372:236|492:256,1,180,0|8,0:0|0:0,0:0:0:0:
468,72,48087,6,0,L|276:40,1,180,4|8,0:0|0:0,0:0:0:0:
104,104,49421,2,0,P|80:192|120:272,1,180,0|8,0:0|0:0,0:0:0:0:
320,320,50754,6,0,L|412:292,1,90,4|0,0:0|0:0,0:0:0:0:
404,184,51421,2,0,L|312:212,1,90,8|0,0:0|0:0,0:0:0:0:
220,264,52087,2,0,B|112:275|149:224|32:246,1,180,0|8,0:0|0:0,0:0:0:0:
24,64,53421,6,0,B|131:52|94:103|211:81,1,180,4|8,0:0|0:0,0:0:0:0:
400,56,54754,2,0,P|408:148|352:208,1,180,0|8,0:0|0:0,0:0:0:0:
244,336,56087,6,0,L|60:316,1,180,4|8,0:0|0:0,0:0:0:0:
32,152,57421,2,0,L|210:171,1,180,0|8,0:0|0:0,0:0:0:0:
368,64,58754,5,4,0:0:0:0:
368,64,59421,1,8,0:0:0:0:
396,244,60087,1,0,0:0:0:0:
396,244,60754,1,8,0:0:0:0:
224,316,61421,6,0,B|164:276|164:276|40:304,1,180,4|8,0:0|0:0,0:0:0:0:
84,116,62754,2,0,L|180:96,1,90
272,48,63421,2,0,L|368:68,1,90,8|0,0:0|0:0,0:0:0:0:
448,128,64087,6,0,P|460:192|420:252,1,135,6|2,0:0|0:0,0:0:0:0:
284,320,65087,1,8,0:0:0:0:
284,320,65421,2,0,B|240:288|240:288|148:308,1,135,2|2,0:0|0:0,0:0:0:0:
64,204,66421,1,8,0:0:0:0:
152,144,66754,6,0,P|124:88|148:16,1,135,6|2,0:0|0:0,0:0:0:0:
280,72,67754,1,8,0:0:0:0:
280,72,68087,2,0,P|308:128|284:200,1,135,2|2,0:0|0:0,0:0:0:0:
192,304,69087,1,10,0:0:0:0:
296,344,69421,5,6,0:0:0:0:
296,344,69754,2,0,L|480:328,1,180,8|10,0:0|0:0,0:0:0:0:
460,224,70754,1,2,0:0:0:0:
460,224,71087,2,0,L|276:240,1,180,8|10,0:0|0:0,0:0:0:0:
192,304,72087,5,6,0:0:0:0:
116,232,72421,2,0,P|52:172|64:80,1,180,8|10,0:0|0:0,0:0:0:0:
164,48,73421,1,2,0:0:0:0:
256,96,73754,2,0,B|352:64|336:124|440:84,1,180,8|10,0:0|0:0,0:0:0:0:
460,184,74754,6,0,P|464:240|444:332,2,135,6|2|8,0:0|0:0|0:0,0:0:0:0:
352,156,76087,2,0,P|348:100|368:8,2,135,2|2|8,0:0|0:0|0:0,0:0:0:0:
272,232,77421,6,0,L|136:248,1,135,6|2,0:0|0:0,0:0:0:0:
56,128,78421,1,8,0:0:0:0:
56,128,78754,2,0,L|192:112,1,135,2|2,0:0|0:0,0:0:0:0:
324,32,79754,1,10,0:0:0:0:
412,84,80087,5,6,0:0:0:0:
412,84,80421,2,0,P|460:156|436:240,1,180,8|10,0:0|0:0,0:0:0:0:
352,304,81421,1,2,0:0:0:0:
260,248,81754,2,0,B|200:216|200:216|88:244,1,180,8|10,0:0|0:0,0:0:0:0:
32,152,82754,5,6,0:0:0:0:
32,152,83087,2,0,L|208:108,1,180,8|10,0:0|0:0,0:0:0:0:
288,32,84087,1,2,0:0:0:0:
368,100,84421,2,0,P|448:132|488:220,1,180,8|10,0:0|0:0,0:0:0:0:
424,292,85421,5,0,2:0:0:0:
352,56,90754,6,0,L|164:36,1,180,4|8,0:0|0:0,0:0:0:0:
44,204,92087,2,0,L|232:224,1,180,0|8,0:0|0:0,0:0:0:0:
428,300,93421,6,0,P|464:224|428:128,1,180,4|8,0:0|0:0,0:0:0:0:
236,128,94754,2,0,P|200:204|236:300,1,180,0|8,0:0|0:0,0:0:0:0:
400,184,96087,6,0,L|496:196,2,90,4|0|8,0:0|0:0|0:0,0:0:0:0:
232,68,97421,2,0,L|132:88,2,90,0|0|8,0:0|0:0|0:0,0:0:0:0:
384,208,98754,6,0,L|408:96,2,90,4|0|8,0:0|0:0|0:0,0:0:0:0:
180,248,100087,2,0,L|196:348,2,90,0|0|8,0:0|0:0|0:0,0:0:0:0:
72,88,101421,6,0,L|164:72,1,90,4|0,0:0|0:0,0:0:0:0:
256,56,102087,1,8,0:0:0:0:
408,180,102754,6,0,L|316:164,1,90
224,148,103420,1,8,0:0:0:0:
68,268,104087,6,0,L|160:252,1,90,4|0,0:0|0:0,0:0:0:0:
252,236,104753,1,8,0:0:0:0:
256,192,105421,12,0,106754,0:0:0:0:
80,312,109421,6,0,B|128:284|128:284|224:304,1,135,4|0,0:0|0:0,0:0:0:0:
372,332,110421,1,8,0:0:0:0:
436,260,110754,2,0,P|464:204|444:132,1,135
308,40,111754,1,8,0:0:0:0:
216,84,112087,6,0,L|72:72,1,135,4|0,0:0|0:0,0:0:0:0:
72,232,113087,1,8,0:0:0:0:
72,232,113421,2,0,L|216:244,1,135
356,324,114421,1,8,0:0:0:0:
436,260,114754,5,6,0:0:0:0:
436,260,115087,2,0,P|464:176|416:104,1,180,8|10,0:0|0:0,0:0:0:0:
340,44,116087,1,2,0:0:0:0:
272,116,116421,2,0,P|244:200|292:272,1,180,8|10,0:0|0:0,0:0:0:0:
356,184,117421,5,6,0:0:0:0:
356,184,117754,2,0,L|164:208,1,180,8|10,0:0|0:0,0:0:0:0:
100,136,118754,1,2,0:0:0:0:
152,56,119087,2,0,L|344:32,1,180,8|10,0:0|0:0,0:0:0:0:
428,72,120087,6,0,P|456:140|432:196,1,135,4|0,0:0|0:0,0:0:0:0:
344,324,121087,1,8,0:0:0:0:
256,284,121421,2,0,B|208:264|208:264|128:288,1,135
40,176,122421,1,8,0:0:0:0:
112,112,122754,6,0,P|172:84|196:8,1,135,4|0,0:0|0:0,0:0:0:0:
352,72,123754,1,8,0:0:0:0:
336,168,124087,2,0,L|476:148,2,135,0|0|8,0:0|0:0|0:0,0:0:0:0:
256,104,125421,5,6,0:0:0:0:
256,104,125754,2,0,L|64:132,1,180,8|10,0:0|0:0,0:0:0:0:
32,212,126754,1,2,0:0:0:0:
108,272,127087,2,0,L|300:244,1,180,8|10,0:0|0:0,0:0:0:0:
380,296,128087,5,6,0:0:0:0:
432,212,128421,2,0,P|472:136|440:52,1,180,8|10,0:0|0:0,0:0:0:0:
344,24,129421,1,2,0:0:0:0:
252,60,129754,2,0,B|152:24|176:88|76:52,1,180,8|10,0:0|0:0,0:0:0:0:
28,136,130754,5,4,0:0:0:0:
72,220,131087,2,0,B|172:256|148:192|248:228,1,180,8|8,0:0|0:0,0:0:0:0:
316,304,132087,5,4,0:0:0:0:
400,248,132421,2,0,P|452:180|436:92,1,180,8|8,0:0|0:0,0:0:0:0:
364,24,133421,5,4,0:0:0:0:
276,72,133754,2,0,L|92:96,1,180,8|8,0:0|0:0,0:0:0:0:
84,200,134754,5,4,0:0:0:0:
84,200,135087,2,0,L|268:176,1,180,8|8,0:0|0:0,0:0:0:0:
356,140,136087,5,4,0:0:0:0:
428,208,136421,2,0,P|428:296|348:352,1,180,8|8,0:0|0:0,0:0:0:0:
296,276,137421,5,4,0:0:0:0:
208,324,137754,2,0,B|152:288|152:288|28:320,1,180,8|8,0:0|0:0,0:0:0:0:
20,220,138754,5,4,0:0:0:0:
20,220,139087,2,0,L|200:176,1,180,8|8,0:0|0:0,0:0:0:0:
256,100,140087,5,4,0:0:0:0:
317,177,140421,2,0,L|492:220,1,180,8|8,0:0|0:0,0:0:0:0:
444,316,141421,6,0,P|392:348|308:332,1,135,6|2,0:0|0:0,0:0:0:0:
272,200,142421,1,8,0:0:0:0:
348,136,142754,2,0,P|296:104|212:120,1,135,2|2,0:0|0:0,0:0:0:0:
64,120,143754,1,8,0:0:0:0:
104,212,144087,6,0,L|124:352,2,135,6|2|8,0:0|0:0|0:0,0:0:0:0:
200,236,145421,2,0,L|180:96,2,135,2|2|10,0:0|0:0|0:0,0:0:0:0:
260,316,146754,5,6,0:0:0:0:
352,272,147087,2,0,P|424:232|444:132,1,180,8|10,0:0|0:0,0:0:0:0:
436,44,148087,1,2,0:0:0:0:
336,64,148421,2,0,P|264:104|244:204,1,180,8|10,0:0|0:0,0:0:0:0:
288,284,149421,5,6,0:0:0:0:
188,312,149754,2,0,B|132:268|132:268|20:296,1,180,8|10,0:0|0:0,0:0:0:0:
20,196,150754,1,2,0:0:0:0:
20,196,151087,2,0,L|204:152,1,180,8|10,0:0|0:0,0:0:0:0:
268,84,152087,5,6,0:0:0:0:
416,144,152587,2,0,P|436:208|408:280,1,135,2|8,0:0|0:0,0:0:0:0:
328,328,153421,2,0,B|280:300|280:300|192:320,1,135,2|2,0:0|0:0,0:0:0:0:
72,248,154421,1,8,0:0:0:0:
96,152,154754,6,0,P|76:96|88:20,2,135,6|2|8,0:0|0:0|0:0,0:0:0:0:
196,196,156087,2,0,P|216:252|204:328,2,135,2|2|10,0:0|0:0|0:0,0:0:0:0:
184,96,157421,5,6,0:0:0:0:
284,132,157754,2,0,B|380:100|364:160|468:120,1,180,8|10,0:0|0:0,0:0:0:0:
464,232,158754,1,2,0:0:0:0:
464,232,159087,2,0,B|368:264|384:204|280:244,1,180,8|10,0:0|0:0,0:0:0:0:
220,316,160087,5,6,0:0:0:0:
124,276,160421,2,0,P|72:208|92:120,1,180,8|10,0:0|0:0,0:0:0:0:
124,28,161421,1,2,0:0:0:0:
216,72,161754,2,0,L|400:56,1,180,8|10,0:0|0:0,0:0:0:0:
472,128,162754,5,6,0:0:0:0:
