osu file format v14

[General]
AudioFilename: audio.mp3
AudioLeadIn: 0
PreviewTime: 119017
Countdown: 1
SampleSet: Normal
StackLeniency: 0.3
Mode: 0
LetterboxInBreaks: 0
WidescreenStoryboard: 0

[Editor]
Bookmarks: 2092,11692,21292,30892,40492,42892,45292,64492,86092,95692,105292,114892,117292,119692,138892,160492,179692,202492,212092
DistanceSpacing: 0.1
BeatDivisor: 4
GridSize: 4
TimelineZoom: 2.5

[Metadata]
Title:Eat Your Heart Out
TitleUnicode:Eat Your Heart Out
Artist:Outline In Color
ArtistUnicode:Outline In Color
Creator:Nidasimno
Version:Expert
Source:
Tags:
BeatmapID:2020085
BeatmapSetID:964975

[Difficulty]
HPDrainRate:7
CircleSize:4
OverallDifficulty:8.5
ApproachRate:9.5
SliderMultiplier:2
SliderTickRate:1

[Events]
//Background and Video events
0,0,"bgaa.jpg",0,0
//Break Periods
//Storyboard Layer 0 (Background)
//Storyboard Layer 1 (Fail)
//Storyboard Layer 2 (Pass)
//Storyboard Layer 3 (Foreground)
//Storyboard Sound Samples

[TimingPoints]
2092,300,4,1,1,50,1,0
20392,-100,4,1,1,5,0,0
21292,-100,4,1,1,50,0,0
45292,-66.6666666666667,4,1,1,50,0,1
53692,-66.6666666666667,4,1,1,50,0,0
54892,-66.6666666666667,4,1,1,50,0,1
63292,-90.9090909090909,4,1,1,50,0,0
63592,-83.3333333333333,4,1,1,50,0,0
63892,-76.9230769230769,4,1,1,50,0,0
64192,-71.4285714285714,4,1,1,50,0,0
64492,-66.6666666666667,4,1,1,50,0,1
72892,-66.6666666666667,4,1,1,50,0,0
74092,-66.6666666666667,4,1,1,50,0,1
83692,-100,4,1,1,50,0,0
119692,-66.6666666666667,4,1,1,50,0,1
158092,-100,4,1,1,50,0,0
221692,-100,4,1,1,50,0,1
245692,-100,4,1,1,50,0,0

[HitObjects]
203,298,2092,5,0,0:0:0:0:
203,298,2167,1,0,0:0:0:0:
203,298,2242,1,0,0:0:0:0:
30,336,2392,1,8,0:0:0:0:
182,284,2842,1,0,0:0:0:0:
9,322,2992,1,8,0:0:0:0:
27,99,3292,5,0,0:0:0:0:
27,99,3367,1,0,0:0:0:0:
27,99,3442,1,0,0:0:0:0:
200,61,3592,1,8,0:0:0:0:
41,106,4042,1,0,0:0:0:0:
214,68,4192,1,8,0:0:0:0:
289,369,4492,5,0,0:0:0:0:
289,369,4567,1,0,0:0:0:0:
289,369,4642,1,0,0:0:0:0:
327,196,4792,1,8,0:0:0:0:
353,278,4942,1,0,0:0:0:0:
413,213,5092,1,0,0:0:0:0:
343,363,5242,1,0,0:0:0:0:
311,199,5392,1,8,0:0:0:0:
323,190,5692,5,0,0:0:0:0:
361,124,5842,1,0,0:0:0:0:
400,192,5992,1,8,0:0:0:0:
311,199,6142,1,0,0:0:0:0:
399,58,6292,5,0,0:0:0:0:
477,204,6442,1,0,0:0:0:0:
299,208,6592,1,8,0:0:0:0:
411,49,6742,1,0,0:0:0:0:
512,290,6892,5,0,0:0:0:0:
512,290,6967,1,0,0:0:0:0:
512,290,7042,1,0,0:0:0:0:
340,253,7192,1,8,0:0:0:0:
500,305,7642,1,0,0:0:0:0:
328,268,7792,1,8,0:0:0:0:
107,275,8092,5,0,0:0:0:0:
107,275,8167,1,0,0:0:0:0:
107,275,8242,1,0,0:0:0:0:
279,238,8392,1,8,0:0:0:0:
122,286,8842,1,0,0:0:0:0:
294,249,8992,1,8,0:0:0:0:
233,18,9292,5,0,0:0:0:0:
233,18,9367,1,0,0:0:0:0:
233,18,9442,1,0,0:0:0:0:
196,190,9592,1,8,0:0:0:0:
245,36,10042,1,0,0:0:0:0:
208,208,10192,1,8,0:0:0:0:
438,244,10492,5,0,0:0:0:0:
436,242,11692,5,0,0:0:0:0:
431,217,11767,1,0,0:0:0:0:
427,192,11842,1,0,0:0:0:0:
445,292,12142,5,0,0:0:0:0:
440,267,12217,1,0,0:0:0:0:
436,242,12292,1,8,0:0:0:0:
388,48,12742,5,0,0:0:0:0:
364,55,13042,1,0,0:0:0:0:
467,26,13192,1,0,0:0:0:0:
340,62,13492,1,8,0:0:0:0:
316,69,13567,1,0,0:0:0:0:
292,77,13642,1,0,0:0:0:0:
268,84,13717,1,0,0:0:0:0:
244,92,13792,1,0,0:0:0:0:
71,13,14092,5,0,0:0:0:0:
95,20,14167,1,0,0:0:0:0:
119,28,14242,1,0,0:0:0:0:
143,35,14317,1,0,0:0:0:0:
167,43,14392,1,0,0:0:0:0:
167,43,14692,1,8,0:0:0:0:
185,195,14842,1,0,0:0:0:0:
168,269,14992,1,0,0:0:0:0:
151,343,15142,1,0,0:0:0:0:
272,288,15292,5,0,0:0:0:0:
47,324,15442,1,0,0:0:0:0:
269,269,15592,1,0,0:0:0:0:
44,305,15742,1,0,0:0:0:0:
247,364,15892,5,8,0:0:0:0:
62,229,16042,1,0,0:0:0:0:
257,348,16192,1,0,0:0:0:0:
73,214,16342,1,0,0:0:0:0:
365,239,16492,5,0,0:0:0:0:
341,247,16567,1,0,0:0:0:0:
317,254,16642,1,0,0:0:0:0:
413,224,16942,5,0,0:0:0:0:
389,232,17017,1,0,0:0:0:0:
365,239,17092,1,8,0:0:0:0:
494,340,17542,5,0,0:0:0:0:
470,347,17842,1,0,0:0:0:0:
466,212,17992,1,0,0:0:0:0:
446,354,18292,1,8,0:0:0:0:
422,362,18367,1,0,0:0:0:0:
398,369,18442,1,0,0:0:0:0:
374,377,18517,1,0,0:0:0:0:
350,384,18592,1,0,0:0:0:0:
193,357,18892,5,0,0:0:0:0:
217,349,18967,1,0,0:0:0:0:
241,342,19042,1,0,0:0:0:0:
265,334,19117,1,0,0:0:0:0:
289,327,19192,1,0,0:0:0:0:
289,327,19492,1,8,0:0:0:0:
311,184,19642,1,0,0:0:0:0:
272,100,19792,1,0,0:0:0:0:
261,77,19867,1,0,0:0:0:0:
254,53,19942,1,0,0:0:0:0:
251,28,20017,1,0,0:0:0:0:
252,4,20092,5,0,0:0:0:0:
256,192,20242,12,0,21142,0:0:0:0:
58,317,21292,5,0,0:0:0:0:
58,317,21367,1,0,0:0:0:0:
58,317,21442,1,0,0:0:0:0:
178,365,21592,2,0,B|177:335|177:335|182:301|182:301|186:233,1,100,8|0,0:0|0:0,0:0:0:0:
51,217,21892,2,0,B|53:252|53:252|58:286|58:286|57:316,1,100
186,187,22192,1,8,0:0:0:0:
109,155,22342,1,0,0:0:0:0:
307,228,22492,6,0,L|434:276,1,100
256,50,22792,1,8,0:0:0:0:
256,50,23092,1,0,0:0:0:0:
261,74,23167,1,0,0:0:0:0:
265,99,23242,1,0,0:0:0:0:
270,123,23317,1,0,0:0:0:0:
274,148,23392,1,8,0:0:0:0:
224,384,23692,5,0,0:0:0:0:
220,359,23767,1,0,0:0:0:0:
215,335,23842,1,0,0:0:0:0:
211,310,23917,1,0,0:0:0:0:
206,286,23992,2,0,B|236:278|236:278|332:309,1,100,8|0,0:0|0:0,0:0:0:0:
131,360,24292,2,0,B|101:368|101:368|5:337,1,100
178,203,24592,1,8,0:0:0:0:
106,274,24742,1,0,0:0:0:0:
137,111,24892,5,0,0:0:0:0:
186,283,25042,1,0,0:0:0:0:
111,86,25192,1,8,0:0:0:0:
172,301,25342,1,0,0:0:0:0:
49,206,25492,5,0,0:0:0:0:
221,157,25642,1,0,0:0:0:0:
24,232,25792,1,8,0:0:0:0:
239,171,25942,1,0,0:0:0:0:
35,346,26092,5,0,0:0:0:0:
35,346,26167,1,0,0:0:0:0:
35,346,26242,1,0,0:0:0:0:
196,291,26392,2,0,B|163:293|163:293|146:300|146:300|123:298|81:307,1,100,8|0,0:0|0:0,0:0:0:0:
221,362,26692,2,0,B|253:359|253:359|270:352|270:352|293:354|335:345,1,100
211,202,26992,1,8,0:0:0:0:
196,291,27142,1,0,0:0:0:0:
227,103,27292,6,0,L|242:1,1,100
64,137,27592,1,8,0:0:0:0:
64,137,27892,1,0,0:0:0:0:
88,142,27967,1,0,0:0:0:0:
113,146,28042,1,0,0:0:0:0:
137,151,28117,1,0,0:0:0:0:
162,155,28192,1,8,0:0:0:0:
402,133,28492,5,0,0:0:0:0:
378,128,28567,1,0,0:0:0:0:
353,124,28642,1,0,0:0:0:0:
329,119,28717,1,0,0:0:0:0:
304,115,28792,1,8,0:0:0:0:
245,46,28942,1,0,0:0:0:0:
335,30,29092,1,0,0:0:0:0:
273,200,29242,1,0,0:0:0:0:
65,78,29392,1,8,0:0:0:0:
155,62,29542,1,0,0:0:0:0:
402,133,29692,5,0,0:0:0:0:
402,133,29842,1,0,0:0:0:0:
219,131,29992,5,8,0:0:0:0:
245,46,30142,1,0,0:0:0:0:
320,91,30292,1,0,0:0:0:0:
208,137,30442,5,0,0:0:0:0:
240,30,30592,1,8,0:0:0:0:
334,86,30742,1,0,0:0:0:0:
304,278,30892,5,0,0:0:0:0:
300,303,30967,1,0,0:0:0:0:
295,328,31042,1,0,0:0:0:0:
313,228,31342,5,0,0:0:0:0:
309,253,31417,1,0,0:0:0:0:
304,278,31492,1,8,0:0:0:0:
180,278,31792,6,0,L|163:377,1,100
193,195,32092,2,0,L|216:63,2,100
193,195,32692,1,8,0:0:0:0:
200,219,32767,1,0,0:0:0:0:
208,243,32842,1,0,0:0:0:0:
215,267,32917,1,0,0:0:0:0:
223,291,32992,1,0,0:0:0:0:
360,377,33292,5,0,0:0:0:0:
353,353,33367,1,0,0:0:0:0:
345,329,33442,1,0,0:0:0:0:
338,305,33517,1,0,0:0:0:0:
330,281,33592,2,0,P|324:224|346:173,1,100
426,143,33892,2,0,P|432:200|410:251,1,100,8|0,0:0|0:0,0:0:0:0:
338,184,34192,1,0,0:0:0:0:
346,87,34342,1,0,0:0:0:0:
428,323,34492,5,0,0:0:0:0:
223,291,34642,1,0,0:0:0:0:
452,345,34792,1,0,0:0:0:0:
195,305,34942,1,0,0:0:0:0:
454,169,35092,5,8,0:0:0:0:
249,137,35242,1,0,0:0:0:0:
482,155,35392,1,0,0:0:0:0:
225,115,35542,1,0,0:0:0:0:
338,230,35692,5,0,0:0:0:0:
363,234,35767,1,0,0:0:0:0:
388,239,35842,1,0,0:0:0:0:
288,221,36142,5,0,0:0:0:0:
313,225,36217,1,0,0:0:0:0:
338,230,36292,1,8,0:0:0:0:
508,141,36592,6,0,L|409:158,1,100
388,239,36892,2,0,L|486:256,2,100
388,239,37492,1,8,0:0:0:0:
364,247,37567,1,0,0:0:0:0:
340,254,37642,1,0,0:0:0:0:
316,262,37717,1,0,0:0:0:0:
292,269,37792,1,0,0:0:0:0:
162,383,38092,5,0,0:0:0:0:
186,375,38167,1,0,0:0:0:0:
210,368,38242,1,0,0:0:0:0:
234,360,38317,1,0,0:0:0:0:
258,353,38392,2,0,P|310:329|343:285,1,100
330,209,38692,2,0,P|277:232|244:276,1,100,8|0,0:0|0:0,0:0:0:0:
424,330,38992,1,0,0:0:0:0:
405,247,39142,1,0,0:0:0:0:
160,225,39292,5,8,0:0:0:0:
337,297,39442,1,0,0:0:0:0:
311,108,39592,1,0,0:0:0:0:
140,231,39742,5,8,0:0:0:0:
353,318,39892,1,0,0:0:0:0:
322,91,40042,1,0,0:0:0:0:
228,346,40192,1,8,0:0:0:0:
479,290,40342,1,0,0:0:0:0:
122,236,40492,5,8,0:0:0:0:
135,235,40792,1,0,0:0:0:0:
148,234,41092,1,0,0:0:0:0:
162,234,41392,1,0,0:0:0:0:
175,233,41692,1,0,0:0:0:0:
188,232,41992,1,0,0:0:0:0:
202,232,42292,1,0,0:0:0:0:
215,231,42592,1,0,0:0:0:0:
215,231,42892,5,8,0:0:0:0:
242,136,43042,1,0,0:0:0:0:
310,208,43192,1,0,0:0:0:0:
174,114,43342,1,8,0:0:0:0:
364,159,43492,1,0,0:0:0:0:
229,302,43642,1,0,0:0:0:0:
259,18,43792,1,8,0:0:0:0:
257,30,43867,1,0,0:0:0:0:
256,42,43942,1,0,0:0:0:0:
255,55,44017,1,0,0:0:0:0:
254,67,44092,5,8,0:0:0:0:
378,230,44242,1,0,0:0:0:0:
228,66,44392,1,0,0:0:0:0:
161,280,44542,1,8,0:0:0:0:
303,148,44692,1,0,0:0:0:0:
373,345,44842,1,0,0:0:0:0:
509,186,44992,1,8,0:0:0:0:
509,186,45292,6,0,B|418:201|418:201|340:294|340:294|255:309,1,300.000011444092,2|8,0:0|0:0,0:0:0:0:
488,175,45742,2,0,B|397:190|397:190|319:283|319:283|234:298,1,300.000011444092,2|0,0:0|0:0,0:0:0:0:
467,164,46192,1,8,0:0:0:0:
467,164,46492,6,0,B|481:120|481:120|472:12,1,150.000005722046
403,109,46792,2,0,B|388:152|388:152|397:256,1,150.000005722046,8|0,0:0|0:0,0:0:0:0:
512,381,47092,1,0,0:0:0:0:
490,299,47242,1,0,0:0:0:0:
362,384,47392,1,8,0:0:0:0:
397,256,47542,1,0,0:0:0:0:
90,320,47692,6,0,P|110:209|273:263,1,300.000011444092,2|8,0:0|0:0,0:0:0:0:
170,375,48142,2,0,P|83:302|212:188,1,300.000011444092,2|0,0:0|0:0,0:0:0:0:
178,280,48592,1,8,0:0:0:0:
178,280,48892,6,0,L|338:307,1,150.000005722046
200,362,49192,2,0,L|39:334,1,150.000005722046,8|0,0:0|0:0,0:0:0:0:
156,198,49492,1,0,0:0:0:0:
178,280,49642,1,0,0:0:0:0:
19,213,49792,1,8,0:0:0:0:
52,336,49942,1,0,0:0:0:0:
75,27,50092,6,0,B|54:117|54:117|89:321,1,300.000011444092,2|8,0:0|0:0,0:0:0:0:
56,34,50542,2,0,B|35:124|35:124|70:328,1,300.000011444092,2|0,0:0|0:0,0:0:0:0:
37,40,50992,1,8,0:0:0:0:
37,40,51292,6,0,P|129:105|179:91,1,150.000005722046
251,73,51592,2,0,P|202:17|130:11,1,150.000005722046,8|0,0:0|0:0,0:0:0:0:
185,195,51892,1,0,0:0:0:0:
275,217,52042,1,0,0:0:0:0:
158,100,52192,1,8,0:0:0:0:
213,289,52342,1,0,0:0:0:0:
399,73,52492,5,2,0:0:0:0:
431,163,52642,1,0,0:0:0:0:
337,145,52792,1,8,0:0:0:0:
403,48,52942,5,2,0:0:0:0:
450,179,53092,1,0,0:0:0:0:
312,153,53242,1,0,0:0:0:0:
408,23,53392,5,8,0:0:0:0:
469,196,53542,1,0,0:0:0:0:
197,143,53692,5,8,0:0:0:0:
216,111,53767,1,0,0:0:0:0:
216,74,53842,1,0,0:0:0:0:
197,42,53917,1,0,0:0:0:0:
164,24,53992,1,0,0:0:0:0:
127,26,54067,1,0,0:0:0:0:
97,46,54142,2,0,P|80:92|113:167,1,75.0000028610231,8|0,0:0|0:0,0:0:0:0:
213,289,54292,5,0,0:0:0:0:
232,292,54367,1,0,0:0:0:0:
250,295,54442,1,0,0:0:0:0:
269,298,54517,1,0,0:0:0:0:
287,302,54592,1,8,0:0:0:0:
306,305,54667,1,0,0:0:0:0:
324,308,54742,1,0,0:0:0:0:
343,311,54817,1,0,0:0:0:0:
361,315,54892,6,0,B|337:239|361:175|361:175|397:91|361:-1,1,300.000011444092,2|8,0:0|0:0,0:0:0:0:
381,321,55342,2,0,B|357:245|381:181|381:181|417:97|381:5,1,300.000011444092,2|0,0:0|0:0,0:0:0:0:
400,326,55792,1,8,0:0:0:0:
400,326,56092,6,0,B|329:357|329:357|233:327,1,150.000005722046
184,286,56392,2,0,B|254:254|254:254|350:284,1,150.000005722046,8|0,0:0|0:0,0:0:0:0:
476,376,56692,1,0,0:0:0:0:
332,355,56842,1,0,0:0:0:0:
512,295,56992,1,8,0:0:0:0:
358,217,57142,1,0,0:0:0:0:
51,381,57292,6,0,B|125:390|180:324|180:324|267:296|364:344,1,300.000011444092,2|8,0:0|0:0,0:0:0:0:
48,357,57742,2,0,B|122:366|177:300|177:300|264:272|361:320,1,300.000011444092,2|0,0:0|0:0,0:0:0:0:
39,334,58192,1,8,0:0:0:0:
39,334,58492,6,0,P|103:241|89:191,1,150.000005722046
65,117,58792,2,0,P|11:166|6:240,1,150.000005722046,8|0,0:0|0:0,0:0:0:0:
130,309,59092,1,0,0:0:0:0:
98,211,59242,1,0,0:0:0:0:
231,308,59392,1,8,0:0:0:0:
183,161,59542,1,0,0:0:0:0:
413,74,59692,6,0,P|339:152|376:51,1,300.000011444092,2|8,0:0|0:0,0:0:0:0:
405,85,60142,2,0,P|331:163|368:62,1,300.000011444092,2|0,0:0|0:0,0:0:0:0:
397,96,60592,1,8,0:0:0:0:
397,96,60892,6,0,B|411:140|411:140|402:248,1,150.000005722046
329,151,61192,2,0,B|315:107|315:107|323:3,1,150.000005722046,8|0,0:0|0:0,0:0:0:0:
492,138,61492,1,0,0:0:0:0:
402,243,61642,1,0,0:0:0:0:
137,148,61792,1,8,0:0:0:0:
137,148,62092,6,0,B|69:179|45:282|111:337|111:337|126:323|142:264,1,300.000011444092,2|8,0:0|0:0,0:0:0:0:
85,92,62542,2,0,P|12:178|31:358,1,300.000011444092,2|0,0:0|0:0,0:0:0:0:
179,248,62992,1,8,0:0:0:0:
179,248,63292,5,8,0:0:0:0:
183,235,63367,1,0,0:0:0:0:
187,222,63442,2,0,L|214:139,1,55.0000016784668
148,66,63592,5,8,0:0:0:0:
140,89,63667,1,0,0:0:0:0:
133,112,63742,2,0,L|106:195,1,59.9999981689454
351,118,63892,5,8,0:0:0:0:
317,107,63967,1,0,0:0:0:0:
283,96,64042,2,0,L|200:69,1,64.9999970245363
135,318,64192,5,8,0:0:0:0:
181,334,64267,1,0,0:0:0:0:
227,350,64342,2,0,L|310:377,1,69.9999978637696
422,207,64492,6,0,B|416:181|416:181|422:164|422:164|408:130|409:32,1,150.000005722046,2|0,0:0|0:0,0:0:0:0:
493,300,64792,1,8,0:0:0:0:
493,300,64942,1,0,0:0:0:0:
414,224,65092,2,0,B|408:198|408:198|414:181|414:181|400:147|401:49,1,150.000005722046,2|0,0:0|0:0,0:0:0:0:
384,322,65392,2,0,P|296:318|243:257,1,150.000005722046,10|0,0:0|0:0,0:0:0:0:
443,118,65692,1,0,0:0:0:0:
443,118,65842,1,0,0:0:0:0:
341,233,65992,2,0,B|307:248|307:248|256:253|256:253|196:279,1,150.000005722046,10|0,0:0|0:0,0:0:0:0:
41,256,66292,1,0,0:0:0:0:
41,256,66442,1,0,0:0:0:0:
225,183,66592,2,0,P|265:261|239:337,1,150.000005722046,10|0,0:0|0:0,0:0:0:0:
19,154,66892,6,0,B|53:143|93:150|93:150|128:132|168:60,1,150.000005722046,2|0,0:0|0:0,0:0:0:0:
27,18,67192,1,8,0:0:0:0:
36,168,67342,2,0,B|70:157|110:164|110:164|145:146|185:74,1,150.000005722046,2|0,0:0|0:0,0:0:0:0:
44,32,67642,1,0,0:0:0:0:
77,272,67792,2,0,P|141:330|222:325,1,150.000005722046,10|0,0:0|0:0,0:0:0:0:
307,219,68092,2,0,B|292:216|262:201|262:201|221:201|170:238,1,150.000005722046,2|0,0:0|0:0,0:0:0:0:
369,309,68392,1,8,0:0:0:0:
496,187,68542,1,0,0:0:0:0:
402,197,68692,1,0,0:0:0:0:
460,265,68842,1,0,0:0:0:0:
435,85,68992,1,10,0:0:0:0:
393,66,69067,1,0,0:0:0:0:
355,68,69142,1,0,0:0:0:0:
327,79,69217,1,0,0:0:0:0:
305,99,69292,6,0,P|231:137|122:102,1,150.000005722046,2|0,0:0|0:0,0:0:0:0:
41,70,69592,1,8,0:0:0:0:
41,70,69742,1,0,0:0:0:0:
317,113,69892,2,0,P|243:151|134:116,1,150.000005722046,2|0,0:0|0:0,0:0:0:0:
116,23,70192,2,0,B|129:69|129:69|118:103|118:103|93:196,1,150.000005722046,10|0,0:0|0:0,0:0:0:0:
55,290,70492,1,0,0:0:0:0:
55,290,70642,1,0,0:0:0:0:
36,137,70792,2,0,B|77:151|107:167|107:167|122:198|160:238,1,150.000005722046,10|0,0:0|0:0,0:0:0:0:
204,336,71092,1,0,0:0:0:0:
204,336,71242,1,0,0:0:0:0:
273,164,71392,2,0,L|300:315,1,150.000005722046,10|0,0:0|0:0,0:0:0:0:
430,68,71692,6,0,B|422:108|422:108|423:127|423:127|411:159|403:219,1,150.000005722046,2|0,0:0|0:0,0:0:0:0:
479,324,71992,1,8,0:0:0:0:
414,55,72142,2,0,B|406:95|406:95|407:114|407:114|395:146|387:206,1,150.000005722046,2|0,0:0|0:0,0:0:0:0:
463,311,72442,1,0,0:0:0:0:
242,231,72592,2,0,P|159:220|69:290,1,150.000005722046,10|0,0:0|0:0,0:0:0:0:
299,311,72892,5,2,0:0:0:0:
324,283,72967,1,0,0:0:0:0:
337,248,73042,1,0,0:0:0:0:
336,211,73117,1,0,0:0:0:0:
322,177,73192,1,8,0:0:0:0:
309,326,73492,5,0,0:0:0:0:
340,292,73567,1,0,0:0:0:0:
357,248,73642,1,0,0:0:0:0:
356,202,73717,1,0,0:0:0:0:
338,159,73792,1,8,0:0:0:0:
319,341,74092,6,0,B|286:364|286:364|262:359|262:359|224:368|155:352,1,150.000005722046,2|0,0:0|0:0,0:0:0:0:
101,248,74392,1,8,0:0:0:0:
101,248,74542,1,0,0:0:0:0:
328,355,74692,2,0,B|295:378|295:378|271:373|271:373|233:382|164:366,1,150.000005722046,2|0,0:0|0:0,0:0:0:0:
40,150,74992,2,0,P|122:139|212:209,1,150.000005722046,10|0,0:0|0:0,0:0:0:0:
233,282,75292,1,0,0:0:0:0:
233,282,75442,1,0,0:0:0:0:
31,288,75592,2,0,B|25:269|10:244|10:244|8:179|52:136,1,150.000005722046,10|0,0:0|0:0,0:0:0:0:
172,47,75892,1,0,0:0:0:0:
172,47,76042,1,0,0:0:0:0:
118,225,76192,1,10,0:0:0:0:
28,14,76342,1,0,0:0:0:0:
28,14,76417,1,0,0:0:0:0:
28,14,76492,6,0,B|13:61|13:61|33:173,1,150.000005722046,2|0,0:0|0:0,0:0:0:0:
129,231,76792,1,8,0:0:0:0:
12,23,76942,2,0,B|-2:70|-2:70|17:182,1,150.000005722046,2|0,0:0|0:0,0:0:0:0:
116,244,77242,1,0,0:0:0:0:
268,79,77392,2,0,P|200:49|127:61,1,150.000005722046,10|0,0:0|0:0,0:0:0:0:
13,293,77692,5,2,0:0:0:0:
21,305,77767,1,0,0:0:0:0:
30,316,77842,1,0,0:0:0:0:
45,331,77917,1,0,0:0:0:0:
64,343,77992,1,8,0:0:0:0:
92,353,78067,1,0,0:0:0:0:
121,354,78142,1,0,0:0:0:0:
158,348,78217,1,0,0:0:0:0:
189,328,78292,1,0,0:0:0:0:
218,294,78367,1,0,0:0:0:0:
230,249,78442,1,0,0:0:0:0:
241,205,78517,1,0,0:0:0:0:
268,170,78592,1,8,0:0:0:0:
307,148,78667,1,0,0:0:0:0:
351,142,78742,1,0,0:0:0:0:
395,153,78817,1,0,0:0:0:0:
430,180,78892,6,0,B|439:224|439:224|431:240|431:240|431:268|399:331,1,150.000005722046,2|0,0:0|0:0,0:0:0:0:
258,377,79192,1,8,0:0:0:0:
448,172,79342,2,0,B|457:216|457:216|449:232|449:232|449:260|417:323,1,150.000005722046,2|0,0:0|0:0,0:0:0:0:
276,369,79642,1,0,0:0:0:0:
222,171,79792,2,0,P|293:191|341:248,1,150.000005722046,10|0,0:0|0:0,0:0:0:0:
117,244,80092,6,0,B|118:198|118:198|109:172|109:172|117:149|90:86,1,150.000005722046,2|0,0:0|0:0,0:0:0:0:
95,366,80392,1,8,0:0:0:0:
137,244,80542,2,0,B|138:198|138:198|129:172|129:172|137:149|110:86,1,150.000005722046,2|0,0:0|0:0,0:0:0:0:
115,366,80842,1,0,0:0:0:0:
278,250,80992,2,0,P|208:224|136:243,1,150.000005722046,10|0,0:0|0:0,0:0:0:0:
312,327,81292,6,0,B|360:306|360:306|453:361,1,150.000005722046,2|0,0:0|0:0,0:0:0:0:
237,364,81592,1,8,0:0:0:0:
301,181,81742,1,0,0:0:0:0:
381,211,81892,1,0,0:0:0:0:
316,266,82042,1,0,0:0:0:0:
279,66,82192,1,8,0:0:0:0:
471,134,82342,1,0,0:0:0:0:
387,333,82492,5,0,0:0:0:0:
375,342,82567,1,0,0:0:0:0:
362,350,82642,1,0,0:0:0:0:
341,359,82717,1,0,0:0:0:0:
318,363,82792,1,8,0:0:0:0:
288,358,82867,1,0,0:0:0:0:
260,345,82942,1,0,0:0:0:0:
233,318,83017,1,0,0:0:0:0:
220,282,83092,1,0,0:0:0:0:
223,237,83167,1,0,0:0:0:0:
244,197,83242,1,0,0:0:0:0:
263,157,83317,1,0,0:0:0:0:
264,112,83392,1,8,0:0:0:0:
244,72,83467,1,0,0:0:0:0:
209,45,83542,1,0,0:0:0:0:
165,36,83617,1,0,0:0:0:0:
122,48,83692,5,0,0:0:0:0:
122,48,84892,5,0,0:0:0:0:
122,48,86092,5,0,0:0:0:0:
122,48,86167,1,0,0:0:0:0:
122,48,86242,1,0,0:0:0:0:
84,221,86392,1,8,0:0:0:0:
136,69,86842,1,0,0:0:0:0:
98,242,86992,1,8,0:0:0:0:
256,205,87292,5,0,0:0:0:0:
256,205,87367,1,0,0:0:0:0:
256,205,87442,1,0,0:0:0:0:
294,32,87592,1,8,0:0:0:0:
242,184,88042,1,0,0:0:0:0:
280,11,88192,1,8,0:0:0:0:
318,249,88492,5,0,0:0:0:0:
318,249,88567,1,0,0:0:0:0:
318,249,88642,1,0,0:0:0:0:
491,211,88792,1,8,0:0:0:0:
339,263,89242,1,0,0:0:0:0:
512,225,89392,1,8,0:0:0:0:
185,367,89692,5,0,0:0:0:0:
197,286,89842,1,0,0:0:0:0:
120,316,89992,1,8,0:0:0:0:
190,375,90142,5,0,0:0:0:0:
204,277,90292,1,0,0:0:0:0:
112,313,90442,1,0,0:0:0:0:
285,340,90592,1,8,0:0:0:0:
222,176,90742,1,0,0:0:0:0:
49,377,90892,5,0,0:0:0:0:
49,377,90967,1,0,0:0:0:0:
49,377,91042,1,0,0:0:0:0:
11,204,91192,1,8,0:0:0:0:
63,356,91642,1,0,0:0:0:0:
25,183,91792,1,8,0:0:0:0:
142,9,92092,5,0,0:0:0:0:
142,9,92167,1,0,0:0:0:0:
142,9,92242,1,0,0:0:0:0:
104,182,92392,1,8,0:0:0:0:
156,30,92842,1,0,0:0:0:0:
118,203,92992,1,8,0:0:0:0:
305,28,93292,5,0,0:0:0:0:
305,28,93367,1,0,0:0:0:0:
305,28,93442,1,0,0:0:0:0:
478,66,93592,1,8,0:0:0:0:
326,14,94042,1,0,0:0:0:0:
499,52,94192,1,8,0:0:0:0:
336,257,94492,5,0,0:0:0:0:
336,257,95692,5,0,0:0:0:0:
332,232,95767,1,0,0:0:0:0:
327,207,95842,1,0,0:0:0:0:
244,276,95992,2,0,B|239:299|239:299|236:330|236:330|223:392,1,100,8|0,0:0|0:0,0:0:0:0:
318,355,96292,2,0,B|322:331|322:331|325:300|325:300|339:239,1,100
208,191,96592,1,8,0:0:0:0:
244,276,96742,1,0,0:0:0:0:
172,106,96892,6,0,L|140:11,1,100
86,243,97192,1,8,0:0:0:0:
86,243,97492,1,0,0:0:0:0:
93,267,97567,1,0,0:0:0:0:
101,291,97642,1,0,0:0:0:0:
108,315,97717,1,0,0:0:0:0:
116,339,97792,1,8,0:0:0:0:
56,163,98092,5,0,0:0:0:0:
48,139,98167,1,0,0:0:0:0:
41,115,98242,1,0,0:0:0:0:
33,91,98317,1,0,0:0:0:0:
26,67,98392,2,0,B|46:42|46:42|135:10,1,100,8|0,0:0|0:0,0:0:0:0:
335,28,98692,2,0,B|315:53|315:53|226:85,1,100
109,18,98992,1,8,0:0:0:0:
199,3,99142,1,0,0:0:0:0:
144,208,99292,5,0,0:0:0:0:
95,36,99442,1,0,0:0:0:0:
170,233,99592,1,8,0:0:0:0:
109,18,99742,1,0,0:0:0:0:
60,162,99892,5,0,0:0:0:0:
232,113,100042,1,0,0:0:0:0:
42,148,100192,1,8,0:0:0:0:
257,87,100342,1,0,0:0:0:0:
19,226,100492,5,0,0:0:0:0:
14,251,100567,1,0,0:0:0:0:
10,275,100642,1,0,0:0:0:0:
114,188,100792,2,0,B|121:165|121:165|126:129|126:129|139:81,1,100,8|0,0:0|0:0,0:0:0:0:
41,128,101092,2,0,B|34:151|34:151|29:187|29:187|16:235,1,100
179,255,101392,1,8,0:0:0:0:
114,188,101542,1,0,0:0:0:0:
244,322,101692,6,0,L|321:389,1,100
210,158,101992,1,8,0:0:0:0:
210,158,102292,1,0,0:0:0:0:
186,166,102367,1,0,0:0:0:0:
162,173,102442,1,0,0:0:0:0:
138,181,102517,1,0,0:0:0:0:
114,188,102592,1,8,0:0:0:0:
209,65,102892,5,0,0:0:0:0:
233,57,102967,1,0,0:0:0:0:
257,50,103042,1,0,0:0:0:0:
281,42,103117,1,0,0:0:0:0:
305,35,103192,2,0,B|337:30|337:30|429:47,1,100,8|0,0:0|0:0,0:0:0:0:
308,165,103492,2,0,B|276:170|276:170|184:153,1,100
75,117,103792,1,8,0:0:0:0:
112,22,103942,1,0,0:0:0:0:
308,165,104092,5,0,0:0:0:0:
271,70,104242,1,0,0:0:0:0:
172,252,104392,1,8,0:0:0:0:
209,157,104542,1,0,0:0:0:0:
345,260,104692,5,8,0:0:0:0:
135,347,104842,1,0,0:0:0:0:
369,249,104992,1,8,0:0:0:0:
110,357,105142,1,0,0:0:0:0:
397,202,105292,5,8,0:0:0:0:
315,254,105442,1,0,0:0:0:0:
402,300,105592,1,0,0:0:0:0:
404,214,105742,5,8,0:0:0:0:
321,239,105892,1,0,0:0:0:0:
386,300,106042,1,0,0:0:0:0:
409,227,106192,5,8,0:0:0:0:
331,230,106342,1,0,0:0:0:0:
373,297,106492,1,0,0:0:0:0:
409,239,106642,5,8,0:0:0:0:
340,224,106792,1,0,0:0:0:0:
362,291,106942,1,0,0:0:0:0:
387,92,107092,5,8,0:0:0:0:
256,161,107242,1,0,0:0:0:0:
125,92,107392,1,0,0:0:0:0:
102,94,107467,1,0,0:0:0:0:
77,100,107542,1,0,0:0:0:0:
53,105,107617,1,0,0:0:0:0:
28,110,107692,5,8,0:0:0:0:
59,254,107842,1,0,0:0:0:0:
59,254,107992,1,0,0:0:0:0:
169,156,108142,5,8,0:0:0:0:
29,109,108292,1,0,0:0:0:0:
29,109,108442,1,0,0:0:0:0:
59,254,108592,5,8,0:0:0:0:
169,156,108742,1,0,0:0:0:0:
169,156,108892,1,0,0:0:0:0:
28,110,109042,5,8,0:0:0:0:
59,254,109192,1,0,0:0:0:0:
59,254,109342,1,0,0:0:0:0:
211,68,109492,5,0,0:0:0:0:
231,82,109567,1,0,0:0:0:0:
247,101,109642,1,0,0:0:0:0:
258,123,109717,1,0,0:0:0:0:
264,148,109792,2,0,P|268:190|257:236,3,50
238,153,110092,5,8,0:0:0:0:
213,157,110167,1,0,0:0:0:0:
188,162,110242,1,0,0:0:0:0:
164,166,110317,1,0,0:0:0:0:
139,171,110392,2,0,L|56:183,1,50
309,205,110542,5,8,0:0:0:0:
334,201,110617,1,0,0:0:0:0:
359,196,110692,1,0,0:0:0:0:
383,191,110767,1,0,0:0:0:0:
408,187,110842,2,0,L|457:179,1,50
267,298,110992,5,8,0:0:0:0:
242,302,111067,1,0,0:0:0:0:
217,307,111142,1,0,0:0:0:0:
193,311,111217,1,0,0:0:0:0:
168,316,111292,2,0,L|85:328,1,50
338,350,111442,5,8,0:0:0:0:
363,346,111517,1,0,0:0:0:0:
388,341,111592,1,0,0:0:0:0:
412,336,111667,1,0,0:0:0:0:
437,332,111742,2,0,L|486:324,1,50
457,179,111892,5,8,0:0:0:0:
457,179,111967,1,0,0:0:0:0:
457,179,112042,2,0,L|438:132,1,50
309,205,112192,5,8,0:0:0:0:
309,205,112267,1,0,0:0:0:0:
309,205,112342,2,0,L|290:251,1,50
161,179,112492,5,8,0:0:0:0:
151,155,112567,1,0,0:0:0:0:
148,131,112642,1,0,0:0:0:0:
152,106,112717,1,0,0:0:0:0:
161,83,112792,2,0,P|176:63|205:37,1,50
375,95,112942,5,8,0:0:0:0:
359,114,113017,1,0,0:0:0:0:
339,129,113092,1,0,0:0:0:0:
316,139,113167,1,0,0:0:0:0:
291,143,113242,2,0,P|266:140|229:127,1,50
292,47,113392,5,8,0:0:0:0:
316,50,113467,1,0,0:0:0:0:
339,60,113542,1,0,0:0:0:0:
359,75,113617,1,0,0:0:0:0:
375,95,113692,2,0,P|384:117|392:156,1,50
257,274,113842,5,8,0:0:0:0:
249,250,113917,1,0,0:0:0:0:
246,226,113992,1,0,0:0:0:0:
249,201,114067,1,0,0:0:0:0:
258,177,114142,2,0,P|272:157|302:131,1,50
476,88,114292,5,8,0:0:0:0:
467,137,114367,1,0,0:0:0:0:
458,186,114442,1,0,0:0:0:0:
449,235,114517,1,0,0:0:0:0:
441,284,114592,1,0,0:0:0:0:
440,288,114667,1,0,0:0:0:0:
439,293,114742,1,0,0:0:0:0:
438,298,114817,1,0,0:0:0:0:
437,303,114892,5,8,0:0:0:0:
424,302,115192,1,0,0:0:0:0:
411,301,115492,1,0,0:0:0:0:
397,301,115792,1,0,0:0:0:0:
384,300,116092,1,0,0:0:0:0:
371,299,116392,1,0,0:0:0:0:
357,299,116692,1,0,0:0:0:0:
344,298,116992,1,0,0:0:0:0:
344,298,117292,5,8,0:0:0:0:
371,203,117442,1,0,0:0:0:0:
439,275,117592,1,0,0:0:0:0:
275,227,117742,1,8,0:0:0:0:
467,179,117892,1,0,0:0:0:0:
411,371,118042,1,0,0:0:0:0:
351,119,118192,1,8,0:0:0:0:
349,131,118267,1,0,0:0:0:0:
348,143,118342,1,0,0:0:0:0:
347,156,118417,1,0,0:0:0:0:
346,168,118492,5,8,0:0:0:0:
310,155,118567,1,0,0:0:0:0:
285,129,118642,1,0,0:0:0:0:
274,93,118717,1,0,0:0:0:0:
281,57,118792,1,0,0:0:0:0:
305,28,118867,1,0,0:0:0:0:
338,12,118942,1,0,0:0:0:0:
376,15,119017,1,0,0:0:0:0:
407,34,119092,5,8,0:0:0:0:
407,34,119692,6,0,B|396:147|396:147|440:192|440:192|422:367,1,300.000011444092,2|8,0:0|0:0,0:0:0:0:
392,54,120142,2,0,B|380:166|380:166|424:211|424:211|406:386,1,300.000011444092,2|0,0:0|0:0,0:0:0:0:
376,73,120592,1,8,0:0:0:0:
375,72,120892,6,0,P|306:48|240:79,1,150.000005722046
174,151,121192,2,0,P|244:175|310:143,1,150.000005722046,8|0,0:0|0:0,0:0:0:0:
