osu file format v14

[General]
AudioFilename: audio.mp3
AudioLeadIn: 0
PreviewTime: 66116
Countdown: 0
SampleSet: Soft
StackLeniency: 0.7
Mode: 0
LetterboxInBreaks: 0
WidescreenStoryboard: 1

[Editor]
DistanceSpacing: 0.9
BeatDivisor: 4
GridSize: 32
TimelineZoom: 3.199999

[Metadata]
Title:Sacrifice (Short Ver.)
TitleUnicode:Sacrifice (Short Ver.)
Artist:Ouse Akira
ArtistUnicode:逢瀬アキラ
Creator:Saggin
Version:kotachi's Extra
Source:ふゆから​、くるる。
Tags:シルキーズプラス silky's plus eroge visual novel vn japanese rock jrock j-rock video game videogame opening op ふゆくる fuyukuru _kotachi_ -brethia miyohashikoori sanairrt hoto cocoa lude interlude- -atri- kurantemelodii firis mistlud heto
BeatmapID:3190144
BeatmapSetID:1560037

[Difficulty]
HPDrainRate:5
CircleSize:3.8
OverallDifficulty:9
ApproachRate:9.5
SliderMultiplier:1.76
SliderTickRate:1

[Events]
//Background and Video events
0,0,"bg4.jpg",0,0
//Break Periods
//Storyboard Layer 0 (Background)
//Storyboard Layer 1 (Fail)
//Storyboard Layer 2 (Pass)
//Storyboard Layer 3 (Foreground)
//Storyboard Layer 4 (Overlay)
//Storyboard Sound Samples

[TimingPoints]
1061,285.714285714286,4,2,1,40,1,0
5632,-133.333333333333,4,2,1,45,0,0
6346,-200,4,2,1,45,0,0
6632,-133.333333333333,4,2,1,45,0,0
10203,-100,4,2,1,45,0,0
12489,-222.222222222222,4,2,1,45,0,0
14703,-222.222222222222,4,2,1,5,0,0
14775,-200,4,2,1,45,0,0
15918,-100,4,2,1,45,0,0
16489,-100,4,2,1,50,0,0
16632,-83.3333333333333,4,2,1,50,0,0
16775,-71.4285714285714,4,2,1,50,0,0
16918,-76.9230769230769,4,2,1,60,0,0
17346,-95.2380952380952,4,2,1,60,0,0
24918,-83.3333333333333,4,2,1,60,0,0
25775,-111.111111111111,4,2,1,60,0,0
26203,-133.333333333333,4,2,1,60,0,0
26489,-133.333333333333,4,2,1,40,0,0
28418,-133.333333333333,4,2,1,5,0,0
28489,-133.333333333333,4,2,1,40,0,0
30703,-133.333333333333,4,2,1,5,0,0
30775,-133.333333333333,4,2,1,40,0,0
33061,-105.263157894737,4,2,1,40,0,0
33489,-117.647058823529,4,2,1,40,0,0
33918,-133.333333333333,4,2,1,40,0,0
34918,-250,4,2,1,40,0,0
35346,-100,4,2,1,40,0,0
35561,-100,4,2,1,5,0,0
35632,-100,4,2,1,50,0,0
39846,-100,4,2,1,5,0,0
39918,-100,4,2,1,50,0,0
40418,-100,4,2,1,5,0,0
40489,-100,4,2,1,50,0,0
43918,-83.3333333333333,4,2,1,50,0,0
44489,-111.111111111111,4,2,1,50,0,0
47989,-111.111111111111,4,2,1,5,0,0
48061,-111.111111111111,4,2,1,50,0,0
53632,-100,4,2,1,50,0,0
55846,-100,4,2,1,5,0,0
55918,-100,4,2,1,50,0,0
58203,-100,4,2,1,60,0,0
60489,-83.3333333333333,4,2,1,60,0,0
62775,-83.3333333333333,4,2,1,30,0,0
64965,-83.3333333333333,4,2,1,40,0,0
65061,-100,4,2,1,40,0,0
66061,-100,4,2,1,60,0,0
66275,-100,4,2,1,5,0,0
66346,-100,4,2,1,60,0,0
66918,-200,4,2,1,60,0,0
67275,-200,4,2,1,5,0,0
67346,-90.9090909090909,4,2,1,70,0,1
67561,-90.9090909090909,4,2,1,5,0,1
67632,-90.9090909090909,4,2,1,70,0,1
69703,-90.9090909090909,4,2,1,5,0,1
69775,-90.9090909090909,4,2,1,70,0,1
70846,-90.9090909090909,4,2,1,5,0,1
70918,-90.9090909090909,4,2,1,70,0,1
72061,-90.9090909090909,4,2,1,5,0,1
72132,-90.9090909090909,4,2,1,70,0,1
72275,-90.9090909090909,4,2,1,5,0,1
72346,-90.9090909090909,4,2,1,70,0,1
72418,-90.9090909090909,4,2,1,5,0,1
72489,-90.9090909090909,4,2,1,70,0,1
72846,-90.9090909090909,4,2,1,5,0,1
72918,-90.9090909090909,4,2,1,70,0,1
72989,-90.9090909090909,4,2,1,5,0,1
73061,-90.9090909090909,4,2,1,70,0,1
73203,-90.9090909090909,4,2,1,5,0,1
73275,-90.9090909090909,4,2,1,70,0,1
73418,-90.9090909090909,4,2,1,5,0,1
73489,-90.9090909090909,4,2,1,70,0,1
73561,-90.9090909090909,4,2,1,5,0,1
73632,-90.9090909090909,4,2,1,70,0,1
73989,-90.9090909090909,4,2,1,5,0,1
74061,-90.9090909090909,4,2,1,70,0,1
74132,-90.9090909090909,4,2,1,5,0,1
74203,-90.9090909090909,4,2,1,70,0,1
75918,-50,4,2,1,70,0,1
76132,-50,4,2,1,5,0,1
76203,-200,4,2,1,70,0,1
76418,-200,4,2,1,5,0,1
76489,-90.9090909090909,4,2,1,70,0,1
76703,-90.9090909090909,4,2,1,5,0,1
76775,-90.9090909090909,4,2,1,70,0,1
83418,-90.9090909090909,4,2,1,5,0,1
83489,-90.9090909090909,4,2,1,70,0,1
87346,-200,4,2,1,70,0,1
87775,-95.2380952380952,4,2,1,60,0,0
98489,-166.666666666667,4,2,1,60,0,0
99061,-166.666666666667,4,2,1,5,0,0

[Colours]
Combo1 : 251,171,157
Combo2 : 176,245,255
Combo3 : 102,171,255
Combo4 : 254,112,230
Combo5 : 9,234,217
Combo6 : 247,221,43
Combo7 : 236,168,253

[HitObjects]
487,147,5632,6,0,B|441:109|380:121|347:172|386:197|335:250|263:226,1,264.000010070801,4|0,0:0|0:0,0:0:0:0:
115,142,6346,6,0,P|149:137|185:130,1,66
313,57,6632,6,0,B|234:2|234:2|252:106|252:106|261:115|261:115|256:126|256:126|274:247,1,330.000012588501,4|0,0:0|0:0,0:0:0:0:
433,308,7489,5,0,0:0:0:0:
438,209,7632,1,8,0:0:0:0:
283,313,7775,6,0,B|200:288|200:288|184:207|184:207|86:178,1,264.000010070801,4|0,0:0|0:0,0:0:0:0:
271,129,8489,5,8,0:0:0:0:
112,272,8632,1,0,1:0:0:0:
283,313,8775,1,0,1:0:0:0:
166,54,8918,6,0,L|175:119,1,66.0000025177003,4|0,0:0|0:0,0:0:0:0:
347,204,9203,2,0,L|356:138,1,66.0000025177003,8|0,0:0|1:0,0:0:0:0:
112,272,9489,2,0,P|163:232|233:250,1,132.000005035401,0|0,1:0|1:0,0:0:0:0:
283,313,9846,1,0,1:0:0:0:
283,313,9918,2,0,P|250:319|218:326,1,66.0000025177003,8|0,0:0|0:0,0:0:0:0:
357,139,10203,5,2,1:2:0:0:
378,142,10274,1,0,1:2:0:0:
400,146,10345,1,0,1:2:0:0:
422,149,10417,1,0,1:2:0:0:
443,153,10488,1,0,1:2:0:0:
465,156,10560,1,0,1:2:0:0:
487,160,10632,2,0,L|495:115,1,44,2|0,1:2|1:2,1:2:0:0:
333,38,10775,5,2,1:2:0:0:
294,57,10846,1,0,1:2:0:0:
266,90,10917,1,0,1:2:0:0:
255,132,10989,1,0,1:2:0:0:
262,175,11060,1,0,1:2:0:0:
286,212,11132,1,0,1:2:0:0:
323,235,11203,2,0,L|372:243,1,44,2|0,1:2|1:2,0:0:0:0:
218,326,11346,5,0,1:2:0:0:
218,326,11418,1,0,1:2:0:0:
218,326,11489,2,0,P|197:329|163:336,1,44,0|0,1:2|1:2,0:0:0:0:
55,198,11632,1,10,0:2:0:0:
55,198,11704,1,0,1:2:0:0:
55,198,11775,2,0,P|81:202|110:208,1,44,2|0,1:2|1:2,1:2:0:0:
184,51,11918,5,10,0:2:0:0:
184,51,11990,1,0,1:2:0:0:
184,51,12061,2,0,P|180:77|173:106,1,44,2|0,1:2|1:2,1:2:0:0:
175,241,12203,2,0,P|199:231|227:222,1,44,10|0,0:2|1:2,0:0:0:0:
340,144,12346,2,0,P|319:127|297:107,1,44,2|0,1:2|1:2,0:0:0:0:
340,309,12489,6,0,B|371:358|425:359|476:342|498:275|473:220|412:204|412:204|365:165|351:90|397:37|397:37|472:67|453:144,1,593.999981872559,6|0,1:2|0:0,0:0:0:0:
289,214,14775,6,0,B|260:169|205:142|143:155|105:183|105:183|100:120|148:96,1,308,2|0,0:0|0:0,0:0:0:0:
318,23,15918,5,8,0:0:0:0:
343,59,15989,1,8,0:0:0:0:
351,102,16060,1,8,0:0:0:0:
341,144,16132,1,8,0:0:0:0:
316,180,16203,1,0,1:0:0:0:
289,214,16275,1,0,1:0:0:0:
279,257,16347,1,0,1:0:0:0:
288,300,16418,1,0,1:0:0:0:
313,336,16489,6,0,L|366:326,1,44,8|0,0:0|0:0,0:0:0:0:
482,185,16632,6,0,L|430:196,1,52.7999983886719,8|0,0:0|0:0,0:0:0:0:
178,115,16775,6,0,L|238:102,1,61.5999981201172,8|0,0:0|0:0,0:0:0:0:
491,31,16918,6,0,P|372:52|344:161,1,228.799989526368,6|0,1:2|1:0,0:0:0:0:
446,359,17346,2,0,P|452:310|458:262,1,92.3999971801759,8|0,0:0|0:0,0:0:0:0:
478,168,17632,1,0,1:0:0:0:
269,304,17775,2,0,P|318:313|361:324,1,92.3999971801759,0|8,1:0|0:0,0:0:0:0:
233,89,18061,6,0,P|160:92|89:170,1,184.799994360352,2|0,1:2|1:0,0:0:0:0:
199,364,18489,1,8,0:0:0:0:
258,173,18632,1,0,0:0:0:0:
103,284,18775,1,0,1:0:0:0:
351,235,18918,2,0,P|344:186|339:138,1,92.3999971801759,0|8,1:0|0:0,0:0:0:0:
190,0,19203,6,0,P|180:91|170:183,1,184.799994360352,6|0,1:2|1:0,0:0:0:0:
399,71,19632,2,0,P|356:53|311:56,1,92.3999971801759,8|0,0:0|0:0,0:0:0:0:
453,153,19918,1,0,1:0:0:0:
257,198,20061,1,0,1:0:0:0:
473,148,20203,1,8,0:0:0:0:
276,318,20346,6,0,B|175:339|210:260|102:283,1,184.799994360352,6|0,1:2|1:0,0:0:0:0:
6,324,20775,1,8,0:0:0:0:
169,183,20918,1,0,0:0:0:0:
31,108,21061,1,0,1:0:0:0:
102,283,21203,1,2,1:2:0:0:
102,283,21275,1,2,0:0:0:0:
102,283,21346,1,10,0:0:0:0:
276,184,21489,1,2,0:0:0:0:
177,15,21632,6,0,B|139:63|139:63|171:193,1,184.799994360352,4|8,1:2|0:0,0:0:0:0:
396,233,22061,1,0,0:0:0:0:
215,302,22203,1,0,1:0:0:0:
288,92,22346,2,0,P|280:148|274:195,1,92.3999971801759,0|8,1:0|0:0,0:0:0:0:
67,336,22632,6,0,B|81:288|136:276|136:276|172:314|216:302,1,184.799994360352,2|0,1:2|1:0,0:0:0:0:
442,240,23061,2,0,P|394:234|350:227,1,92.3999971801759,8|0,0:0|0:0,0:0:0:0:
426,330,23346,1,0,1:0:0:0:
408,132,23489,1,0,1:0:0:0:
301,301,23632,1,8,0:0:0:0:
188,94,23775,6,0,B|71:103|134:169|21:177,1,184.799994360352,6|0,1:2|1:0,0:0:0:0:
260,208,24203,1,8,0:0:0:0:
145,254,24346,1,0,0:0:0:0:
145,254,24418,1,0,0:0:0:0:
145,254,24489,1,0,1:0:0:0:
323,126,24632,1,0,1:0:0:0:
133,22,24775,1,8,0:0:0:0:
360,208,24918,6,0,B|422:135|505:168|505:168|465:227,1,211.199993554688,6|0,1:2|0:0,0:0:0:0:
359,358,25346,1,8,0:0:0:0:
222,126,25489,2,0,P|232:176|243:233,1,105.599996777344,8|0,0:0|1:0,0:0:0:0:
476,71,25775,6,0,P|415:79|365:-1,1,158.399995166016,10|0,0:0|0:0,0:0:0:0:
360,209,26203,5,0,1:0:0:0:
360,209,26489,2,0,P|364:172|369:137,1,66.0000025177003,2|0,1:2|0:0,0:0:0:0:
269,22,26775,2,0,B|193:13|215:62|139:53,1,132.000005035401,2|0,1:2|1:0,0:0:0:0:
55,107,27203,2,0,P|49:74|42:40,1,66.0000025177003,2|0,0:0|1:0,0:0:0:0:
171,135,27489,1,2,0:0:0:0:
36,203,27632,2,0,P|71:192|114:186,1,66.0000025177003,2|2,1:2|0:0,0:0:0:0:
212,253,27918,5,2,1:2:0:0:
190,341,28061,1,2,0:0:0:0:
342,231,28203,2,0,P|287:242|193:255,1,132.000005035401,2|2,1:2|1:2,0:0:0:0:
212,253,28775,6,0,P|216:213|221:184,1,66.0000025177003,2|0,1:2|0:0,0:0:0:0:
282,17,29061,2,0,P|292:69|303:150,1,132.000005035401,2|0,1:2|1:0,0:0:0:0:
452,100,29489,2,0,P|420:97|387:90,1,66.0000025177003,2|0,0:0|1:0,0:0:0:0:
342,231,29775,1,2,0:0:0:0:
433,192,29918,1,2,1:2:0:0:
332,235,30061,1,2,0:0:0:0:
471,339,30203,5,2,1:2:0:0:
311,317,30346,1,2,0:0:0:0:
481,341,30489,2,0,P|504:294|487:245,1,99.0000037765504,2|0,1:2|0:0,0:0:0:0:
433,192,30775,5,0,1:2:0:0:
433,192,31061,2,0,B|423:175|423:175|429:109,1,66.0000025177003,2|0,1:2|0:0,0:0:0:0:
304,31,31346,2,0,B|231:20|256:74|178:67,1,132.000005035401,2|0,1:2|1:0,0:0:0:0:
66,33,31775,2,0,P|74:65|78:98,1,66.0000025177003,2|0,0:0|1:2,0:0:0:0:
85,197,32061,1,2,0:0:0:0:
182,67,32203,2,0,P|186:34|194:2,1,66.0000025177003,2|2,1:2|0:0,0:0:0:0:
252,175,32489,6,0,P|216:169|181:166,1,66.0000025177003,2|2,1:2|0:0,0:0:0:0:
85,197,32775,1,2,1:2:0:0:
160,264,32918,1,2,0:0:0:0:
312,63,33061,6,0,P|363:50|437:141,1,167.199995535278,2|0,1:2|1:0,0:0:0:0:
274,341,33489,6,0,P|270:303|265:264,1,74.8000014266968,2|0,0:0|1:0,0:0:0:0:
252,175,33775,1,0,0:0:0:0:
477,279,33918,6,0,B|405:291|427:236|341:252,1,132.000005035401,2|0,1:2|1:0,0:0:0:0:
160,264,34346,5,10,0:0:0:0:
361,163,34489,1,10,0:0:0:0:
178,88,34632,5,10,0:0:0:0:
359,173,34775,1,2,1:2:0:0:
83,63,34918,6,0,P|91:98|94:133,1,70.4,10|8,0:0|0:0,0:0:0:0:
86,215,35275,1,8,0:0:0:0:
86,215,35346,6,0,P|45:207|0:204,1,88,0|0,1:2|0:0,0:0:0:0:
159,360,35632,2,0,B|153:314|153:314|173:265,1,88,8|0,0:0|0:0,0:0:0:0:
365,141,35918,2,0,B|267:124|297:189|200:183,1,176,2|8,1:2|0:0,0:0:0:0:
370,257,36346,6,0,P|416:271|457:287,1,88,2|0,0:0|1:0,0:0:0:0:
305,326,36632,1,2,0:0:0:0:
444,193,36775,1,8,0:0:0:0:
318,56,36918,1,2,0:0:0:0:
370,257,37061,1,2,1:2:0:0:
454,110,37203,1,2,0:0:0:0:
283,241,37346,2,0,P|219:239|203:173,1,132,8|0,0:0|0:0,0:0:0:0:
291,75,37632,6,0,P|283:129|278:174,1,88,0|0,1:2|0:0,0:0:0:0:
84,137,37918,2,0,P|116:109|160:106,1,88,10|0,0:0|0:0,0:0:0:0:
305,326,38203,2,0,P|227:335|126:351,1,176,2|8,1:2|0:0,0:0:0:0:
29,224,38632,6,0,P|41:267|51:311,1,88,2|0,0:0|1:0,0:0:0:0:
199,182,38918,1,2,0:0:0:0:
66,124,39061,1,10,0:0:0:0:
204,197,39203,1,2,0:0:0:0:
220,15,39346,1,2,1:2:0:0:
119,230,39489,1,2,0:0:0:0:
301,162,39632,2,0,B|373:150|352:199|430:189,1,132,8|0,0:0|0:0,0:0:0:0:
494,90,39918,6,0,B|450:81|450:81|403:104,1,88,2|0,1:2|0:0,0:0:0:0:
413,276,40203,2,0,P|420:221|426:187,1,88,8|0,0:0|0:0,0:0:0:0:
492,336,40489,1,0,1:0:0:0:
322,278,40632,2,0,P|278:283|235:293,1,88,2|8,0:0|0:0,0:0:0:0:
94,179,40918,5,2,0:0:0:0:
94,179,40989,1,0,0:0:0:0:
94,179,41061,2,0,P|150:183|190:188,1,88
366,27,41346,2,0,P|306:20|254:79,1,132,10|0,0:0|0:0,0:0:0:0:
259,77,41632,2,0,P|264:125|271:186,1,88,2|0,1:2|0:0,0:0:0:0:
455,255,41918,2,0,P|461:212|469:169,1,88,10|0,0:0|0:0,0:0:0:0:
368,365,42203,6,0,P|363:280|355:177,1,176,2|8,1:2|0:0,0:0:0:0:
465,264,42632,1,2,0:0:0:0:
279,296,42775,2,0,P|232:304|177:317,1,88,0|0,1:0|0:0,0:0:0:0:
57,152,43061,2,0,B|138:147|111:188|183:186,1,132,10|0,0:0|0:0,0:0:0:0:
268,164,43346,5,0,1:0:0:0:
76,254,43489,1,10,0:0:0:0:
168,21,43632,2,0,P|175:74|180:114,1,88,10|0,0:0|0:0,0:0:0:0:
368,365,43918,6,0,B|384:315|384:315|360:260,1,105.599996777344,10|0,0:0|0:0,0:0:0:0:
199,327,44203,1,10,0:0:0:0:
268,164,44346,1,8,0:0:0:0:
268,164,44418,1,8,0:0:0:0:
268,164,44489,1,2,1:2:0:0:
278,178,44775,6,0,P|280:142|286:97,1,79.1999975830079,8|0,0:0|0:0,0:0:0:0:
326,13,45061,1,0,1:0:0:0:
326,13,45203,1,0,1:0:0:0:
184,119,45346,5,2,1:2:0:0:
380,90,45489,1,10,0:0:0:0:
281,271,45632,5,2,1:2:0:0:
290,279,45918,1,8,0:0:0:0:
197,259,46061,1,0,0:0:0:0:
110,297,46203,1,0,1:0:0:0:
20,264,46346,1,0,1:0:0:0:
12,169,46489,1,10,0:0:0:0:
77,98,46632,1,0,0:0:0:0:
268,183,46775,5,2,1:2:0:0:
268,183,46918,2,0,P|309:174|351:168,2,79.1999975830079,2|8|2,0:0|0:0|0:0,0:0:0:0:
177,242,47346,1,2,1:2:0:0:
297,345,47489,2,0,P|300:303|304:256,1,79.1999975830079,2|0,1:2|1:0,0:0:0:0:
170,59,47775,6,0,P|173:98|176:137,1,79.1999975830079,10|0,0:0|0:0,0:0:0:0:
345,168,48061,1,2,0:0:0:0:
277,94,48203,1,8,0:0:0:0:
337,19,48346,1,2,0:0:0:0:
242,186,48489,5,2,1:2:0:0:
402,87,48632,1,2,1:2:0:0:
170,59,48775,2,0,B|119:54|119:54|105:44|105:44|51:39,1,118.799996374512,10|0,0:0|0:0,0:0:0:0:
73,135,49061,5,6,1:2:0:0:
81,145,49346,2,0,P|75:184|71:223,1,79.1999975830079,8|0,0:0|0:0,0:0:0:0:
95,328,49632,1,0,1:0:0:0:
173,256,49775,1,0,1:0:0:0:
258,348,49918,5,2,1:2:0:0:
208,162,50061,1,10,0:0:0:0:
371,280,50203,5,2,1:2:0:0:
380,290,50489,1,8,0:0:0:0:
426,207,50632,1,0,0:0:0:0:
385,122,50774,1,0,1:0:0:0:
295,90,50917,1,2,1:2:0:0:
213,138,51060,1,10,0:0:0:0:
122,110,51203,1,0,0:0:0:0:
202,9,51346,5,2,1:2:0:0:
141,206,51489,1,2,0:0:0:0:
141,206,51632,2,0,P|101:201|54:197,1,79.1999975830079,10|2,0:0|0:0,0:0:0:0:
197,298,51918,1,2,1:2:0:0:
197,298,52061,1,2,1:2:0:0:
213,138,52203,1,2,1:2:0:0:
119,314,52346,6,0,P|164:303|196:298,1,79.1999975830079,10|0,0:0|0:0,0:0:0:0:
375,263,52632,1,2,0:0:0:0:
277,234,52775,1,10,0:0:0:0:
301,341,52918,1,2,0:0:0:0:
355,157,53061,5,2,1:2:0:0:
196,297,53203,1,2,1:2:0:0:
196,297,53275,1,0,0:0:0:0:
196,297,53346,2,0,B|193:244|193:244|184:228|184:228|178:168,1,118.799996374512,10|0,0:0|0:0,0:0:0:0:
164,79,53632,6,0,P|101:64|32:158,2,176,6|8|0,1:2|0:0|1:0,0:0:0:0:
275,210,54346,1,0,1:0:0:0:
272,33,54489,2,0,P|262:76|254:124,1,88,10|2,0:0|0:0,0:0:0:0:
411,248,54775,6,0,B|347:259|347:259|318:291|318:291|240:305,1,176,2|8,1:2|0:0,0:0:0:0:
275,210,55203,1,0,0:0:0:0:
401,335,55346,2,0,P|404:293|411:247,1,88,0|0,1:0|1:0,0:0:0:0:
460,117,55632,2,0,P|410:105|332:150,1,132,10|0,0:0|0:0,0:0:0:0:
275,210,55918,6,0,B|231:198|192:223|192:223|172:183|120:169,1,176,2|8,1:2|0:0,0:0:0:0:
213,36,56346,2,0,P|219:83|225:135,1,88,2|0,0:0|1:0,0:0:0:0:
249,295,56632,1,0,1:0:0:0:
340,138,56775,6,0,P|424:131|487:197,1,176,8|0,0:0|1:0,0:0:0:0:
401,335,57203,2,0,P|407:288|413:236,1,88,2|8,0:0|0:0,0:0:0:0:
249,295,57489,1,0,0:0:0:0:
340,138,57632,2,0,P|334:181|327:233,1,88,0|0,1:0|1:0,0:0:0:0:
386,40,57918,1,8,0:0:0:0:
223,123,58061,5,8,0:0:0:0:
223,123,58132,1,8,0:0:0:0:
223,123,58203,1,6,1:2:0:0:
411,247,58346,1,2,0:0:0:0:
249,295,58489,5,10,0:0:0:0:
432,152,58632,1,2,1:2:0:0:
264,16,58775,5,10,0:0:0:0:
328,225,58918,1,0,1:0:0:0:
151,75,59061,5,10,0:0:0:0:
114,290,59203,1,2,1:2:0:0:
339,114,59346,5,8,0:0:0:0:
84,199,59489,1,0,1:2:0:0:
341,234,59632,5,10,0:0:0:0:
132,62,59775,1,0,1:2:0:0:
367,17,59918,5,10,0:0:0:0:
249,295,60061,1,2,1:2:0:0:
251,22,60203,5,8,0:0:0:0:
474,238,60346,1,0,1:0:0:0:
189,201,60489,5,8,0:0:0:0:
450,37,60632,2,0,P|442:89|436:141,1,105.599996777344,8|0,0:0|1:0,0:0:0:0:
318,100,60918,5,8,0:0:0:0:
346,363,61061,2,0,P|338:310|332:258,1,105.599996777344,8|0,0:0|1:0,0:0:0:0:
189,201,61346,5,8,0:0:0:0:
407,221,61489,2,0,L|516:230,1,105.599996777344,8|0,0:0|1:0,0:0:0:0:
249,295,61775,5,8,0:0:0:0:
323,47,61918,1,8,0:0:0:0:
323,47,61989,1,8,0:0:0:0:
323,47,62061,2,0,L|317:102,1,52.7999983886719,8|8,0:0|0:0,0:0:0:0:
189,201,62203,5,8,0:0:0:0:
150,194,62274,1,8,0:0:0:0:
119,170,62345,1,8,0:0:0:0:
102,134,62417,1,8,0:0:0:0:
105,95,62488,1,0,1:0:0:0:
125,62,62560,1,0,1:0:0:0:
159,41,62631,1,0,1:0:0:0:
198,39,62703,1,0,1:0:0:0:
233,55,62774,1,2,1:2:0:0:
385,210,64918,5,0,0:0:0:0:
385,210,64989,1,0,0:0:0:0:
385,210,65061,2,0,P|414:203|444:200,2,58.6666666666667,10|2|2,0:0|0:0|0:0,0:0:0:0:
284,169,65346,2,0,P|255:176|225:179,2,58.6666666666667,2|2|2,0:0|0:0|1:2,0:0:0:0:
357,112,65632,6,0,P|359:83|362:54,1,58.6666666666667,10|2,0:0|0:0,0:0:0:0:
299,259,65822,5,2,0:0:0:0:
300,271,65918,2,0,P|302:300|304:322,1,44,2|0,1:2|0:0,0:0:0:0:
233,55,66061,5,4,1:2:0:0:
233,55,66346,5,8,0:0:0:0:
442,200,66489,1,8,0:0:0:0:
137,280,66632,1,8,0:0:0:0:
131,289,66918,5,2,1:2:0:0:
284,169,67061,2,0,P|280:203|276:237,1,66,2|0,1:2|0:0,0:0:0:0:
283,62,67346,6,0,B|217:77|217:77|182:116|182:116|111:131,1,193.600005908203,6|10,1:2|0:0,0:0:0:0:
284,169,67775,1,0,0:0:0:0:
124,29,67918,1,2,1:2:0:0:
292,177,68061,2,0,P|341:182|398:192,1,96.8000029541017,2|8,1:2|0:0,0:0:0:0:
203,371,68346,6,0,P|158:307|188:199,1,193.600005908203,2|0,1:2|1:0,0:0:0:0:
392,291,68775,2,0,P|343:295|296:303,1,96.8000029541017,10|0,0:0|0:0,0:0:0:0:
426,64,69061,1,2,1:2:0:0:
292,177,69203,1,2,1:2:0:0:
481,238,69346,1,8,0:0:0:0:
328,73,69489,6,0,P|250:70|200:114,1,145.200004431152,2|0,1:2|0:0,0:0:0:0:
292,177,69775,2,0,P|340:180|388:186,1,96.8000029541017,2|8,1:2|0:0,0:0:0:0:
140,274,70061,1,2,0:0:0:0:
201,111,70203,1,0,1:0:0:0:
260,358,70346,2,0,P|253:298|247:257,1,96.8000029541017,2|8,1:2|0:0,0:0:0:0:
17,73,70632,6,0,B|72:59|113:86|113:86|133:38|180:25,1,193.600005908203,2|0,0:0|1:0,0:0:0:0:
47,268,71061,2,0,P|53:219|57:171,1,96.8000029541017,8|0,0:0|0:0,0:0:0:0:
247,261,71346,1,0,1:0:0:0:
201,111,71489,1,2,1:2:0:0:
217,355,71632,1,10,0:2:0:0:
388,186,71775,1,2,0:2:0:0:
142,250,71918,6,0,P|96:258|41:269,1,96.8000029541017,6|0,1:2|0:0,0:0:0:0:
130,352,72132,2,0,P|172:371|216:354,1,96.8000029541017,2|0,0:0|0:0,0:0:0:0:
246,260,72346,2,0,P|243:239|239:214,1,48.4000014770508,2|0,0:0|0:0,0:0:0:0:
399,89,72489,6,0,P|392:137|387:186,1,96.8000029541017,2|0,1:2|1:0,0:0:0:0:
315,70,72703,2,0,P|333:27|376:7,1,96.8000029541017,2|0,0:0|0:0,0:0:0:0:
480,77,72918,2,0,L|419:88,1,48.4000014770508,2|0,0:0|0:0,0:0:0:0:
216,204,73061,6,0,P|205:155|197:109,1,96.8000029541017,2|0,1:2|0:0,0:0:0:0:
95,65,73275,2,0,P|85:113|99:159,1,96.8000029541017,2|0,0:0|0:0,0:0:0:0:
195,9,73489,2,0,P|218:13|242:16,1,48.4000014770508,2|0,0:0|0:0,0:0:0:0:
394,170,73632,6,0,P|344:162|295:158,1,96.8000029541017,2|0,1:2|1:0,0:0:0:0:
298,158,73846,1,2,0:0:0:0:
298,158,73918,1,0,0:0:0:0:
480,77,74061,1,2,0:0:0:0:
383,303,74203,5,14,0:0:0:0:
315,70,74346,1,0,1:0:0:0:
495,215,74489,1,0,1:0:0:0:
216,204,74632,5,14,0:0:0:0:
418,144,74775,1,0,1:0:0:0:
209,214,74918,1,0,1:0:0:0:
398,65,75061,5,14,0:0:0:0:
230,309,75203,1,0,1:0:0:0:
196,30,75346,1,0,1:0:0:0:
418,144,75489,5,14,0:0:0:0:
105,178,75632,1,0,1:0:0:0:
383,303,75775,1,0,1:0:0:0:
293,37,75918,6,0,B|246:47|192:51|192:51|207:138|212:220,1,264,10|0,0:0|0:0,0:0:0:0:
291,119,76203,2,0,P|260:122|223:129,1,66,10|0,0:0|0:0,0:0:0:0:
318,285,76489,6,0,B|375:290|375:290|403:310|403:310|463:314,1,145.200004431152,6|0,1:2|0:0,0:0:0:0:
512,194,76775,2,0,L|410:204,1,96.8000029541017,10|0,0:0|0:0,0:0:0:0:
211,211,77061,1,2,1:2:0:0:
302,22,77203,2,0,P|295:74|290:128,1,96.8000029541017,2|8,1:2|0:0,0:0:0:0:
115,370,77489,6,0,B|85:303|126:236|126:236|137:266|160:280,1,193.600005908203,2|0,1:2|1:0,0:0:0:0:
386,103,77918,2,0,P|343:111|283:118,1,96.8000029541017,10|0,0:0|0:0,0:0:0:0:
137,119,78203,1,2,1:2:0:0:
318,290,78346,1,2,1:2:0:0:
302,22,78489,1,10,0:2:0:0:
236,202,78632,6,0,P|308:205|380:211,1,145.200004431152,2|0,1:2|0:0,0:0:0:0:
391,212,78918,1,2,1:2:0:0:
208,70,79061,2,0,P|148:79|103:87,1,96.8000029541017,10|2,0:2|0:2,0:0:0:0:
290,117,79346,1,2,1:2:0:0:
147,297,79489,2,0,P|152:246|156:199,1,96.8000029541017,2|8,1:2|0:0,0:0:0:0:
402,44,79775,6,0,B|294:15|329:100|210:76,1,193.600005908203,6|0,1:2|1:0,0:0:0:0:
391,212,80203,2,0,B|441:222|441:222|481:193,1,96.8000029541017,8|0,0:0|0:0,0:0:0:0:
373,130,80489,1,0,1:0:0:0:
430,308,80632,1,2,1:2:0:0:
473,93,80775,1,10,0:2:0:0:
294,219,80918,1,2,0:2:0:0:
286,7,81061,6,0,P|291:55|295:103,1,96.8000029541017,2|0,1:2|0:0,0:0:0:0:
295,103,81275,1,2,0:0:0:0:
295,103,81346,1,8,0:0:0:0:
138,55,81489,1,2,0:0:0:0:
306,216,81632,5,2,1:2:0:0:
108,267,81775,2,0,L|45:283,1,48.4000014770508,0|2,1:0|0:0,0:0:0:0:
186,153,81918,1,8,0:2:0:0:
169,361,82061,1,2,1:2:0:0:
77,135,82203,5,10,0:2:0:0:
423,222,82346,1,0,1:2:0:0:
80,138,82489,5,10,0:2:0:0:
423,222,82632,1,0,1:2:0:0:
84,142,82775,5,10,0:2:0:0:
423,222,82918,1,2,1:2:0:0:
169,361,83061,1,2,1:2:0:0:
280,24,83203,6,0,P|290:88|307:229,1,193.600005908203,6|0,1:2|1:0,0:0:0:0:
169,361,83632,2,0,P|168:311|193:265,1,96.8000029541017,8|0,0:0|0:0,0:0:0:0:
275,336,83918,1,0,1:0:0:0:
73,301,84061,1,0,1:0:0:0:
203,160,84203,2,0,P|207:208|213:266,1,96.8000029541017,8|0,0:0|0:0,0:0:0:0:
403,91,84489,6,0,P|357:103|308:110,1,96.8000029541017,0|0,1:0|1:0,0:0:0:0:
108,179,84775,2,0,P|154:167|202:159,1,96.8000029541017,8|0,0:0|0:0,0:0:0:0:
305,215,85061,1,0,1:0:0:0:
203,47,85203,1,2,0:0:0:0:
211,256,85346,1,10,0:0:0:0:
299,16,85489,1,2,0:0:0:0:
404,222,85632,5,2,1:2:0:0:
202,158,85775,2,0,L|152:145,2,48.4000014770508,0|2|0,0:0|1:2|1:0,0:0:0:0:
309,355,86061,1,2,1:2:0:0:
309,355,86132,1,0,1:0:0:0:
309,355,86203,2,0,P|307:295|299:192,1,145.200004431152,2|2,1:2|0:0,0:0:0:0:
300,201,86489,1,0,1:2:0:0:
74,285,86632,5,2,1:2:0:0:
74,285,86703,1,0,1:2:0:0:
74,285,86775,1,8,0:0:0:0:
433,215,86918,1,8,0:0:0:0:
433,215,87346,6,0,L|426:272,1,44
446,129,87632,1,0,0:0:0:0:
222,258,87775,6,0,B|160:242|160:242|130:200|130:200|56:182,1,184.799994360352,6|0,1:2|1:0,0:0:0:0:
250,116,88203,2,0,P|306:98|352:83,1,92.3999971801759,8|0,0:0|0:0,0:0:0:0:
337,87,88418,1,0,1:0:0:0:
337,87,88489,1,0,1:0:0:0:
121,15,88632,2,0,P|133:59|144:119,1,92.3999971801759,0|8,1:0|0:0,0:0:0:0:
320,271,88918,6,0,P|326:188|339:74,1,184.799994360352,2|0,1:2|1:0,0:0:0:0:
236,252,89346,1,8,0:2:0:0:
425,202,89489,1,0,0:2:0:0:
250,116,89632,1,0,1:0:0:0:
432,294,89775,2,0,P|428:249|424:201,1,92.3999971801759,0|8,1:0|0:0,0:0:0:0:
175,318,90061,6,0,P|260:337|319:271,1,184.799994360352,6|0,1:2|1:0,0:0:0:0:
156,87,90489,2,0,P|166:139|173:181,1,92.3999971801759,8|0,0:0|0:0,0:0:0:0:
173,178,90703,1,0,1:0:0:0:
173,178,90775,1,0,1:0:0:0:
69,330,90918,2,8,P|75:283|114:245,1,92.3999971801759,0|8,1:0|0:0,0:0:0:0:
332,99,91203,6,0,B|229:106|274:171|169:179,1,184.799994360352,6|0,1:2|1:0,0:0:0:0:
397,227,91632,2,0,P|444:235|495:246,1,92.3999971801759,8|0,0:0|1:0,0:0:0:0:
319,270,91918,1,0,1:0:0:0:
459,145,92061,1,2,1:2:0:0:
459,145,92132,1,2,1:2:0:0:
459,145,92203,1,10,1:2:0:0:
323,76,92346,1,2,0:0:0:0:
470,334,92489,6,0,P|479:286|489:237,1,92.3999971801759,4|0,1:2|0:0,0:0:0:0:
301,179,92775,2,0,P|310:224|318:269,1,92.3999971801759,8|0,0:0|0:0,0:0:0:0:
410,59,93061,1,0,1:0:0:0:
233,108,93203,2,0,P|185:103|132:96,1,92.3999971801759,0|8,1:0|0:0,0:0:0:0:
0,262,93489,6,0,B|72:255|72:255|112:277|112:277|180:270,1,184.799994360352,2|0,1:2|1:0,0:0:0:0:
39,352,93918,1,8,0:0:0:0:
140,186,94061,1,0,0:0:0:0:
36,123,94203,1,0,1:0:0:0:
178,271,94346,2,0,P|226:276|271:257,1,92.3999971801759,0|8,1:0|0:0,0:0:0:0:
326,12,94632,6,0,B|281:62|281:62|302:186,1,184.799994360352,6|0,1:2|1:0,0:0:0:0:
416,334,95061,2,0,P|375:329|321:322,1,92.3999971801759,8|0,0:0|0:0,0:0:0:0:
174,297,95346,1,8,0:0:0:0:
385,181,95489,1,8,0:0:0:0:
174,297,95632,1,0,1:0:0:0:
198,40,95775,6,0,P|210:106|215:143,1,92.3999971801759,6|0,1:2|0:0,0:0:0:0:
378,226,96061,1,0,1:0:0:0:
378,226,96132,1,0,1:0:0:0:
378,226,96203,2,0,L|386:171,1,46.1999985900879,0|0,1:0|1:0,0:0:0:0:
326,13,96346,2,0,L|319:58,1,46.1999985900879,0|0,1:0|1:0,0:0:0:0:
274,267,96489,5,8,0:0:0:0:
467,211,96632,2,0,L|517:200,1,46.1999985900879,8|0,0:0|0:0,0:0:0:0:
213,131,96775,5,8,0:0:0:0:
416,334,96918,1,8,0:0:0:0:
429,339,97203,5,2,0:0:0:0:
378,226,97346,1,2,0:0:0:0:
264,365,97489,1,2,0:0:0:0:
273,266,97632,1,2,0:0:0:0:
155,311,97775,1,2,0:0:0:0:
265,175,97918,5,2,1:2:0:0:
265,175,97989,1,2,1:2:0:0:
265,175,98061,2,0,L|275:280,1,92.3999971801759,10|0,0:0|0:0,0:0:0:0:
395,28,98346,1,8,0:0:0:0:
429,124,98489,6,0,B|316:145|353:57|223:85,1,211.199993554688,8|0,0:0|0:0,0:0:0:0:
