osu file format v14

[General]
AudioFilename: audio.mp3
AudioLeadIn: 0
PreviewTime: 66116
Countdown: 0
SampleSet: Soft
StackLeniency: 0.7
Mode: 0
LetterboxInBreaks: 0
WidescreenStoryboard: 1

[Editor]
DistanceSpacing: 1
BeatDivisor: 4
GridSize: 32
TimelineZoom: 1.8

[Metadata]
Title:Sacrifice (Short Ver.)
TitleUnicode:Sacrifice (Short Ver.)
Artist:Ouse Akira
ArtistUnicode:逢瀬アキラ
Creator:Saggin
Version:Normal
Source:ふゆから​、くるる。
Tags:シルキーズプラス silky's plus eroge visual novel vn japanese rock jrock j-rock video game videogame opening op ふゆくる fuyukuru _kotachi_ -brethia miyohashikoori sanairrt hoto cocoa lude interlude- -atri- kurantemelodii firis mistlud heto
BeatmapID:3188792
BeatmapSetID:1560037

[Difficulty]
HPDrainRate:4
CircleSize:3
OverallDifficulty:4
ApproachRate:6
SliderMultiplier:0.899999999999999
SliderTickRate:1

[Events]
//Background and Video events
0,0,"bg1.jpg",0,0
//Break Periods
//Storyboard Layer 0 (Background)
//Storyboard Layer 1 (Fail)
//Storyboard Layer 2 (Pass)
//Storyboard Layer 3 (Foreground)
//Storyboard Layer 4 (Overlay)
//Storyboard Sound Samples

[TimingPoints]
1061,285.714285714286,4,2,1,40,1,0
5632,-100,4,2,1,45,0,0
10203,-100,4,2,1,45,0,0
14703,-100,4,2,1,5,0,0
14775,-100,4,2,1,45,0,0
16489,-100,4,2,1,50,0,0
16918,-100,4,2,1,60,0,0
26489,-100,4,2,1,40,0,0
28418,-100,4,2,1,5,0,0
28489,-100,4,2,1,40,0,0
30703,-100,4,2,1,5,0,0
30775,-100,4,2,1,40,0,0
35561,-100,4,2,1,5,0,0
35632,-100,4,2,1,50,0,0
39846,-100,4,2,1,5,0,0
39918,-100,4,2,1,50,0,0
40418,-100,4,2,1,5,0,0
40489,-100,4,2,1,50,0,0
47989,-100,4,2,1,5,0,0
48061,-100,4,2,1,50,0,0
58203,-100,4,2,1,60,0,0
62775,-100,4,2,1,30,0,0
64965,-100,4,2,1,40,0,0
66061,-100,4,2,1,60,0,0
66275,-100,4,2,1,5,0,0
66346,-100,4,2,1,60,0,0
67275,-100,4,2,1,5,0,0
67346,-100,4,2,1,70,0,0
67561,-100,4,2,1,5,0,0
67632,-100,4,2,1,70,0,0
69703,-100,4,2,1,5,0,0
69775,-100,4,2,1,70,0,0
70846,-100,4,2,1,5,0,0
70918,-100,4,2,1,70,0,0
72061,-100,4,2,1,5,0,0
72132,-100,4,2,1,70,0,0
72275,-100,4,2,1,5,0,0
72346,-100,4,2,1,70,0,0
72418,-100,4,2,1,5,0,0
72489,-100,4,2,1,70,0,0
72846,-100,4,2,1,5,0,0
72918,-100,4,2,1,70,0,0
72989,-100,4,2,1,5,0,0
73061,-100,4,2,1,70,0,0
73203,-100,4,2,1,5,0,0
73275,-100,4,2,1,70,0,0
73418,-100,4,2,1,5,0,0
73489,-100,4,2,1,70,0,0
73561,-100,4,2,1,5,0,0
73632,-100,4,2,1,70,0,0
73989,-100,4,2,1,5,0,0
74061,-100,4,2,1,70,0,0
74132,-100,4,2,1,5,0,0
74203,-100,4,2,1,70,0,0
76703,-100,4,2,1,5,0,0
76775,-100,4,2,1,70,0,0
83418,-100,4,2,1,5,0,0
83489,-100,4,2,1,70,0,0
87775,-100,4,2,1,60,0,0
97203,-100,4,2,1,60,0,0
98489,-100,4,2,1,60,0,0
99061,-100,4,2,1,60,0,0

[Colours]
Combo1 : 251,171,157
Combo2 : 176,245,255
Combo3 : 102,171,255
Combo4 : 254,112,230
Combo5 : 9,234,217
Combo6 : 247,221,43
Combo7 : 236,168,253

[HitObjects]
474,115,5632,5,4,0:0:0:0:
254,341,6632,5,4,0:0:0:0:
20,137,7632,5,8,0:0:0:0:
20,137,7775,2,0,P|60:136|117:53,1,135,4|0,0:0|0:0,0:0:0:0:
203,43,8489,2,0,L|208:-1,2,45,8|0|0,0:0|1:0|1:0,0:0:0:0:
243,62,8918,2,0,P|278:50|339:48,2,89.9999999999999,4|8|0,0:0|0:0|1:0,0:0:0:0:
205,143,9775,6,0,L|153:131,2,45,0|8|0,1:0|0:0|0:0,0:0:0:0:
229,180,10203,2,0,L|211:286,1,89.9999999999999,2|0,1:2|1:2,0:0:0:0:
208,317,10632,1,2,1:2:0:0:
208,317,10775,1,2,1:2:0:0:
287,359,11061,1,0,1:2:0:0:
287,359,11203,2,0,B|358:357|322:311|423:320,1,135,2|10,1:2|0:2,0:0:0:0:
436,281,11775,2,0,L|494:292,2,45,2|10|2,1:2|0:2|1:2,1:2:0:0:
409,244,12203,2,0,P|405:215|415:188,1,45,10|2,0:2|1:2,0:0:0:0:
428,159,12489,5,6,1:2:0:0:
256,192,12632,12,2,14775,0:0:0:0:
89,50,15918,6,0,L|101:155,1,89.9999999999999,8|0,0:0|1:0,0:0:0:0:
51,216,16489,2,0,L|58:271,1,45,8|8,0:0|0:0,0:0:0:0:
61,305,16775,1,8,0:0:0:0:
61,305,16918,6,0,B|100:275|154:274,1,89.9999999999999,6|0,1:2|1:0,0:0:0:0:
189,277,17346,1,8,0:0:0:0:
256,344,17632,1,0,1:0:0:0:
256,344,17775,2,0,L|313:332,1,45,0|8,1:0|0:0,0:0:0:0:
344,341,18061,6,0,P|356:306|335:244,1,89.9999999999999,2|0,1:2|1:0,0:0:0:0:
318,218,18489,1,8,0:0:0:0:
248,160,18775,1,0,1:0:0:0:
248,160,18918,2,0,L|257:101,1,45,0|8,1:0|0:0,0:0:0:0:
281,79,19203,6,0,P|318:72|371:112,1,89.9999999999999,6|0,1:2|1:0,0:0:0:0:
394,128,19632,1,8,0:0:0:0:
458,191,19918,1,0,1:0:0:0:
458,191,20061,2,0,L|452:253,1,45,0|8,1:0|0:0,0:0:0:0:
470,277,20346,6,0,P|428:285|367:310,1,89.9999999999999,6|0,1:2|1:0,0:0:0:0:
340,314,20775,1,8,0:0:0:0:
260,356,21061,2,0,L|203:347,1,45,0|2,1:0|1:2,0:0:0:0:
170,345,21346,1,10,0:0:0:0:
105,281,21632,6,0,P|93:251|115:185,1,89.9999999999999,4|8,1:2|0:0,0:0:0:0:
177,141,22203,1,0,1:0:0:0:
177,141,22346,2,0,L|172:88,1,45,0|8,1:0|0:0,0:0:0:0:
192,55,22632,6,0,P|227:40|281:54,1,89.9999999999999,2|0,1:2|1:0,0:0:0:0:
313,76,23061,1,8,0:0:0:0:
349,157,23346,1,0,1:0:0:0:
349,157,23489,2,0,L|344:216,1,45,0|8,1:0|0:0,0:0:0:0:
353,246,23775,6,0,P|401:266|448:248,1,89.9999999999999,6|0,1:2|1:0,0:0:0:0:
476,236,24203,1,8,0:0:0:0:
510,152,24489,1,0,1:0:0:0:
510,152,24632,2,0,L|499:95,1,45,0|8,1:0|0:0,0:0:0:0:
473,72,24918,6,0,P|441:66|389:111,1,89.9999999999999,6|0,1:2|0:0,0:0:0:0:
367,132,25346,1,8,0:0:0:0:
367,132,25489,1,8,0:0:0:0:
305,197,25775,2,0,P|267:189|158:184,1,135,10|0,0:0|1:0,0:0:0:0:
90,142,26489,6,0,P|77:114|98:46,1,89.9999999999999,2|2,1:2|1:2,0:0:0:0:
164,9,27061,1,0,1:0:0:0:
164,9,27203,2,0,P|198:27|268:39,1,89.9999999999999,2|2,0:0|0:0,0:0:0:0:
292,31,27632,1,2,1:2:0:0:
361,88,27918,2,0,L|415:78,2,45,2|2|2,1:2|0:0|1:2,0:0:0:0:
294,148,28489,6,0,B|308:243|308:242,1,89.9999999999999,2|2,1:2|1:2,0:0:0:0:
396,252,29061,2,0,B|382:347|382:341,1,89.9999999999999,2|0,1:2|1:0,0:0:0:0:
339,355,29489,2,0,P|302:366|240:347,1,89.9999999999999,2|2,0:0|0:0,0:0:0:0:
212,335,29918,1,2,1:2:0:0:
140,280,30203,2,0,L|80:294,2,45,2|2|2,1:2|0:0|1:2,0:0:0:0:
212,225,30775,6,0,L|198:130,1,89.9999999999999,0|2,1:2|1:2,0:0:0:0:
109,124,31346,2,0,L|123:29,1,89.9999999999999,2|0,1:2|1:0,0:0:0:0:
164,19,31775,2,0,P|197:5|261:30,1,89.9999999999999,2|2,0:0|0:0,0:0:0:0:
279,49,32203,1,2,1:2:0:0:
328,124,32489,2,0,L|382:115,1,45,2|2,1:2|0:0,0:0:0:0:
398,79,32775,2,0,L|442:86,1,45,2|2,1:2|0:0,0:0:0:0:
485,73,33061,6,0,L|471:213,2,135,2|2|2,1:2|0:0|1:2,0:0:0:0:
364,11,34346,5,10,0:0:0:0:
364,11,34489,2,0,L|371:69,2,45,10|10|2,0:0|0:0|1:2,0:0:0:0:
306,10,34918,2,0,L|219:30,1,89.9999999999999,10|8,0:0|0:0,0:0:0:0:
174,40,35346,1,0,1:2:0:0:
85,23,35632,5,8,0:0:0:0:
26,91,35918,2,0,P|17:131|38:187,1,89.9999999999999,2|8,1:2|0:0,0:0:0:0:
51,216,36346,2,0,P|95:203|159:193,1,89.9999999999999,2|2,0:0|0:0,0:0:0:0:
181,182,36775,1,8,0:0:0:0:
251,238,37061,2,0,L|243:298,1,45,2|2,1:2|0:0,0:0:0:0:
237,326,37346,1,8,0:0:0:0:
319,362,37632,5,0,1:2:0:0:
379,295,37918,1,10,0:0:0:0:
438,227,38203,2,0,P|452:184|434:124,1,89.9999999999999,2|8,1:2|0:0,0:0:0:0:
422,100,38632,2,0,L|318:127,1,89.9999999999999,2|2,0:0|0:0,0:0:0:0:
291,137,39061,1,10,0:0:0:0:
227,200,39346,2,0,L|167:194,1,45,2|2,1:2|0:0,0:0:0:0:
137,190,39632,1,8,0:0:0:0:
84,116,39918,5,2,1:2:0:0:
143,48,40203,2,0,P|180:40|229:76,1,89.9999999999999,8|0,0:0|1:0,0:0:0:0:
255,97,40632,1,2,0:0:0:0:
320,158,40918,2,0,B|309:297|310:300,1,135,2|10,0:0|0:0,0:0:0:0:
369,360,41632,2,0,P|404:355|437:304,1,89.9999999999999,2|10,1:2|0:0,0:0:0:0:
494,245,42203,6,0,P|474:206|492:112,2,135,2|2|10,1:2|0:0|0:0,0:0:0:0:
398,339,43489,1,10,0:0:0:0:
398,339,43632,1,10,0:0:0:0:
323,288,43918,1,10,0:0:0:0:
255,347,44203,2,0,L|199:340,1,45,10|8,0:0|0:0,0:0:0:0:
179,308,44489,6,0,P|142:298|90:312,2,89.9999999999999,2|8|0,1:2|0:0|1:0,0:0:0:0:
238,240,45346,1,2,1:2:0:0:
174,175,45632,2,0,P|170:124|161:77,2,89.9999999999999,2|8|0,1:2|0:0|1:0,0:0:0:0:
238,240,46489,1,10,0:0:0:0:
319,279,46775,6,0,L|316:336,1,45,2|2,1:2|0:0,0:0:0:0:
310,368,47061,1,8,0:0:0:0:
399,374,47346,2,0,P|427:364|450:366,1,45,2|2,1:2|1:2,0:0:0:0:
497,293,47775,2,0,P|487:265|498:192,1,89.9999999999999,10|2,0:0|0:0,0:0:0:0:
492,160,48203,1,8,0:0:0:0:
423,100,48489,2,0,L|432:47,2,45,2|2|10,1:2|1:2|0:0,0:0:0:0:
362,173,49061,6,0,L|376:277,2,89.9999999999999,6|8|0,1:2|0:0|1:0,0:0:0:0:
295,112,49918,1,2,1:2:0:0:
229,50,50203,2,0,P|186:61|136:43,2,89.9999999999999,2|8|0,1:2|0:0|1:0,0:0:0:0:
264,21,50918,2,0,L|313:31,1,45,2|10,1:2|0:0,0:0:0:0:
379,84,51346,6,0,L|373:136,1,45,2|2,1:2|0:0,0:0:0:0:
364,173,51632,1,10,0:0:0:0:
290,225,51918,2,0,L|296:277,2,45,2|2|2,1:2|1:2|1:2,0:0:0:0:
255,195,52346,2,0,P|221:185|165:227,1,89.9999999999999,10|2,0:0|0:0,0:0:0:0:
140,239,52775,1,10,0:0:0:0:
79,306,53061,2,0,L|83:354,2,45,2|2|10,1:2|1:2|0:0,0:0:0:0:
23,234,53632,6,0,P|13:203|36:133,2,89.9999999999999,6|8|0,1:2|0:0|1:0,0:0:0:0:
79,306,54489,1,10,0:0:0:0:
150,251,54775,2,0,L|256:273,2,89.9999999999999,2|8|0,1:2|0:0|1:0,0:0:0:0:
104,173,55632,1,10,0:0:0:0:
163,105,55918,6,0,P|194:118|278:50,1,135,2|2,1:2|0:0,0:0:0:0:
371,163,56775,2,0,L|348:309,2,135,8|2|0,0:0|0:0|1:0,0:0:0:0:
432,97,57918,1,8,0:0:0:0:
371,31,58203,6,0,L|321:39,1,45,6|2,1:2|0:0,0:0:0:0:
303,77,58489,2,0,L|253:69,1,45,10|2,0:0|1:2,0:0:0:0:
214,80,58775,1,10,0:0:0:0:
138,129,59061,2,0,L|145:188,1,45,10|2,0:0|1:2,0:0:0:0:
124,214,59346,2,0,P|166:226|205:278,1,89.9999999999999,8|10,0:0|0:0,0:0:0:0:
278,298,59918,2,0,L|272:353,2,45,10|2|8,0:0|1:2|0:0,0:0:0:0:
345,238,60489,5,8,0:0:0:0:
345,238,60632,1,8,0:0:0:0:
289,174,60918,1,8,0:0:0:0:
289,174,61061,1,8,0:0:0:0:
348,106,61346,1,8,0:0:0:0:
348,106,61489,1,8,0:0:0:0:
284,42,61775,5,8,0:0:0:0:
284,42,61918,2,0,P|251:45|209:101,1,89.9999999999999,8|8,0:0|0:0,0:0:0:0:
196,125,62346,1,8,0:0:0:0:
95,215,62775,5,2,1:2:0:0:
256,192,62918,12,2,64489,0:0:0:0:
88,339,66061,6,0,L|100:249,1,89.9999999999999,4|8,1:2|0:0,0:0:0:0:
112,209,66489,1,8,0:0:0:0:
112,209,66632,1,8,0:0:0:0:
57,137,66918,1,2,1:2:0:0:
159,49,67346,6,0,P|201:50|237:99,1,89.9999999999999,6|10,1:2|0:0,0:0:0:0:
296,155,67918,1,2,1:2:0:0:
296,155,68061,2,0,L|288:217,1,45,2|8,1:2|0:0,0:0:0:0:
253,225,68346,2,0,L|261:332,1,89.9999999999999,2|0,1:2|1:0,0:0:0:0:
263,359,68775,1,10,0:0:0:0:
346,324,69061,2,0,L|399:339,1,45,2|2,1:2|1:2,0:0:0:0:
432,347,69346,1,8,0:0:0:0:
432,347,69489,6,0,P|454:312|442:252,1,89.9999999999999,2|2,1:2|1:2,0:0:0:0:
444,224,69918,1,8,0:0:0:0:
444,224,70061,2,0,L|493:205,2,45,2|0|2,0:0|1:0|1:2,0:0:0:0:
371,170,70632,2,0,P|340:168|294:221,1,89.9999999999999,2|0,0:0|1:0,0:0:0:0:
284,248,71061,1,8,0:0:0:0:
212,302,71346,1,0,1:0:0:0:
212,302,71489,2,0,L|219:360,2,45,2|10|2,1:2|0:2|0:2,0:0:0:0:
172,279,71918,6,0,P|159:246|181:188,1,89.9999999999999,6|8,1:2|0:0,0:0:0:0:
240,134,72489,2,0,L|234:83,1,45,2|0,1:2|1:0,0:0:0:0:
229,44,72775,1,8,0:0:0:0:
312,9,73061,2,0,P|350:15|385:63,1,89.9999999999999,2|8,1:2|0:0,0:0:0:0:
445,117,73632,2,0,L|436:174,1,45,2|0,1:2|1:0,0:0:0:0:
429,206,73918,1,8,0:0:0:0:
466,287,74203,6,0,L|366:312,1,89.9999999999999,14|0,0:0|1:0,0:0:0:0:
364,351,74632,2,0,L|264:326,1,89.9999999999999,14|0,0:0|1:0,0:0:0:0:
255,288,75061,2,0,L|155:313,1,89.9999999999999,14|0,0:0|1:0,0:0:0:0:
149,351,75489,2,0,L|49:326,1,89.9999999999999,14|0,0:0|1:0,0:0:0:0:
18,315,75918,5,10,0:0:0:0:
78,248,76203,1,10,0:0:0:0:
18,179,76489,6,0,P|32:147|16:80,1,89.9999999999999,6|10,1:2|0:0,0:0:0:0:
90,31,77061,1,2,1:2:0:0:
90,31,77203,2,0,L|154:45,1,45,2|8,1:2|0:0,0:0:0:0:
155,80,77489,2,0,L|247:65,1,89.9999999999999,2|0,1:2|1:0,0:0:0:0:
289,61,77918,1,10,0:0:0:0:
356,119,78203,2,0,P|362:151|356:173,1,45,2|2,1:2|1:2,0:0:0:0:
346,206,78489,1,10,0:2:0:0:
346,206,78632,6,0,L|355:312,1,89.9999999999999,2|2,1:2|1:2,0:0:0:0:
342,339,79061,2,0,L|285:324,2,45,10|2|2,0:2|0:2|1:2,0:0:0:0:
379,363,79489,1,2,1:2:0:0:
453,312,79775,2,0,P|468:272|452:216,1,89.9999999999999,6|0,1:2|1:0,0:0:0:0:
424,197,80203,1,8,0:0:0:0:
363,130,80489,1,0,1:0:0:0:
363,130,80632,2,0,L|374:80,2,45,2|10|2,1:2|0:2|0:2,0:0:0:0:
322,150,81061,6,0,L|333:236,2,67.4999999999999,2|2|2,1:2|0:0|0:0,0:0:0:0:
282,127,81632,2,0,L|273:60,2,67.4999999999999,2|2|2,1:2|0:0|1:2,0:0:0:0:
243,150,82203,5,10,0:2:0:0:
167,100,82489,1,10,0:2:0:0:
106,166,82775,2,0,L|112:228,1,45,10|2,0:2|1:2,0:0:0:0:
91,253,83061,1,2,1:2:0:0:
91,253,83203,2,0,P|124:255|167:314,1,89.9999999999999,6|0,1:2|1:0,0:0:0:0:
176,336,83632,1,8,0:0:0:0:
260,302,83918,2,0,L|264:253,1,45,0|0,1:0|1:0,0:0:0:0:
269,212,84203,1,8,0:0:0:0:
331,147,84489,6,0,L|327:98,1,45,0|0,1:0|1:0,0:0:0:0:
315,58,84775,2,0,P|349:70|415:53,1,89.9999999999999,8|0,0:0|1:0,0:0:0:0:
464,125,85346,1,10,0:0:0:0:
408,204,85632,2,0,P|380:197|333:192,2,67.4999999999999,2|2|2,1:2|1:2|1:2,0:0:0:0:
423,246,86203,2,0,P|451:239|498:234,2,67.4999999999999,2|2|2,1:2|0:0|0:0,0:0:0:0:
404,289,86775,5,8,0:0:0:0:
404,289,86918,1,8,0:0:0:0:
141,352,87775,6,0,P|126:313|145:256,1,89.9999999999999,6|0,1:2|1:0,0:0:0:0:
170,237,88203,1,8,0:0:0:0:
232,172,88489,1,0,1:0:0:0:
232,172,88632,2,0,L|293:186,1,45,0|8,1:0|0:0,0:0:0:0:
294,223,88918,6,0,P|330:207|398:207,1,89.9999999999999,2|0,1:2|1:0,0:0:0:0:
424,211,89346,1,8,0:2:0:0:
489,149,89632,1,0,1:0:0:0:
489,149,89775,2,0,L|502:86,1,45,0|8,1:0|0:0,0:0:0:0:
468,70,90061,6,0,P|434:59|380:100,1,89.9999999999999,6|0,1:2|1:0,0:0:0:0:
353,111,90489,1,8,0:0:0:0:
275,154,90775,1,0,1:0:0:0:
275,154,90918,2,8,L|282:210,1,45,0|8,1:0|0:0,0:0:0:0:
316,225,91203,6,0,L|307:330,1,89.9999999999999,6|0,1:2|1:0,0:0:0:0:
305,359,91632,1,8,0:0:0:0:
215,363,91918,2,0,L|159:350,1,45,0|2,1:0|1:2,0:0:0:0:
127,341,92203,1,10,1:2:0:0:
61,278,92489,6,0,P|50:248|65:187,1,89.9999999999999,4|8,1:2|0:0,0:0:0:0:
124,127,93061,1,0,1:0:0:0:
124,127,93203,2,0,L|182:137,1,45,0|8,1:0|0:0,0:0:0:0:
195,170,93489,2,0,P|237:157|296:151,1,89.9999999999999,2|0,1:2|1:0,0:0:0:0:
327,145,93918,1,8,0:0:0:0:
381,216,94203,1,0,1:0:0:0:
381,216,94346,2,0,L|371:280,1,45,0|8,1:0|0:0,0:0:0:0:
395,300,94632,6,0,P|436:308|478:275,1,89.9999999999999,6|0,1:2|1:0,0:0:0:0:
498,243,95061,1,8,0:0:0:0:
453,164,95346,1,8,0:0:0:0:
453,164,95489,1,8,0:0:0:0:
390,91,95775,6,0,L|287:110,1,89.9999999999999,6|0,1:2|1:0,0:0:0:0:
266,135,96203,2,0,L|271:182,1,45,0|0,1:0|1:0,0:0:0:0:
303,211,96489,2,0,L|298:258,1,45,8|8,0:0|0:0,0:0:0:0:
290,300,96775,1,8,0:0:0:0:
290,300,96918,1,8,0:0:0:0:
86,82,98346,5,8,0:0:0:0:
86,82,98489,1,8,0:0:0:0:
