osu file format v14

[General]
AudioFilename: audio.mp3
AudioLeadIn: 0
PreviewTime: 66116
Countdown: 0
SampleSet: Soft
StackLeniency: 0.7
Mode: 0
LetterboxInBreaks: 0
WidescreenStoryboard: 1

[Editor]
DistanceSpacing: 0.4
BeatDivisor: 4
GridSize: 32
TimelineZoom: 2.5

[Metadata]
Title:Sacrifice (Short Ver.)
TitleUnicode:Sacrifice (Short Ver.)
Artist:Ouse Akira
ArtistUnicode:逢瀬アキラ
Creator:Saggin
Version:Koori's Extreme
Source:ふゆから​、くるる。
Tags:シルキーズプラス silky's plus eroge visual novel vn japanese rock jrock j-rock video game videogame opening op ふゆくる fuyukuru _kotachi_ -brethia miyohashikoori sanairrt hoto cocoa lude interlude- -atri- kurantemelodii firis mistlud heto
BeatmapID:3199501
BeatmapSetID:1560037

[Difficulty]
HPDrainRate:5
CircleSize:4
OverallDifficulty:9
ApproachRate:9.6
SliderMultiplier:1.8
SliderTickRate:1

[Events]
//Background and Video events
0,0,"bg2.jpg",0,0
//Break Periods
//Storyboard Layer 0 (Background)
//Storyboard Layer 1 (Fail)
//Storyboard Layer 2 (Pass)
//Storyboard Layer 3 (Foreground)
//Storyboard Layer 4 (Overlay)
//Storyboard Sound Samples

[TimingPoints]
1061,285.714285714286,4,2,1,40,1,0
5632,-200,4,2,1,45,0,0
10203,-200,4,2,1,45,0,0
10775,-133.333333333333,4,2,1,45,0,0
11632,-100,4,2,1,45,0,0
12489,-181.818181818182,4,2,1,45,0,0
14632,-50,4,2,1,45,0,0
14703,-50,4,2,1,5,0,0
14775,-133.333333333333,4,2,1,45,0,0
15918,-100,4,2,1,45,0,0
16489,-100,4,2,1,50,0,0
16918,-100,4,2,1,60,0,0
26489,-133.333333333333,4,2,1,40,0,0
28418,-133.333333333333,4,2,1,5,0,0
28489,-133.333333333333,4,2,1,40,0,0
30703,-133.333333333333,4,2,1,5,0,0
30775,-133.333333333333,4,2,1,40,0,0
33061,-100,4,2,1,40,0,0
35346,-100,4,2,1,40,0,0
35561,-100,4,2,1,5,0,0
35632,-100,4,2,1,50,0,0
39846,-100,4,2,1,5,0,0
39918,-100,4,2,1,50,0,0
40418,-100,4,2,1,5,0,0
40489,-100,4,2,1,50,0,0
47489,-133.333333333333,4,2,1,50,0,0
47989,-133.333333333333,4,2,1,5,0,0
48061,-133.333333333333,4,2,1,50,0,0
49061,-100,4,2,1,50,0,0
53346,-66.6666666666667,4,2,1,50,0,0
53632,-100,4,2,1,50,0,0
58203,-100,4,2,1,60,0,0
59346,-80,4,2,1,60,0,0
60203,-66.6666666666667,4,2,1,60,0,0
62775,-66.6666666666667,4,2,1,30,0,0
64965,-66.6666666666667,4,2,1,40,0,0
65061,-200,4,2,1,40,0,0
65632,-100,4,2,1,40,0,0
66061,-100,4,2,1,60,0,0
66275,-100,4,2,1,5,0,0
66346,-100,4,2,1,60,0,0
66918,-66.6666666666667,4,2,1,60,0,0
67061,-200,4,2,1,60,0,0
67275,-200,4,2,1,5,0,0
67346,-80,4,2,1,70,0,1
67561,-80,4,2,1,5,0,1
67632,-80,4,2,1,70,0,1
69703,-80,4,2,1,5,0,1
69775,-80,4,2,1,70,0,1
70846,-80,4,2,1,5,0,1
70918,-80,4,2,1,70,0,1
72061,-80,4,2,1,5,0,1
72132,-80,4,2,1,70,0,1
72275,-80,4,2,1,5,0,1
72346,-80,4,2,1,70,0,1
72418,-80,4,2,1,5,0,1
72489,-80,4,2,1,70,0,1
72846,-80,4,2,1,5,0,1
72918,-80,4,2,1,70,0,1
72989,-80,4,2,1,5,0,1
73061,-80,4,2,1,70,0,1
73203,-80,4,2,1,5,0,1
73275,-80,4,2,1,70,0,1
73418,-80,4,2,1,5,0,1
73489,-80,4,2,1,70,0,1
73561,-80,4,2,1,5,0,1
73632,-80,4,2,1,70,0,1
74061,-80,4,2,1,70,0,1
74132,-80,4,2,1,5,0,1
74203,-80,4,2,1,70,0,1
74632,-86.9565217391304,4,2,1,70,0,1
75061,-95.2380952380952,4,2,1,70,0,1
75489,-105.263157894737,4,2,1,70,0,1
75918,-66.6666666666667,4,2,1,70,0,1
76132,-66.6666666666667,4,2,1,5,0,1
76203,-200,4,2,1,70,0,1
76418,-200,4,2,1,5,0,1
76489,-80,4,2,1,70,0,1
76703,-80,4,2,1,5,0,1
76775,-80,4,2,1,70,0,1
83203,-100,4,2,1,70,0,0
83418,-100,4,2,1,5,0,0
83489,-100,4,2,1,70,0,0
87775,-100,4,2,1,60,0,0
96203,-200,4,2,1,60,0,0
96346,-100,4,2,1,60,0,0

[Colours]
Combo1 : 251,171,157
Combo2 : 176,245,255
Combo3 : 102,171,255
Combo4 : 254,112,230
Combo5 : 9,234,217
Combo6 : 247,221,43
Combo7 : 236,168,253

[HitObjects]
256,192,1061,12,0,5489,0:0:0:0:
294,128,5632,6,0,P|202:124|293:106,1,270,4|0,0:0|0:0,0:0:0:0:
440,265,6632,6,0,B|450:187|357:177|357:177|325:250|243:244,1,270,4|0,0:0|0:0,0:0:0:0:
254,244,7632,1,8,0:0:0:0:
70,317,7775,6,0,B|100:331|97:369|97:369|115:327|94:285|93:307|60:273|91:202,1,225,4|8,0:0|0:0,0:0:0:0:
234,159,8632,1,0,1:0:0:0:
160,244,8775,1,0,1:0:0:0:
85,65,8918,6,0,P|112:43|109:5,1,67.5,4|0,0:0|0:0,0:0:0:0:
81,85,9203,6,0,P|48:72|17:93,1,67.5,8|0,0:0|0:0,0:0:0:0:
99,77,9489,6,0,P|104:111|158:126,1,90,0|0,1:0|1:0,0:0:0:0:
151,128,9846,1,0,1:0:0:0:
151,128,9918,1,8,0:0:0:0:
371,25,10203,5,2,1:2:0:0:
364,46,10274,1,0,1:2:0:0:
365,68,10345,1,0,1:2:0:0:
372,90,10417,1,0,1:2:0:0:
385,107,10489,1,0,1:2:0:0:
398,125,10560,1,0,1:2:0:0:
405,146,10631,1,2,1:2:0:0:
406,168,10703,1,0,1:2:0:0:
400,190,10774,5,2,1:2:0:0:
370,173,10846,1,0,1:2:0:0:
351,146,10917,1,0,1:2:0:0:
347,113,10989,1,0,1:2:0:0:
358,81,11060,1,0,1:2:0:0:
382,58,11132,1,0,1:2:0:0:
414,49,11203,1,2,1:2:0:0:
447,55,11274,1,0,1:2:0:0:
474,75,11346,6,0,L|461:126,3,33.7500012874604,0|0|0|0,1:2|1:2|1:2|1:2,1:2:0:0:
503,177,11632,6,0,P|482:187|447:183,1,45,10|0,0:2|1:2,1:2:0:0:
418,251,11775,2,0,P|398:238|384:206,1,45,2|0,1:2|1:2,1:2:0:0:
253,160,11918,6,0,P|242:179|241:202,1,45,10|0,0:2|1:2,1:2:0:0:
328,348,12061,2,0,P|338:328|339:305,1,45,2|0,1:2|1:2,1:2:0:0:
196,274,12203,2,0,P|215:284|238:285,1,45,10|0,0:2|1:2,0:0:0:0:
387,219,12346,2,0,P|367:208|344:207,1,45,2|0,1:2|1:2,0:0:0:0:
126,132,12489,6,0,B|86:90|130:46|131:73|171:21|128:-9|55:-14|13:116|100:165|100:165|99:172|99:172|201:151|154:206|265:187|265:187|270:190|270:190|216:153|243:85|243:85|247:86|247:86|315:86|318:155,1,717.750021903992,6|0,1:2|0:0,0:0:0:0:
394,194,14632,6,0,B|403:172|397:151|397:151|397:177|378:198,1,90
321,149,14775,6,0,B|301:121|262:100|259:130|211:155|164:139|194:90|113:78|86:127|86:127|79:128|79:128|84:195|140:198|140:198|152:195|152:195|223:198|222:273|222:273|207:272,1,506.250019311906,2|0,0:0|0:0,0:0:0:0:
185,349,15918,6,0,P|211:355|233:350,1,45,8|8,0:0|0:0,0:0:0:0:
407,368,16061,1,8,0:0:0:0:
409,341,16132,1,8,0:0:0:0:
413,314,16203,1,0,1:0:0:0:
417,287,16275,1,0,1:0:0:0:
419,260,16346,1,0,1:0:0:0:
269,139,16489,5,8,0:0:0:0:
333,308,16632,1,8,0:0:0:0:
431,71,16775,1,8,0:0:0:0:
286,226,16918,6,0,B|215:216|215:216|200:196|200:196|98:183,1,180,6|0,1:2|1:0,0:0:0:0:
255,58,17346,2,0,B|280:100|280:100|263:162,1,90,8|0,0:0|0:0,0:0:0:0:
140,267,17632,5,0,1:0:0:0:
194,115,17775,1,0,1:0:0:0:
93,80,17918,1,8,0:0:0:0:
312,307,18061,6,0,B|281:263|241:271|217:292|217:292|200:338|158:345,1,180,2|0,1:2|1:0,0:0:0:0:
325,305,18489,1,8,0:0:0:0:
140,267,18632,1,0,0:0:0:0:
256,381,18775,5,0,1:0:0:0:
288,160,18918,1,0,1:0:0:0:
216,215,19061,1,8,0:0:0:0:
444,298,19203,6,0,B|463:218|463:218|474:153|400:133,1,180,6|0,1:2|1:0,0:0:0:0:
334,67,19632,1,8,0:0:0:0:
379,223,19775,1,0,0:0:0:0:
460,57,19918,5,0,1:0:0:0:
288,160,20061,1,0,1:0:0:0:
420,139,20203,1,8,0:0:0:0:
234,9,20346,6,0,B|175:-12|146:56|146:56|195:69|191:128,1,180,6|0,1:2|1:0,0:0:0:0:
144,253,20775,1,8,0:0:0:0:
288,160,20918,1,0,0:0:0:0:
116,125,21061,5,0,1:0:0:0:
268,250,21203,1,2,1:2:0:0:
60,292,21346,2,0,P|49:262|81:190,1,90,10|0,0:0|0:0,0:0:0:0:
176,353,21632,6,0,B|235:352|210:371|268:374,1,90,4|0,1:2|0:0,0:0:0:0:
477,302,21918,1,8,0:0:0:0:
268,250,22061,1,0,0:0:0:0:
367,359,22203,5,0,1:0:0:0:
288,160,22346,1,0,1:0:0:0:
355,222,22489,1,8,0:0:0:0:
476,89,22632,6,0,B|485:50|460:10|406:24|406:24|373:71|413:93,1,180,2|0,1:2|1:0,0:0:0:0:
512,183,23061,2,0,P|468:197|449:249,1,90,8|0,0:0|0:0,0:0:0:0:
367,359,23346,1,0,1:0:0:0:
288,160,23489,1,0,1:0:0:0:
369,238,23632,1,8,0:0:0:0:
114,195,23775,6,0,B|144:136|206:156|206:156|208:205|242:226,1,180,6|0,1:2|1:0,0:0:0:0:
80,96,24203,2,0,P|125:67|180:64,1,90,8|0,0:0|0:0,0:0:0:0:
371,100,24489,1,0,1:0:0:0:
206,157,24632,1,0,1:0:0:0:
240,89,24775,1,8,0:0:0:0:
437,238,24918,6,0,P|382:254|386:343,1,135,6|0,1:2|0:0,0:0:0:0:
399,332,25203,5,8,0:0:0:0:
199,292,25346,5,8,0:0:0:0:
437,238,25489,5,8,0:0:0:0:
240,89,25632,5,0,1:0:0:0:
373,102,25775,6,0,B|412:75|412:75|364:21|364:21|317:51|317:51|307:68|307:68|269:92|269:92|225:87,1,270,10|0,0:0|1:0,0:0:0:0:
239,88,26346,1,0,0:0:0:0:
172,60,26489,6,0,P|162:99|192:141,1,67.5000025749208,2|0,1:2|0:0,0:0:0:0:
20,145,26775,2,0,P|81:162|86:229,1,135.000005149842,2|0,1:2|1:0,0:0:0:0:
116,338,27203,6,0,B|79:357|34:332|34:332|21:360|-21:373,1,135.000005149842,2|2,0:0|0:0,0:0:0:0:
201,312,27632,2,0,L|189:391,1,67.5000025749208,2|2,1:2|0:0,0:0:0:0:
294,255,27918,1,2,1:2:0:0:
194,300,28061,1,2,0:0:0:0:
340,329,28203,2,0,P|360:315|376:221,1,101.250003862381,2|2,1:2|1:2,0:0:0:0:
304,213,28489,6,0,L|313:365,1,135.000005149842,2|2,1:2|1:2,0:0:0:0:
435,371,28918,1,0,0:0:0:0:
473,289,29061,2,0,P|443:285|400:253,1,67.5000025749208,2|0,1:2|0:0,0:0:0:0:
473,208,29346,1,0,1:0:0:0:
339,139,29489,6,0,P|420:123|437:68,1,135.000005149842,2|2,0:0|0:0,0:0:0:0:
351,5,29918,2,0,L|367:81,1,67.5000025749208,2|2,1:2|0:0,0:0:0:0:
250,152,30203,1,2,1:2:0:0:
282,79,30346,1,2,0:0:0:0:
155,46,30489,6,0,B|182:19|182:19|160:104,1,101.250003862381,2|0,1:2|1:2,0:0:0:0:
239,142,30775,2,0,B|188:159|188:159|174:171|174:171|97:201,1,135.000005149842
39,93,31203,1,0,0:0:0:0:
39,93,31346,2,0,L|59:28,1,67.5000025749208,2|0,1:2|0:0,0:0:0:0:
115,194,31632,1,0,1:0:0:0:
117,166,31775,6,0,B|81:169|53:193|76:197|37:225|-17:226,1,135.000005149842,2|2,0:0|0:0,0:0:0:0:
46,310,32203,1,2,1:2:0:0:
128,241,32346,1,2,0:0:0:0:
179,382,32489,5,2,1:2:0:0:
196,289,32632,1,2,0:0:0:0:
333,374,32775,5,2,1:2:0:0:
286,291,32918,1,2,0:0:0:0:
470,133,33061,6,0,L|443:324,1,180,2|0,1:2|1:0,0:0:0:0:
363,77,33489,2,0,L|465:240,1,180,2|0,0:0|0:0,0:0:0:0:
240,96,33918,2,0,L|423:155,1,180,2|0,1:2|1:0,0:0:0:0:
179,181,34346,1,10,0:0:0:0:
134,63,34489,1,10,0:0:0:0:
59,118,34632,1,10,0:0:0:0:
207,4,34775,5,2,1:2:0:0:
179,203,34918,2,0,B|155:250|93:228|93:228|-5:194,1,180,10|8,0:0|0:0,0:0:0:0:
74,313,35275,1,8,0:0:0:0:
74,313,35346,6,0,P|99:291|89:224,1,90,0|0,1:2|0:0,0:0:0:0:
349,235,35632,2,0,P|293:229|289:144,1,135,8|0,0:0|0:0,0:0:0:0:
299,176,35918,2,0,P|308:218|358:232,1,90,2|0,1:2|0:0,0:0:0:0:
303,326,36203,2,0,P|279:321|250:306,1,45,8|0,0:0|0:0,0:0:0:0:
475,381,36346,6,0,P|477:283|493:180,1,180,2|2,0:0|0:0,0:0:0:0:
380,14,36775,1,8,0:0:0:0:
337,88,36918,1,2,0:0:0:0:
394,151,37061,1,2,1:2:0:0:
472,116,37203,1,2,0:0:0:0:
380,14,37346,6,0,B|327:-1|327:-1|249:5|238:83,1,180,8|0,0:0|1:2,0:0:0:0:
140,174,37775,1,0,0:0:0:0:
140,196,37846,1,0,0:0:0:0:
148,216,37918,2,0,P|196:215|230:188,1,90,10|0,0:0|0:0,0:0:0:0:
31,300,38203,2,0,P|48:286|46:355,1,135,2|0,1:2|0:0,0:0:0:0:
14,311,38489,2,0,L|12:203,1,90,8|2,0:0|0:0,0:0:0:0:
90,101,38775,6,0,P|47:100|10:69,1,90,0|2,1:0|0:0,0:0:0:0:
219,3,39061,1,10,0:0:0:0:
171,79,39204,1,2,0:0:0:0:
261,84,39347,1,2,1:2:0:0:
212,159,39489,1,2,0:0:0:0:
356,214,39632,6,0,B|327:174|341:110|341:110|333:153|278:169,1,180,8|2,0:0|1:2,0:0:0:0:
504,296,40203,2,0,P|454:314|455:372,1,90,8|0,0:0|0:0,0:0:0:0:
512,305,40489,1,0,1:0:0:0:
356,214,40632,2,0,L|368:308,1,90,2|8,0:0|0:0,0:0:0:0:
367,303,40918,1,2,0:0:0:0:
476,150,41061,6,0,P|442:147|403:85,1,90,0|0,1:0|0:0,0:0:0:0:
267,47,41346,2,0,P|223:53|195:86,1,90,10|0,0:0|0:0,0:0:0:0:
263,205,41632,2,0,P|279:164|264:122,1,90,2|0,1:2|0:0,0:0:0:0:
178,236,41918,2,0,P|218:288|283:299,1,135,10|0,0:0|0:0,0:0:0:0:
209,326,42203,6,0,B|163:317|163:317|148:324|148:324|137:310|137:310|73:298,1,135,2|0,1:2|0:0,0:0:0:0:
84,300,42489,1,8,0:0:0:0:
0,153,42632,6,0,B|46:144|46:144|61:151|61:151|72:137|72:137|136:125,1,135,2|0,0:0|0:0,0:0:0:0:
125,127,42918,1,0,0:0:0:0:
333,82,43061,2,0,B|306:30|248:70|248:70|269:88|269:119,1,135,10|0,0:0|0:0,0:0:0:0:
267,114,43346,5,0,1:0:0:0:
194,264,43489,1,10,0:0:0:0:
268,124,43632,1,10,0:0:0:0:
426,367,43918,5,10,0:0:0:0:
466,119,44203,1,10,0:0:0:0:
346,171,44346,1,8,0:0:0:0:
346,171,44418,1,8,0:0:0:0:
346,171,44489,2,0,B|434:160|399:206|475:199,1,135,2|0,1:2|0:0,0:0:0:0:
466,119,44775,6,0,L|463:74,1,45,8|0,0:0|0:0,0:0:0:0:
445,111,44918,2,0,L|442:66,1,45
368,247,45061,6,0,L|365:291,1,45,0|0,1:0|0:0,0:0:0:0:
347,255,45204,2,0,L|344:299,1,45,0|0,1:0|0:0,0:0:0:0:
268,124,45346,5,10,0:0:0:0:
346,171,45489,1,10,0:0:0:0:
190,168,45632,6,0,P|183:93|277:42,1,180,2|8,1:2|0:0,0:0:0:0:
331,0,46061,1,0,0:0:0:0:
105,19,46203,6,0,L|113:86,1,45,0|0,1:0|0:0,0:0:0:0:
86,7,46346,2,0,L|94:74,1,45,0|0,1:0|0:0,0:0:0:0:
14,162,46489,2,0,B|73:146|73:146|94:154|94:154|158:138,1,135,10|0,0:0|0:0,0:0:0:0:
190,168,46775,6,0,P|134:159|105:280,1,180,2|8,1:2|0:0,0:0:0:0:
144,311,47203,1,2,0:0:0:0:
9,262,47346,5,2,1:2:0:0:
180,186,47489,2,0,L|184:110,1,67.5000025749208,2|0,1:2|1:0,0:0:0:0:
130,315,47775,6,0,B|141:351|141:351|173:375,1,67.5000025749208,10|0,0:0|0:0,0:0:0:0:
230,328,48061,2,0,B|218:291|218:291|194:273,1,67.5000025749208,2|8,0:0|0:0,0:0:0:0:
413,251,48346,1,2,0:0:0:0:
340,285,48489,1,2,1:2:0:0:
340,365,48632,1,2,1:2:0:0:
492,286,48775,2,0,B|500:237|500:237|479:188,1,101.250003862381,10|0,0:0|0:0,0:0:0:0:
320,158,49061,6,0,B|350:182|350:182|463:167|463:167|491:206,1,180,6|8,1:2|0:0,0:0:0:0:
413,251,49489,1,0,0:0:0:0:
300,158,49632,5,0,1:0:0:0:
449,76,49775,1,0,1:0:0:0:
398,16,49918,2,0,P|361:35|365:88,1,90,2|10,1:2|0:0,0:0:0:0:
151,0,50203,6,0,L|167:199,1,180,2|8,1:2|0:0,0:0:0:0:
67,71,50632,1,0,0:0:0:0:
245,18,50775,2,0,L|236:66,1,45,0|0,1:0|0:0,0:0:0:0:
261,33,50918,2,0,L|252:81,1,45,2|0,1:2|0:0,0:0:0:0:
265,222,51061,2,0,P|243:178|157:187,1,135,10|0,0:0|0:0,0:0:0:0:
139,267,51346,6,0,B|157:296|208:299|241:268|215:250|243:229|292:228|311:262,1,180,2|10,1:2|0:0,0:0:0:0:
399,311,51775,1,2,0:0:0:0:
323,146,51918,5,2,1:2:0:0:
303,368,52061,1,2,1:2:0:0:
375,238,52203,1,2,1:2:0:0:
465,26,52346,6,0,B|398:23|401:94|401:94|468:182,1,180,10|2,0:0|0:0,0:0:0:0:
199,36,52775,2,0,L|216:125,1,90,10|2,0:0|0:0,0:0:0:0:
215,18,53061,1,2,1:2:0:0:
151,174,53203,1,2,1:2:0:0:
151,174,53275,1,0,0:0:0:0:
151,174,53346,6,0,B|113:161|79:179|112:189|58:230|12:207|1:158|51:120|85:146|83:180,1,202.500007724762,10|0,0:0|0:0,0:0:0:0:
240,147,53632,6,0,B|247:172|228:199|228:199|243:151|207:115,1,135,6|0,1:2|0:0,0:0:0:0:
208,273,53918,2,0,P|256:274|291:238,1,90,8|0,0:0|0:0,0:0:0:0:
80,283,54203,2,0,L|89:341,1,45,0|0,1:0|0:0,0:0:0:0:
89,270,54346,2,0,L|98:328,1,45,0|0,1:0|0:0,0:0:0:0:
18,199,54489,2,0,L|158:171,1,135,10|0,0:0|0:0,0:0:0:0:
77,113,54775,6,0,B|9:90|9:90|18:215,1,180,2|8,1:2|0:0,0:0:0:0:
91,106,55203,1,0,0:0:0:0:
17,15,55346,2,0,L|60:27,1,45,0|0,1:0|0:0,0:0:0:0:
10,0,55489,2,0,L|53:12,1,45,0|0,1:0|0:0,0:0:0:0:
255,18,55632,2,0,B|226:26|187:2|187:2|215:38|183:79,1,135,10|0,0:0|0:0,0:0:0:0:
188,144,55918,6,0,B|241:132|241:132|257:115|257:115|314:106,1,135,2|0,1:2|0:0,0:0:0:0:
379,145,56203,2,0,L|372:200,2,45,8|0|2,0:0|0:0|0:0,0:0:0:0:
451,55,56489,5,0,1:0:0:0:
295,193,56632,1,0,1:0:0:0:
499,246,56775,2,0,P|456:241|421:320,1,135,8|0,0:0|0:0,0:0:0:0:
504,317,57061,6,0,L|502:268,2,45,0|0|2,1:0|0:0|0:0,0:0:0:0:
306,204,57346,2,0,L|304:293,1,90,8|0,0:0|0:0,0:0:0:0:
208,117,57632,1,0,1:0:0:0:
191,220,57775,1,0,1:0:0:0:
120,139,57918,1,8,0:0:0:0:
263,46,58061,1,8,0:0:0:0:
263,46,58132,1,8,0:0:0:0:
263,46,58203,5,6,1:2:0:0:
88,238,58346,1,2,0:0:0:0:
145,17,58489,5,10,0:0:0:0:
81,251,58632,1,2,1:2:0:0:
363,149,58775,5,10,0:0:0:0:
75,268,58918,1,0,1:0:0:0:
396,347,59061,5,10,0:0:0:0:
68,285,59203,1,2,1:2:0:0:
379,69,59346,6,0,P|298:95|294:188,1,168.75,8|0,0:0|0:0,0:0:0:0:
336,226,59632,1,10,0:0:0:0:
156,141,59775,1,0,1:2:0:0:
416,239,59918,5,10,0:0:0:0:
154,309,60061,1,2,1:2:0:0:
485,182,60203,5,8,0:0:0:0:
292,377,60346,1,0,1:0:0:0:
145,126,60489,6,0,L|237:109,1,67.5000025749208,8|0,0:0|0:0,0:0:0:0:
333,46,60632,1,8,0:0:0:0:
393,313,60775,1,0,1:0:0:0:
393,313,60846,1,0,1:0:0:0:
393,313,60918,6,0,L|301:296,1,67.5000025749208,8|0,0:0|0:0,0:0:0:0:
205,233,61061,1,8,0:0:0:0:
326,132,61203,1,0,1:0:0:0:
326,132,61274,1,0,1:0:0:0:
326,132,61346,6,0,L|313:208,1,67.5000025749208,8|0,0:0|0:0,0:0:0:0:
292,377,61489,1,8,0:0:0:0:
145,126,61632,1,0,1:0:0:0:
145,126,61703,1,0,1:0:0:0:
145,126,61775,6,0,L|132:202,1,67.5000025749208,8|0,0:0|0:0,0:0:0:0:
0,298,61918,1,8,0:0:0:0:
154,114,62061,1,8,0:0:0:0:
181,94,62132,1,8,0:0:0:0:
183,66,62203,5,8,0:0:0:0:
247,74,62274,1,8,0:0:0:0:
290,122,62345,1,8,0:0:0:0:
284,191,62418,1,8,0:0:0:0:
276,255,62489,1,0,1:0:0:0:
317,306,62560,1,0,1:0:0:0:
384,311,62632,1,0,1:0:0:0:
494,182,62775,5,2,1:2:0:0:
441,247,63203,5,2,0:0:0:0:
469,384,63632,5,2,0:0:0:0:
287,338,64061,5,2,0:0:0:0:
299,264,64489,5,2,0:0:0:0:
309,194,64965,5,2,1:2:0:0:
309,194,65013,5,0,1:0:0:0:
309,194,65061,6,0,P|302:142|293:186,1,150,10|2,0:0|1:2,0:0:0:0:
199,136,65584,5,0,1:0:0:0:
199,136,65632,6,0,P|158:64|162:146,1,225,10|0,0:0|0:0,0:0:0:0:
43,135,66061,6,0,P|39:90|54:48,1,90,4|0,1:2|0:0,0:0:0:0:
340,111,66346,1,8,0:0:0:0:
241,308,66489,1,8,0:0:0:0:
8,309,66632,2,0,B|-16:347|-16:347|0:258,1,135,8|0,0:0|0:0,0:0:0:0:
117,302,66918,6,0,P|116:268|99:240,1,67.5000025749208,2|0,1:2|0:0,0:0:0:0:
166,237,67061,6,0,P|138:217|105:216,1,67.5,2|0,1:2|0:0,0:0:0:0:
335,184,67346,6,0,P|262:207|272:303,1,168.75,6|0,1:2|0:0,0:0:0:0:
370,300,67632,2,0,L|258:288,1,112.5,10|0,0:0|0:0,0:0:0:0:
502,257,67918,1,2,1:2:0:0:
422,381,68061,1,2,1:2:0:0:
508,352,68203,1,8,0:0:0:0:
456,170,68346,6,0,B|439:91|387:131|348:104|348:104|371:147|329:188,1,225,2|0,1:2|1:0,0:0:0:0:
190,62,68775,2,0,P|233:69|272:11,1,112.5,10|0,0:0|0:0,0:0:0:0:
57,0,69061,1,2,1:2:0:0:
162,210,69203,1,2,1:2:0:0:
0,136,69346,1,8,0:0:0:0:
229,268,69489,6,0,B|250:213|250:213|235:150,1,112.5,2|0,1:2|0:0,0:0:0:0:
98,335,69775,1,2,1:2:0:0:
348,344,69918,1,8,0:0:0:0:
243,129,70061,1,2,0:0:0:0:
356,357,70203,1,0,1:0:0:0:
414,102,70346,1,2,1:2:0:0:
327,118,70489,1,8,0:0:0:0:
76,48,70632,6,0,B|98:99|161:106|161:106|174:65|213:57,1,168.75,2|0,0:0|0:0,0:0:0:0:
237,0,70918,1,0,1:0:0:0:
143,186,71061,2,0,B|110:189|78:169|78:169|52:175|63:202|87:190,1,112.5,8|0,0:0|0:0,0:0:0:0:
229,297,71346,2,0,B|262:294|294:314|294:314|320:308|309:281|285:293,1,112.5,0|2,1:0|1:2,0:0:0:0:
118,347,71632,1,10,0:2:0:0:
229,165,71775,1,2,0:2:0:0:
388,347,71918,6,0,P|419:309|498:299,1,112.5,6|0,1:2|0:0,0:0:0:0:
317,261,72132,6,0,P|365:268|413:332,1,112.5,2|0,0:0|0:0,0:0:0:0:
229,297,72346,6,0,P|264:301|293:288,1,56.25,2|0,0:0|0:0,0:0:0:0:
33,175,72489,6,0,L|24:292,1,112.5,2|0,1:2|1:0,0:0:0:0:
118,347,72703,6,0,L|109:230,1,112.5,2|0,0:0|0:0,0:0:0:0:
109,133,72918,6,0,B|92:107|92:107|51:96,1,56.25,2|0,0:0|0:0,0:0:0:0:
229,165,73061,6,0,P|287:181|336:152,1,112.5,2|0,1:2|0:0,0:0:0:0:
320,9,73275,6,0,P|275:51|277:108,1,112.5,2|0,0:0|0:0,0:0:0:0:
354,80,73489,1,2,0:0:0:0:
197,285,73632,5,2,1:2:0:0:
274,99,73775,1,0,1:0:0:0:
383,315,73918,1,8,0:0:0:0:
424,246,74061,2,0,P|396:232|351:246,1,56.25,2|0,0:0|0:0,0:0:0:0:
85,301,74203,6,0,L|196:284,1,112.5,14|0,0:0|1:0,0:0:0:0:
274,273,74489,1,0,1:0:0:0:
463,127,74632,6,0,L|357:113,1,103.500001974106,14|0,0:0|1:0,0:0:0:0:
274,99,74918,1,0,1:0:0:0:
96,42,75061,6,0,P|78:95|124:149,1,94.499997116089,14|0,0:0|1:0,0:0:0:0:
168,157,75346,1,0,1:0:0:0:
371,233,75489,6,0,P|394:282|373:324,1,85.4999977169037,14|0,0:0|1:0,0:0:0:0:
322,357,75775,1,0,1:0:0:0:
364,94,75918,6,0,B|390:71|393:33|357:32|352:1|352:1|334:35|298:10|291:83|322:92,1,202.500007724762,10|0,0:0|0:0,0:0:0:0:
341,169,76203,6,0,B|322:165|308:172|308:172|296:154|277:147,1,67.5,10|0,0:0|0:0,0:0:0:0:
133,73,76489,6,0,B|206:55|206:55|174:167,1,168.75,6|0,1:2|0:0,0:0:0:0:
97,143,76775,2,0,L|129:32,1,112.5,10|0,0:0|0:0,0:0:0:0:
165,278,77061,1,2,1:2:0:0:
0,246,77203,1,2,1:2:0:0:
38,335,77346,1,8,0:0:0:0:
352,299,77489,6,0,B|350:252|297:245|297:245|222:238|251:292|139:275,1,225,2|0,1:2|1:0,0:0:0:0:
453,255,77918,2,0,B|466:307|466:307|442:366,1,112.5,10|0,0:0|0:0,0:0:0:0:
278,173,78203,1,2,1:2:0:0:
295,358,78346,1,2,1:2:0:0:
449,246,78489,1,10,0:2:0:0:
445,55,78632,6,0,B|391:71|418:22|330:9|339:61|280:37,1,168.75,2|0,1:2|0:0,0:0:0:0:
215,81,78918,1,2,1:2:0:0:
95,229,79061,1,10,0:2:0:0:
41,28,79203,1,2,0:2:0:0:
204,197,79346,5,2,1:2:0:0:
2,319,79489,1,2,1:2:0:0:
184,369,79632,1,8,0:0:0:0:
332,223,79775,6,0,B|339:164|320:196|293:166|286:120|337:66|381:108,1,168.75,6|0,1:2|0:0,0:0:0:0:
415,150,80061,1,0,1:0:0:0:
313,314,80203,2,0,B|293:312|277:283|277:283|306:310|342:302,1,112.5,8|0,0:0|0:0,0:0:0:0:
366,381,80489,1,0,1:0:0:0:
478,251,80632,5,2,1:2:0:0:
293,141,80775,1,10,0:2:0:0:
298,154,80918,1,2,0:2:0:0:
81,297,81061,6,0,B|147:313|147:313|158:339|158:339|239:362,1,168.75,2|2,1:2|0:0,0:0:0:0:
210,221,81346,2,0,L|226:304,1,56.25,8|0,0:0|0:0,0:0:0:0:
232,376,81489,1,2,0:0:0:0:
124,205,81632,5,2,1:2:0:0:
287,306,81775,1,0,1:0:0:0:
440,191,81918,1,8,0:2:0:0:
276,89,82061,1,2,1:2:0:0:
443,293,82203,5,10,0:2:0:0:
355,68,82346,1,0,1:2:0:0:
287,306,82489,5,10,0:2:0:0:
430,49,82632,1,0,1:2:0:0:
385,361,82775,5,10,0:2:0:0:
276,89,82918,1,2,1:2:0:0:
331,147,83061,1,2,1:2:0:0:
167,72,83203,6,0,B|140:113|140:113|52:81|103:0,1,180,6|0,1:2|1:0,0:0:0:0:
0,203,83632,2,0,B|28:218|50:214|50:214|25:210|1:170,1,90,8|0,0:0|0:0,0:0:0:0:
210,347,83918,1,0,1:0:0:0:
20,304,84061,1,0,1:0:0:0:
282,270,84203,2,0,B|282:322|300:310|298:358,1,90,8|0,0:0|0:0,0:0:0:0:
395,183,84489,5,0,1:0:0:0:
180,246,84632,1,0,1:0:0:0:
364,276,84775,1,8,0:0:0:0:
198,141,84918,2,0,P|244:127|257:77,1,90,0|0,0:0|1:0,0:0:0:0:
73,240,85203,5,2,0:0:0:0:
260,212,85346,1,10,0:0:0:0:
465,275,85489,1,2,0:0:0:0:
408,56,85632,6,0,L|291:37,1,90,2|0,1:2|0:0,0:0:0:0:
216,27,85846,1,2,1:2:0:0:
146,46,85918,1,0,1:0:0:0:
322,142,86061,5,2,1:2:0:0:
322,142,86132,1,0,1:0:0:0:
326,146,86203,2,0,L|458:165,1,90,2|0,1:2|0:0,0:0:0:0:
343,352,86489,2,0,L|353:292,1,45,0|0,1:2|0:0,0:0:0:0:
150,184,86632,1,2,1:2:0:0:
104,220,86703,1,2,1:2:0:0:
100,278,86775,5,8,0:0:0:0:
431,342,86918,2,0,L|457:155,1,180,8|0,0:0|0:0,0:0:0:0:
508,68,87346,6,0,P|431:73|491:41,1,180
276,110,87775,6,0,B|305:84|313:36|313:36|299:94|332:143,1,180,6|0,1:2|1:0,0:0:0:0:
127,36,88203,2,0,P|184:21|220:50,1,90,8|0,0:0|0:0,0:0:0:0:
173,246,88489,5,0,1:0:0:0:
61,90,88632,1,0,1:0:0:0:
136,120,88775,1,8,0:0:0:0:
7,322,88918,6,0,L|106:308,1,90,2|0,1:2|0:0,0:0:0:0:
399,322,89203,1,0,1:0:0:0:
172,341,89346,1,8,0:2:0:0:
250,298,89489,1,0,0:2:0:0:
341,119,89632,5,0,1:0:0:0:
317,357,89775,1,0,1:0:0:0:
399,322,89918,1,8,0:0:0:0:
208,170,90061,6,0,B|222:221|292:217|292:217|374:198,1,180,6|0,1:2|1:0,0:0:0:0:
311,47,90489,2,0,P|268:79|271:142,1,90,8|0,0:0|0:0,0:0:0:0:
466,231,90775,5,0,1:0:0:0:
269,123,90918,1,0,1:0:0:0:
381,93,91061,1,8,0:0:0:0:
212,264,91203,6,0,B|170:300|134:244|134:244|153:182|204:199,1,180,6|0,1:2|1:0,0:0:0:0:
270,213,91632,1,8,0:0:0:0:
54,256,91775,1,0,1:0:0:0:
130,130,91918,5,0,1:0:0:0:
133,360,92060,1,2,1:2:0:0:
288,291,92203,2,0,P|320:279|350:230,1,90,10|2,1:2|0:0,0:0:0:0:
217,54,92489,6,0,B|213:145,1,90,4|0,1:2|0:0,0:0:0:0:
410,311,92775,1,8,0:0:0:0:
174,219,92918,1,0,0:0:0:0:
328,120,93060,5,0,1:0:0:0:
336,353,93203,1,0,1:0:0:0:
288,291,93346,1,8,0:0:0:0:
499,161,93489,6,0,B|453:163|418:109|418:109|418:165|461:184,1,180,2|0,1:2|1:0,0:0:0:0:
512,7,93918,2,0,L|413:25,1,90,8|0,0:0|0:0,0:0:0:0:
307,207,94203,1,0,1:0:0:0:
338,0,94346,1,0,1:0:0:0:
418,110,94489,1,8,0:0:0:0:
125,27,94632,6,0,B|144:95|144:95|162:110|162:110|185:193,1,180,6|0,1:2|1:0,0:0:0:0:
14,0,95060,2,0,L|36:102,1,90,8|0,0:0|0:0,0:0:0:0:
40,313,95346,1,8,0:0:0:0:
197,177,95489,1,8,0:0:0:0:
244,249,95632,1,0,1:0:0:0:
501,307,95775,6,0,P|450:329|449:259,1,135,6|0,1:2|0:0,0:0:0:0:
483,199,96061,1,0,1:0:0:0:
470,202,96132,1,0,1:0:0:0:
457,197,96203,2,0,P|452:181|462:163,1,22.5,0|0,1:0|1:0,0:0:0:0:
261,35,96346,5,0,1:0:0:0:
268,102,96418,1,0,1:0:0:0:
277,167,96489,5,8,0:0:0:0:
136,367,96632,1,8,0:0:0:0:
104,74,96775,5,8,0:0:0:0:
268,318,96918,1,8,0:0:0:0:
247,305,97203,5,2,0:0:0:0:
238,279,97346,1,2,0:0:0:0:
244,252,97489,1,2,0:0:0:0:
267,237,97632,1,2,0:0:0:0:
294,237,97775,1,2,0:0:0:0:
22,342,97918,5,2,1:2:0:0:
34,354,97989,1,2,1:2:0:0:
46,366,98061,2,0,L|54:264,1,90,10|0,0:0|0:0,0:0:0:0:
302,107,98346,5,8,0:0:0:0:
58,376,98489,1,8,0:0:0:0:
