osu file format v14

[General]
AudioFilename: audio.mp3
AudioLeadIn: 0
PreviewTime: 66116
Countdown: 0
SampleSet: Soft
StackLeniency: 0.7
Mode: 0
LetterboxInBreaks: 0
WidescreenStoryboard: 0

[Editor]
DistanceSpacing: 0.4
BeatDivisor: 4
GridSize: 8
TimelineZoom: 1.6

[Metadata]
Title:Sacrifice (Short Ver.)
TitleUnicode:Sacrifice (Short Ver.)
Artist:Ouse Akira
ArtistUnicode:逢瀬アキラ
Creator:Saggin
Version:HeTo's Reincarnation
Source:ふゆから​、くるる。
Tags:シルキーズプラス silky's plus eroge visual novel vn japanese rock jrock j-rock video game videogame opening op ふゆくる fuyukuru _kotachi_ -brethia miyohashikoori sanairrt hoto cocoa lude interlude- -atri- kurantemelodii firis mistlud heto
BeatmapID:3582491
BeatmapSetID:1560037

[Difficulty]
HPDrainRate:6
CircleSize:4.3
OverallDifficulty:9.4
ApproachRate:9.5
SliderMultiplier:1.8
SliderTickRate:1

[Events]
//Background and Video events
0,0,"bg2.jpg",0,0
//Break Periods
//Storyboard Layer 0 (Background)
//Storyboard Layer 1 (Fail)
//Storyboard Layer 2 (Pass)
//Storyboard Layer 3 (Foreground)
//Storyboard Layer 4 (Overlay)
//Storyboard Sound Samples

[TimingPoints]
1061,285.714285714286,4,2,5,50,1,0
4775,-153.846153846153,4,2,5,50,0,0
5132,-153.846153846153,4,2,5,5,0,0
5203,-153.846153846153,4,2,5,50,0,0
5275,-153.846153846153,4,2,5,5,0,0
5346,-153.846153846153,4,2,5,50,0,0
5632,-142.857142857143,4,2,5,60,0,0
10203,-117.647058823529,4,2,5,40,0,0
11346,-117.647058823529,4,2,5,50,0,0
12489,-454.545454545455,4,2,5,60,0,0
14703,-454.545454545455,4,2,5,5,0,0
14775,-222.22222222222,4,2,5,60,0,0
15918,-111.111111111111,4,2,5,60,0,0
16489,-83.3333333333333,4,2,5,60,0,0
16561,-83.3333333333333,4,2,5,5,0,0
16632,-83.3333333333333,4,2,5,60,0,0
16703,-83.3333333333333,4,2,5,5,0,0
16775,-83.3333333333333,4,2,5,60,0,0
16846,-83.3333333333333,4,2,5,5,0,0
16918,-100,4,2,5,65,0,0
24918,-83.3333333333333,4,2,5,65,0,0
25132,-83.3333333333333,4,2,5,5,0,0
25203,-83.3333333333333,4,2,5,65,0,0
25275,-83.3333333333333,4,2,5,5,0,0
25346,-83.3333333333333,4,2,5,65,0,0
25418,-83.3333333333333,4,2,5,5,0,0
25489,-83.3333333333333,4,2,5,65,0,0
25775,-250,4,2,5,65,0,0
26132,-250,4,2,5,5,0,0
26203,-153.846153846153,4,2,5,50,0,0
35346,-111.111111111111,4,2,5,60,0,0
58203,-100,4,2,5,65,0,0
60989,-100,4,2,5,5,0,0
61061,-100,4,2,5,65,0,0
61418,-100,4,2,5,5,0,0
61489,-100,4,2,5,65,0,0
61846,-100,4,2,5,5,0,0
61918,-100,4,2,5,65,0,0
62775,-153.846153846153,4,2,5,60,0,0
63203,-181.818181818181,4,2,5,55,0,0
63632,-222.222222222221,4,2,5,50,0,0
64061,-285.714285714284,4,2,5,45,0,0
64489,-500,4,2,5,40,0,0
65061,-117.647058823529,4,2,5,65,0,0
66061,-79.9999999999999,4,2,5,65,0,0
66275,-79.9999999999999,4,2,5,5,0,0
66346,-79.9999999999999,4,2,5,65,0,0
66418,-79.9999999999999,4,2,5,5,0,0
66489,-79.9999999999999,4,2,5,65,0,0
66561,-79.9999999999999,4,2,5,5,0,0
66632,-79.9999999999999,4,2,5,65,0,0
66918,-68.9655172413793,4,2,5,65,0,0
66989,-68.9655172413793,4,2,5,5,0,0
67061,-250,4,2,5,65,0,0
67275,-250,4,2,5,5,0,0
67346,-96.1538461538461,4,2,5,70,0,0
67561,-96.1538461538461,4,2,5,5,0,0
67632,-96.1538461538461,4,2,5,70,0,0
75918,-74.6268656716418,4,2,5,70,0,0
76489,-96.1538461538461,4,2,5,70,0,0
76703,-96.1538461538461,4,2,5,5,0,0
76775,-96.1538461538461,4,2,5,70,0,0
87775,-100,4,2,5,70,0,0
97203,-142.857142857143,4,2,5,55,0,0
98489,-166.666666666667,4,2,5,55,0,0
98918,-166.666666666667,4,2,5,25,0,0
99346,-166.666666666667,4,2,5,5,0,0

[Colours]
Combo1 : 211,169,169
Combo2 : 255,185,220
Combo3 : 153,153,255
Combo4 : 255,175,96
Combo5 : 249,235,66

[HitObjects]
335,185,5061,6,0,L|388:197,1,29.2499986610413,2|0,0:0|0:0,0:0:0:0:
343,174,5203,2,0,L|396:186,1,29.2499986610413,2|0,0:0|0:0,0:0:0:0:
233,295,5346,1,2,0:0:0:0:
233,295,5632,6,0,B|155:319|112:241|112:241|54:212|3:253|3:253|59:238|96:278,1,346.49998942566,6|0,1:2|0:0,0:0:0:0:
232,30,6632,6,0,B|212:139|212:139|242:162|297:124,1,188.999994232178,6|0,1:2|0:0,0:0:0:0:
294,122,7346,2,0,L|370:134,1,62.9999980773926,2|0,0:0|0:0,0:0:0:0:
460,357,7632,1,10,0:0:0:0:
504,222,7775,6,0,B|373:202|411:335|271:319,1,251.999992309571,6|0,1:2|0:0,0:0:0:0:
120,209,8489,1,10,0:0:0:0:
147,134,8632,1,8,0:3:0:0:
225,125,8775,1,8,0:3:0:0:
110,334,8918,6,0,P|65:337|23:258,1,125.999996154785,6|8,1:2|0:0,0:0:0:0:
25,265,9489,2,0,P|30:216|31:191,1,62.9999980773926,0|0,1:2|0:0,0:0:0:0:
147,93,9775,2,0,P|148:118|152:143,1,31.4999990386963,0|0,1:2|1:2,0:0:0:0:
42,24,9918,1,10,0:0:0:0:
42,24,10203,6,8,L|-13:32,5,38.2500007295609,10|8|8|8|10|8,0:0|0:0|0:0|0:0|0:0|0:0,0:0:0:0:
109,128,10632,2,8,L|146:133,1,38.2500007295609
302,38,10775,6,8,L|307:-10,3,38.2500007295609,10|8|8|8,0:0|0:0|0:0|0:0,0:0:0:0:
402,93,11061,1,10,0:0:0:0:
413,96,11132,1,8,0:0:0:0:
424,98,11203,2,8,L|429:146,1,38.2500007295609
297,229,11346,1,10,0:0:0:0:
286,226,11418,1,8,0:0:0:0:
275,224,11489,2,8,L|269:168,1,38.2500007295609
469,351,11632,5,10,0:0:0:0:
447,321,11703,1,8,0:0:0:0:
413,307,11774,1,8,0:0:0:0:
375,313,11846,1,8,0:0:0:0:
360,329,11918,5,10,0:0:0:0:
332,360,11989,1,8,0:0:0:0:
291,368,12060,1,8,0:0:0:0:
253,349,12132,1,8,0:0:0:0:
241,336,12203,6,8,L|168:349,1,38.2500007295609,10|8,0:0|0:0,0:0:0:0:
427,210,12346,2,8,L|470:219,1,38.2500007295609
255,41,12489,6,0,B|116:51|172:197|15:210,1,306.900009365845,6|0,1:2|0:0,0:0:0:0:
9,200,14775,6,0,B|147:210|83:357|248:369,1,303.749990730286,2|0,0:0|0:0,0:0:0:0:
329,288,15918,5,10,0:0:0:0:
328,267,15989,1,8,0:3:0:0:
327,247,16060,1,0,1:2:0:0:
326,227,16132,1,0,1:2:0:0:
325,207,16203,1,0,1:2:0:0:
324,186,16275,1,0,1:2:0:0:
323,166,16346,1,0,1:2:0:0:
322,146,16417,1,0,1:2:0:0:
320,129,16489,6,0,B|289:125|289:125|263:151,1,53.9999983520508,10|0,0:0|0:0,0:0:0:0:
490,222,16632,2,0,B|508:197|508:197|498:161,1,53.9999983520508,10|0,0:0|0:0,0:0:0:0:
273,340,16775,2,0,B|285:368|285:368|321:377,1,53.9999983520508,10|0,0:0|0:0,0:0:0:0:
458,297,16918,6,0,B|390:283|390:283|362:244|362:244|268:218,1,180,6|2,1:2|0:0,0:0:0:0:
165,25,17346,1,10,0:0:0:0:
320,129,17489,1,2,0:0:0:0:
116,243,17632,5,2,1:2:0:0:
200,127,17775,2,0,P|204:179|215:242,1,90,2|8,1:2|0:0,0:0:0:0:
0,336,18061,6,0,B|47:295|101:324|101:324|112:369|170:387,1,180,2|2,1:2|1:2,0:0:0:0:
346,238,18489,1,10,0:0:0:0:
181,305,18632,1,2,0:0:0:0:
341,384,18775,5,2,1:2:0:0:
272,272,18918,2,0,P|268:329|262:372,1,90,2|8,1:2|0:0,0:0:0:0:
103,137,19203,6,0,B|3:154|3:154|-2:206|43:230,1,180,6|2,1:2|1:2,0:0:0:0:
211,68,19632,1,10,0:0:0:0:
137,39,19775,1,2,0:0:0:0:
246,189,19918,5,2,1:2:0:0:
140,297,20061,2,0,P|117:251|132:212,1,90,2|8,1:2|0:0,0:0:0:0:
364,35,20346,6,0,B|417:13|449:48|449:48|449:53|449:53|466:103|537:105,1,180,6|2,1:2|1:2,0:0:0:0:
300,229,20775,1,10,0:0:0:0:
468,356,20918,1,2,0:0:0:0:
424,205,21061,5,0,1:2:0:0:
376,268,21203,1,2,1:2:0:0:
388,285,21275,1,2,0:0:0:0:
411,288,21346,1,10,0:0:0:0:
485,259,21489,1,2,0:0:0:0:
274,105,21632,6,0,P|225:116|171:117,1,90,6|2,1:2|0:0,0:0:0:0:
300,229,21918,1,10,0:0:0:0:
372,114,22061,1,2,0:0:0:0:
204,222,22203,5,2,1:2:0:0:
362,364,22346,2,0,P|366:293|368:250,1,90,2|8,1:2|0:0,0:0:0:0:
172,119,22632,6,0,P|171:208|162:302,1,180,2|2,1:2|1:2,0:0:0:0:
283,205,23061,1,10,0:0:0:0:
101,71,23203,1,2,0:0:0:0:
193,43,23346,5,2,1:2:0:0:
44,222,23489,2,0,P|38:156|28:109,1,90,2|8,1:2|0:0,0:0:0:0:
336,328,23775,6,0,B|289:287|235:316|235:316|224:361|166:379,1,180,6|2,1:2|1:2,0:0:0:0:
44,222,24203,1,10,0:0:0:0:
162,298,24346,1,2,0:0:0:0:
12,377,24489,5,2,1:2:0:0:
82,296,24632,2,0,P|93:355|96:395,1,90,2|8,1:2|0:0,0:0:0:0:
313,135,24918,6,0,B|279:92|294:48|294:48|303:94|357:108,1,161.999995056153,6|0,1:2|0:0,0:0:0:0:
388,158,25203,2,0,L|452:167,1,53.9999983520508,10|0,0:0|0:0,0:0:0:0:
240,328,25346,2,0,B|210:331|210:331|185:303,1,53.9999983520508,10|0,0:0|0:0,0:0:0:0:
324,220,25489,6,0,P|330:289|340:356,1,107.999996704102,14|0,0:0|1:2,0:0:0:0:
139,177,25775,6,0,P|145:126|149:75,1,90,14|0,0:0|0:0,0:0:0:0:
133,11,26203,5,0,1:2:0:0:
133,11,26489,2,0,L|71:21,1,58.4999973220826,2|0,1:2|0:0,0:0:0:0:
231,175,26775,2,0,L|357:197,1,116.999994644165,2|0,1:2|0:0,0:0:0:0:
167,328,27203,6,0,P|129:318|120:247,1,116.999994644165,2|0,0:0|0:0,0:0:0:0:
258,310,27632,2,0,P|253:356|250:381,1,58.4999973220826,2|0,1:2|0:0,0:0:0:0:
107,176,27918,2,0,P|112:222|115:247,1,58.4999973220826,2|0,1:2|0:0,0:0:0:0:
267,100,28203,1,2,1:2:0:0:
214,40,28346,5,2,0:0:0:0:
199,37,28418,1,2,0:0:0:0:
185,42,28489,2,0,B|112:52|152:91|62:98,1,116.999994644165,2|2,1:2|1:2,0:0:0:0:
6,283,28918,1,0,0:0:0:0:
81,309,29061,2,0,P|129:263|193:280,1,116.999994644165,2|0,1:2|1:2,0:0:0:0:
294,367,29489,6,0,L|303:232,1,116.999994644165,2|2,0:0|0:0,0:0:0:0:
230,149,29918,2,0,L|166:159,1,58.4999973220826,2|2,1:2|0:0,0:0:0:0:
319,6,30203,1,2,1:2:0:0:
247,27,30346,1,2,0:0:0:0:
408,158,30489,2,0,P|423:117|415:94,1,58.4999973220826,2|2,1:2|0:0,0:0:0:0:
338,179,30703,5,2,0:0:0:0:
343,187,30775,2,0,P|403:194|457:246,1,116.999994644165,2|2,1:2|1:2,0:0:0:0:
280,345,31203,1,0,0:0:0:0:
225,289,31346,2,0,P|230:239|230:223,1,58.4999973220826,2|0,1:2|0:0,0:0:0:0:
337,285,31632,1,2,0:0:0:0:
177,378,31775,6,0,B|129:369|129:369|115:347|115:347|67:339,1,116.999994644165,2|2,0:0|0:0,0:0:0:0:
240,215,32203,2,0,P|235:165|235:149,1,58.4999973220826,2|0,1:2|0:0,0:0:0:0:
121,42,32489,1,2,1:2:0:0:
55,86,32632,1,2,0:0:0:0:
87,157,32775,1,2,1:2:0:0:
134,38,32918,1,2,0:0:0:0:
14,195,33061,6,0,P|78:194|117:247,1,116.999994644165,2|0,1:2|1:2,0:0:0:0:
253,364,33489,2,0,P|317:365|356:312,1,116.999994644165,2|0,0:0|0:0,0:0:0:0:
267,116,33918,2,0,P|272:193|279:252,1,116.999994644165,2|0,1:2|1:2,0:0:0:0:
156,107,34346,1,10,0:0:0:0:
392,170,34489,1,10,0:0:0:0:
158,305,34632,1,0,1:2:0:0:
267,116,34775,1,2,1:2:0:0:
455,365,34918,6,0,B|411:358|411:358|389:333|389:333|326:325,1,116.999994644165,10|8,0:0|0:0,0:0:0:0:
456,285,35275,5,8,0:0:0:0:
465,276,35346,2,0,P|469:212|472:141,1,121.499996292114,6|0,1:2|0:0,0:0:0:0:
476,145,35632,2,0,P|431:113|406:119,1,80.9999975280763,10|0,0:0|0:0,0:0:0:0:
249,283,35918,2,0,B|164:267|164:267|151:225|188:203,1,161.999995056153,2|10,1:2|0:0,0:0:0:0:
308,6,36346,6,0,P|313:71|320:114,1,80.9999975280763,2|0,0:0|1:2,0:0:0:0:
229,16,36632,1,2,0:0:0:0:
409,117,36775,1,10,0:0:0:0:
188,202,36918,1,2,0:0:0:0:
311,101,37061,2,0,P|306:166|299:209,1,80.9999975280763,2|2,1:2|0:0,0:0:0:0:
384,366,37346,2,0,P|441:367|460:296,1,121.499996292114,10|0,0:0|0:0,0:0:0:0:
436,245,37632,5,0,1:2:0:0:
436,245,37918,2,0,P|397:264|346:270,1,80.9999975280763,10|0,0:0|0:0,0:0:0:0:
176,100,38203,2,0,P|117:113|93:209,1,161.999995056153,2|10,1:2|0:0,0:0:0:0:
199,384,38632,6,0,P|204:319|211:276,1,80.9999975280763,2|0,0:0|1:2,0:0:0:0:
120,374,38918,1,2,0:0:0:0:
300,273,39061,1,10,0:0:0:0:
90,202,39204,1,2,0:0:0:0:
202,289,39346,2,0,P|197:224|190:181,1,80.9999975280763,2|2,1:2|0:0,0:0:0:0:
324,19,39632,2,0,P|371:19|402:104,1,121.499996292114,10|0,0:0|0:0,0:0:0:0:
403,91,39918,6,0,L|320:111,1,80.9999975280763,0|0,1:2|0:0,0:0:0:0:
469,261,40203,2,0,P|489:222|473:177,1,80.9999975280763,10|0,0:0|0:0,0:0:0:0:
355,325,40489,1,2,1:2:0:0:
417,373,40632,2,0,B|446:369|446:369|458:361|458:361|495:355,1,80.9999975280763,2|8,0:0|0:0,0:0:0:0:
251,187,40918,6,0,B|195:184|164:214|164:214|150:254|93:262,1,161.999995056153,2|2,0:0|0:0,0:0:0:0:
221,19,41346,2,0,P|250:63|236:107,1,80.9999975280763,10|0,0:0|0:0,0:0:0:0:
114,257,41632,2,0,L|29:242,1,80.9999975280763,2|0,1:2|0:0,0:0:0:0:
176,83,41918,1,10,0:0:0:0:
176,83,42203,6,0,B|273:79|222:142|345:134,1,161.999995056153,2|8,1:2|0:0,0:0:0:0:
512,15,42632,2,0,P|444:35|432:124,1,161.999995056153,2|0,0:0|0:0,0:0:0:0:
262,287,43061,5,10,0:0:0:0:
257,213,43203,2,0,P|303:222|326:250,1,80.9999975280763,2|0,0:0|1:2,0:0:0:0:
409,383,43489,5,10,0:0:0:0:
161,219,43632,1,10,0:0:0:0:
161,219,43918,2,0,P|166:174|170:125,1,80.9999975280763,10|0,0:0|0:0,0:0:0:0:
61,252,44203,1,10,0:0:0:0:
274,76,44346,5,8,0:0:0:0:
274,76,44418,1,8,0:0:0:0:
274,76,44489,2,0,B|328:88|345:132|345:132|314:110|273:126,1,161.999995056153,2|8,1:2|0:0,0:0:0:0:
161,219,44918,1,2,0:0:0:0:
71,35,45061,5,2,1:2:0:0:
146,24,45203,1,2,1:2:0:0:
187,89,45346,1,2,0:0:0:0:
32,246,45489,5,10,0:0:0:0:
26,146,45632,2,0,B|83:162|83:162|103:199|103:199|196:231,1,161.999995056153,2|8,1:2|0:0,0:0:0:0:
307,316,46061,1,2,0:0:0:0:
352,146,46204,5,2,1:2:0:0:
281,123,46346,1,2,1:2:0:0:
231,184,46489,1,10,0:0:0:0:
231,184,46775,1,2,1:2:0:0:
396,334,46918,5,2,0:0:0:0:
453,281,47061,2,0,P|460:237|461:188,1,80.9999975280763,10|0,0:0|0:0,0:0:0:0:
331,60,47346,1,2,1:2:0:0:
397,21,47489,2,0,P|441:28|465:67,1,80.9999975280763,2|0,1:2|0:0,0:0:0:0:
311,226,47775,2,0,B|248:240|248:240|223:274|223:274|145:291,1,161.999995056153,10|0,0:0|0:0,0:0:0:0:
23,144,48203,2,0,B|6:106|6:106|33:59,1,80.9999975280763,10|0,0:0|0:0,0:0:0:0:
163,201,48489,1,2,1:2:0:0:
1,294,48632,1,0,1:2:0:0:
171,126,48775,1,10,0:0:0:0:
171,126,49061,6,0,B|116:139|99:183|99:183|130:161|171:177,1,161.999995056153,2|8,1:2|0:0,0:0:0:0:
374,264,49489,1,2,0:0:0:0:
464,80,49632,5,2,1:2:0:0:
389,69,49774,1,2,1:2:0:0:
348,134,49917,1,2,0:0:0:0:
496,235,50060,5,10,0:0:0:0:
306,54,50203,2,0,B|249:70|249:70|229:107|229:107|136:139,1,161.999995056153,2|8,1:2|0:0,0:0:0:0:
66,330,50632,1,2,0:0:0:0:
0,130,50775,5,2,1:2:0:0:
76,115,50918,1,2,1:2:0:0:
114,184,51061,1,10,0:0:0:0:
114,184,51346,1,6,1:2:0:0:
267,342,51489,5,2,0:0:0:0:
193,368,51632,2,0,P|186:328|208:289,1,80.9999975280763,10|0,0:0|0:0,0:0:0:0:
356,121,51918,1,2,1:2:0:0:
278,77,52061,2,0,P|283:131|287:179,1,80.9999975280763,2|0,1:2|0:0,0:0:0:0:
445,346,52346,6,0,B|484:296|459:236|459:236|454:277|412:287,1,161.999995056153,10|2,0:0|0:0,0:0:0:0:
267,342,52775,5,10,0:0:0:0:
203,293,52918,1,2,0:0:0:0:
285,157,53061,5,2,1:2:0:0:
356,121,53203,1,2,1:2:0:0:
177,7,53346,5,10,0:0:0:0:
177,7,53632,6,0,B|127:-6|96:32|96:32|90:74|31:89,1,161.999995056153,4|8,1:2|0:0,0:0:0:0:
193,209,54061,1,2,0:0:0:0:
85,320,54203,5,2,1:2:0:0:
18,278,54346,1,0,1:2:0:0:
32,199,54489,2,0,B|71:188|71:188|95:158|95:158|166:142,1,121.499996292114,10|0,0:0|0:0,0:0:0:0:
148,137,54775,6,0,B|239:142|186:222|296:229,1,161.999995056153,2|8,1:2|0:0,0:0:0:0:
442,166,55203,1,2,0:0:0:0:
369,34,55346,5,2,1:2:0:0:
298,66,55489,1,0,1:2:0:0:
309,146,55632,1,10,0:0:0:0:
309,146,55918,6,0,P|368:155|404:254,1,161.999995056153,2|8,1:2|0:0,0:0:0:0:
223,319,56346,2,0,P|164:310|128:211,1,161.999995056153,2|0,0:0|1:2,0:0:0:0:
415,252,56775,6,0,P|436:307|368:388,1,161.999995056153,10|0,0:0|1:2,0:0:0:0:
121,212,57203,2,0,P|117:161|119:123,1,80.9999975280763,2|8,0:0|0:0,0:0:0:0:
248,210,57489,1,0,0:0:0:0:
38,128,57632,1,2,1:2:0:0:
222,26,57775,1,0,1:2:0:0:
121,212,57918,1,10,0:0:0:0:
25,3,58061,5,10,0:0:0:0:
25,3,58132,1,10,0:0:0:0:
25,3,58203,2,0,P|78:16|124:19,1,90,10|0,0:0|0:0,0:0:0:0:
292,151,58489,5,10,0:0:0:0:
92,279,58632,1,2,0:0:0:0:
313,159,58775,5,10,0:0:0:0:
113,18,58918,1,0,1:2:0:0:
261,223,59061,5,10,0:0:0:0:
357,6,59203,1,0,1:2:0:0:
326,316,59346,5,10,0:0:0:0:
512,93,59489,1,0,1:2:0:0:
247,205,59632,5,10,0:0:0:0:
495,367,59775,1,0,1:2:0:0:
314,112,59918,5,10,0:0:0:0:
222,375,60061,1,0,1:2:0:0:
217,66,60203,5,10,0:0:0:0:
326,316,60346,1,0,1:2:0:0:
391,128,60489,5,10,0:0:0:0:
119,331,60632,2,0,P|168:338|225:354,1,90,10|0,0:0|1:2,0:0:0:0:
220,348,60846,5,0,1:2:0:0:
233,344,60918,2,0,P|235:312|239:282,1,45,10|0,0:0|0:0,0:0:0:0:
128,78,61061,2,0,P|126:110|117:192,1,90,10|0,0:0|1:2,0:0:0:0:
120,181,61275,5,0,1:2:0:0:
124,193,61346,2,0,P|157:212|182:207,1,45,10|0,0:0|0:0,0:0:0:0:
373,53,61489,2,0,P|424:55|458:95,1,90,10|0,0:0|1:2,0:0:0:0:
457,91,61703,5,0,1:2:0:0:
462,103,61775,2,0,L|459:175,1,45,10|0,0:0|0:0,0:0:0:0:
329,311,61918,2,0,B|304:271|304:271|334:225,1,90,10|0,0:0|1:2,0:0:0:0:
335,222,62132,5,0,1:2:0:0:
343,212,62203,2,0,L|398:220,1,45,10|8,0:0|0:0,0:0:0:0:
229,336,62346,2,0,L|184:342,1,45,0|0,1:2|1:2,0:0:0:0:
65,156,62489,5,0,1:2:0:0:
68,142,62561,1,0,1:2:0:0:
70,128,62632,1,0,1:2:0:0:
72,114,62703,1,0,1:2:0:0:
76,103,62775,6,0,P|150:157|143:190,1,116.999994644165,14|0,0:0|0:0,0:0:0:0:
246,80,63203,6,0,P|237:158|209:167,1,99.0000030212403,2|0,0:0|0:0,0:0:0:0:
343,212,63632,6,0,P|284:237|267:222,1,80.9999975280763,2|0,0:0|0:0,0:0:0:0:
276,334,64061,6,0,P|236:305|240:288,1,62.9999980773926,2|0,0:0|0:0,0:0:0:0:
142,367,64489,6,0,P|146:320|163:315,1,63,2|0,0:0|0:0,0:0:0:0:
180,236,65061,5,10,0:0:0:0:
143,168,65156,1,2,0:0:0:0:
66,171,65251,1,2,0:0:0:0:
52,176,65346,5,2,0:0:0:0:
5,115,65441,1,2,0:0:0:0:
46,46,65537,1,2,1:2:0:0:
63,45,65632,6,0,P|115:62|155:56,1,76.5000014591217,10|0,0:0|0:0,0:0:0:0:
136,60,65918,1,2,0:0:0:0:
493,205,66061,6,0,P|418:193|361:261,1,168.75,10|0,0:0|0:0,0:0:0:0:
389,326,66346,2,0,L|384:385,1,56.25,10|0,0:0|0:0,0:0:0:0:
168,240,66489,2,0,L|163:183,1,56.25,10|0,0:0|0:0,0:0:0:0:
376,0,66632,2,0,B|371:48|371:48|384:64|384:64|379:128,1,112.5,14|0,0:0|0:0,0:0:0:0:
193,355,66918,6,0,B|160:370|160:370|124:353,1,65.250001991272,0|0,1:2|0:0,0:0:0:0:
314,260,67061,6,0,B|336:245|336:245|366:259,1,54,0|0,1:2|0:0,0:0:0:0:
274,324,67346,6,0,L|265:157,1,140.399999143066,6|0,1:2|0:0,0:0:0:0:
283,110,67632,2,0,B|236:105|236:105|203:140,1,93.5999994287109,10|0,0:0|0:0,0:0:0:0:
60,297,67918,1,2,1:2:0:0:
17,144,68061,2,0,P|72:150|99:185,1,93.5999994287109,2|8,1:2|0:0,0:0:0:0:
389,338,68346,6,0,B|349:306|289:324|276:371|276:371|320:357|323:368,1,187.199998857422,2|0,1:2|1:2,0:0:0:0:
483,164,68775,2,0,L|493:274,1,93.5999994287109,10|0,0:0|0:0,0:0:0:0:
283,110,69061,1,2,1:2:0:0:
422,20,69203,1,2,1:2:0:0:
276,253,69346,1,10,0:0:0:0:
134,51,69489,6,0,B|78:34|31:79|31:79|39:126|4:143,1,187.199998857422,2|2,1:2|1:2,0:0:0:0:
195,345,69918,1,10,0:0:0:0:
146,213,70061,1,2,0:0:0:0:
3,367,70203,5,2,1:2:0:0:
146,213,70346,2,0,B|186:224|186:224|197:236|197:236|255:250,1,93.5999994287109,2|8,1:2|0:0,0:0:0:0:
466,381,70632,6,0,B|446:266|446:266|481:253|525:288,1,187.199998857422,2|0,1:2|1:2,0:0:0:0:
306,30,71061,2,0,P|240:64|257:197,1,187.199998857422,10|0,0:0|1:2,0:0:0:0:
454,73,71489,1,2,1:2:0:0:
294,119,71632,1,10,0:0:0:0:
510,285,71775,1,2,0:0:0:0:
426,147,71918,6,0,B|342:160|387:211|285:233,1,140.399999143066,6|2,1:2|0:0,0:0:0:0:
305,243,72203,1,10,0:0:0:0:
65,360,72346,6,0,P|51:340|57:312,1,46.7999997143555,2|0,0:0|0:0,0:0:0:0:
144,192,72489,2,0,L|136:305,1,93.5999994287109,2|0,1:2|1:2,0:0:0:0:
138,304,72703,1,2,0:0:0:0:
141,322,72775,1,10,0:0:0:0:
197,379,72918,1,2,0:0:0:0:
12,169,73061,6,0,B|59:153|59:153|76:116|76:116|141:92,1,140.399999143066,2|2,1:2|0:0,0:0:0:0:
140,93,73346,1,10,0:0:0:0:
393,204,73489,1,2,0:0:0:0:
314,25,73632,6,0,P|272:47|263:107,1,93.5999994287109,2|0,1:2|1:2,0:0:0:0:
265,106,73846,1,2,0:0:0:0:
279,117,73918,1,10,0:0:0:0:
411,19,74061,1,2,0:0:0:0:
121,262,74203,5,14,0:0:0:0:
425,110,74346,1,0,1:2:0:0:
114,2,74489,1,0,1:2:0:0:
414,100,74632,5,14,0:0:0:0:
135,180,74775,1,0,1:2:0:0:
415,318,74918,1,0,1:2:0:0:
145,179,75061,5,14,0:0:0:0:
398,247,75203,1,0,1:2:0:0:
147,367,75346,1,0,1:2:0:0:
389,237,75489,5,14,0:0:0:0:
162,294,75632,1,0,1:2:0:0:
371,384,75775,1,0,0:1:0:0:
271,112,75918,6,0,B|257:151|257:151|281:187|281:187|263:250,1,120.599994295349,14|0,0:0|1:2,0:0:0:0:
259,221,76203,6,0,B|267:191|267:191|242:153|242:153|257:112,1,120.599994295349,14|0,0:0|1:2,0:0:0:0:
44,265,76489,6,0,P|144:268|168:328,1,140.399999143066,6|0,1:2|0:0,0:0:0:0:
143,362,76775,2,0,P|201:355|225:319,1,93.5999994287109,10|0,0:0|0:0,0:0:0:0:
41,150,77061,1,2,1:2:0:0:
147,65,77203,2,0,B|173:106|173:106|140:171,1,93.5999994287109,2|8,1:2|0:0,0:0:0:0:
348,356,77489,6,0,B|444:337|444:337|457:284|410:257,1,187.199998857422,2|0,1:2|1:2,0:0:0:0:
302,32,77918,2,0,P|296:92|293:161,1,93.5999994287109,10|0,0:0|0:0,0:0:0:0:
426,16,78203,1,2,1:2:0:0:
151,146,78346,1,2,1:2:0:0:
414,259,78489,1,10,0:0:0:0:
294,125,78632,6,0,B|187:135|251:214|141:229,1,187.199998857422,2|2,1:2|1:2,0:0:0:0:
41,85,79061,1,10,0:0:0:0:
268,249,79203,1,2,0:0:0:0:
23,361,79346,1,2,1:2:0:0:
141,236,79489,2,0,P|146:300|148:351,1,93.5999994287109,2|8,1:2|0:0,0:0:0:0:
396,110,79775,6,0,B|450:112|470:162|470:162|438:129|366:148,1,187.199998857422,2|0,1:2|1:2,0:0:0:0:
160,16,80203,2,0,B|96:36|96:36|63:85|63:85|-24:116,1,187.199998857422,10|0,0:0|1:2,0:0:0:0:
141,236,80632,1,2,1:2:0:0:
285,126,80775,1,10,0:0:0:0:
223,82,80918,1,2,0:0:0:0:
308,312,81061,6,0,P|346:277|444:281,1,140.399999143066,6|2,1:2|0:0,0:0:0:0:
440,286,81346,1,10,0:0:0:0:
285,126,81489,1,2,0:0:0:0:
399,6,81632,2,0,P|401:59|410:121,1,93.5999994287109,2|0,1:2|1:2,0:0:0:0:
408,117,81846,1,2,0:0:0:0:
412,135,81918,1,10,0:0:0:0:
308,312,82061,1,0,0:0:0:0:
89,75,82203,5,10,0:0:0:0:
340,221,82346,1,0,1:2:0:0:
96,347,82489,5,10,0:0:0:0:
353,217,82632,1,0,1:2:0:0:
201,3,82775,6,0,P|199:75|192:124,1,93.5999994287109,10|0,0:0|1:2,0:0:0:0:
399,6,83061,1,10,0:0:0:0:
109,147,83203,6,0,B|172:114|213:148|213:148|209:195|245:214,1,187.199998857422,6|0,1:2|1:2,0:0:0:0:
511,108,83632,2,0,P|471:74|421:85,1,93.5999994287109,10|0,0:0|0:0,0:0:0:0:
290,151,83918,1,0,1:2:0:0:
475,302,84061,1,0,1:2:0:0:
402,169,84203,1,10,0:0:0:0:
402,169,84489,6,0,P|396:230|395:272,1,93.5999994287109,2|0,1:2|1:2,0:0:0:0:
290,70,84775,1,10,0:0:0:0:
154,236,84918,2,0,P|152:189|139:37,1,187.199998857422,2|2,0:0|1:2,0:0:0:0:
270,201,85346,1,10,0:0:0:0:
99,318,85489,1,2,0:0:0:0:
166,368,85632,5,6,1:2:0:0:
73,191,85775,1,8,0:3:0:0:
40,188,85846,1,8,0:3:0:0:
26,217,85918,1,8,0:3:0:0:
236,317,86061,6,0,L|292:325,1,46.7999997143555,4|4,0:3|0:3,0:0:0:0:
163,137,86203,2,0,P|158:195|153:244,1,93.5999994287109,8|4,0:3|0:3,0:0:0:0:
152,244,86418,1,4,0:3:0:0:
150,257,86489,1,0,1:2:0:0:
99,318,86632,1,4,0:3:0:0:
337,187,86775,5,10,0:0:0:0:
90,34,86918,1,10,0:0:0:0:
223,256,87775,6,0,B|162:272|162:272|132:320|132:320|50:346,1,180,6|2,1:2|1:2,0:0:0:0:
246,149,88203,1,10,0:0:0:0:
57,231,88346,1,2,0:0:0:0:
266,370,88489,5,2,1:2:0:0:
151,215,88632,2,0,P|151:275|146:317,1,90,2|8,1:2|0:0,0:0:0:0:
388,370,88918,6,0,B|484:350|484:350|492:307|446:272,1,180,2|2,1:2|1:2,0:0:0:0:
323,101,89346,1,10,0:0:0:0:
496,193,89489,1,2,0:0:0:0:
318,269,89632,5,2,1:2:0:0:
405,129,89775,2,0,P|405:189|410:231,1,90,2|8,1:2|0:0,0:0:0:0:
275,18,90061,6,0,B|219:31|219:31|201:61|201:61|126:85,1,135,6|0,1:2|0:0,0:0:0:0:
158,86,90346,1,2,1:2:0:0:
218,138,90489,1,10,0:0:0:0:
120,305,90632,1,2,0:0:0:0:
0,210,90775,5,2,1:2:0:0:
53,157,90918,2,0,P|78:193|72:254,1,90,2|8,1:2|0:0,0:0:0:0:
280,372,91203,6,0,B|330:376|345:325|345:325|345:320|345:320|375:276|435:290,1,180,6|2,1:2|1:2,0:0:0:0:
189,119,91632,1,10,0:0:0:0:
400,43,91775,1,2,0:0:0:0:
224,209,91918,5,2,1:2:0:0:
280,263,92061,1,2,1:2:0:0:
294,252,92132,1,2,1:2:0:0:
297,234,92203,1,10,0:0:0:0:
183,107,92346,1,2,0:0:0:0:
313,0,92489,6,0,P|310:60|307:101,1,90,6|2,1:2|0:0,0:0:0:0:
134,263,92775,2,0,P|113:227|128:162,1,90,10|2,0:0|0:0,0:0:0:0:
259,336,93061,5,2,1:2:0:0:
114,170,93203,2,0,P|70:182|25:183,1,90,2|8,1:2|0:0,0:0:0:0:
173,16,93489,6,0,B|227:-16|269:32|269:32|272:81|330:98,1,180,2|2,1:2|1:2,0:0:0:0:
400,252,93918,1,10,0:0:0:0:
500,148,94061,1,2,0:0:0:0:
310,237,94203,5,2,1:2:0:0:
468,364,94346,2,0,P|471:312|478:264,1,90,2|8,1:2|0:0,0:0:0:0:
357,26,94632,6,0,B|409:34|409:34|430:57|430:57|509:69,1,135,6|0,1:2|0:0,0:0:0:0:
494,73,94918,1,2,1:2:0:0:
251,188,95061,1,10,0:0:0:0:
476,274,95203,1,2,0:0:0:0:
391,163,95346,1,10,0:0:0:0:
267,384,95489,1,10,0:0:0:0:
482,197,95632,1,8,1:2:0:0:
212,58,95775,6,0,B|156:40|107:95|107:95|116:136|60:170,1,180,6|8,1:2|0:3,0:0:0:0:
78,161,96132,1,8,0:3:0:0:
69,171,96203,2,0,L|76:225,1,45,4|4,0:3|0:3,0:0:0:0:
256,302,96346,1,0,1:2:0:0:
269,305,96418,1,0,1:2:0:0:
282,306,96489,2,0,L|289:252,1,45,10|0,0:0|0:0,0:0:0:0:
265,187,96632,1,8,0:0:0:0:
148,360,96775,5,10,0:0:0:0:
391,163,96918,1,10,0:0:0:0:
391,163,97203,5,2,0:0:0:0:
364,90,97346,1,2,0:0:0:0:
284,82,97489,1,2,0:0:0:0:
199,165,97632,5,2,0:0:0:0:
178,179,97775,1,2,0:0:0:0:
154,169,97918,2,0,L|149:124,1,31.4999990386963,0|0,1:2|1:2,0:0:0:0:
288,237,98061,5,10,0:0:0:0:
301,243,98346,5,10,0:0:0:0:
95,335,98489,2,0,B|55:298|12:313|12:313|54:279|95:296|95:296|157:355|231:317,1,323.999990112305,10|0,0:0|0:0,0:0:0:0:
