osu file format v14

[General]
AudioFilename: audio.mp3
AudioLeadIn: 0
PreviewTime: 66116
Countdown: 0
SampleSet: Soft
StackLeniency: 0.7
Mode: 0
LetterboxInBreaks: 0
WidescreenStoryboard: 0

[Editor]
Bookmarks: 95116
DistanceSpacing: 0.6
BeatDivisor: 8
GridSize: 32
TimelineZoom: 1.8

[Metadata]
Title:Sacrifice (Short Ver.)
TitleUnicode:Sacrifice (Short Ver.)
Artist:Ouse Akira
ArtistUnicode:逢瀬アキラ
Creator:Saggin
Version:Checkmate
Source:ふゆから​、くるる。
Tags:シルキーズプラス silky's plus eroge visual novel vn japanese rock jrock j-rock video game videogame opening op ふゆくる fuyukuru _kotachi_ -brethia miyohashikoori sanairrt hoto cocoa lude interlude- -atri- kurantemelodii firis mistlud heto
BeatmapID:3186427
BeatmapSetID:1560037

[Difficulty]
HPDrainRate:5
CircleSize:4.2
OverallDifficulty:9.4
ApproachRate:9.6
SliderMultiplier:1.7
SliderTickRate:1

[Events]
//Background and Video events
0,0,"bg1.jpg",0,0
//Break Periods
//Storyboard Layer 0 (Background)
//Storyboard Layer 1 (Fail)
//Storyboard Layer 2 (Pass)
//Storyboard Layer 3 (Foreground)
//Storyboard Layer 4 (Overlay)
//Storyboard Sound Samples

[TimingPoints]
1061,285.714285714286,4,2,1,40,1,0
5632,-200,4,2,1,45,0,0
10203,-100,4,2,1,45,0,0
12489,-500,4,2,1,45,0,0
14703,-500,4,2,1,5,0,0
14775,-1000,4,2,1,45,0,0
15918,-90.9090909090909,4,2,1,45,0,0
16489,-90.9090909090909,4,2,1,50,0,0
16918,-90.9090909090909,4,2,1,60,0,0
26489,-111.111111111111,4,2,1,40,0,0
28418,-111.111111111111,4,2,1,5,0,0
28489,-111.111111111111,4,2,1,40,0,0
30703,-111.111111111111,4,2,1,5,0,0
30775,-111.111111111111,4,2,1,40,0,0
35346,-100,4,2,1,40,0,0
35561,-100,4,2,1,5,0,0
35632,-100,4,2,1,50,0,0
39846,-100,4,2,1,5,0,0
39918,-100,4,2,1,50,0,0
40418,-100,4,2,1,5,0,0
40489,-100,4,2,1,50,0,0
47989,-100,4,2,1,5,0,0
48061,-100,4,2,1,50,0,0
58203,-100,4,2,1,60,0,0
62775,-1000,4,2,1,30,0,0
64965,-133.333333333333,4,2,1,40,0,0
66061,-66.6666666666667,4,2,1,60,0,0
66275,-66.6666666666667,4,2,1,5,0,0
66346,-66.6666666666667,4,2,1,60,0,0
67061,-200,4,2,1,60,0,0
67275,-200,4,2,1,5,0,0
67346,-66.6666666666667,4,2,1,70,0,0
67561,-66.6666666666667,4,2,1,5,0,0
67632,-83.3333333333333,4,2,1,70,0,1
69703,-83.3333333333333,4,2,1,5,0,1
69775,-83.3333333333333,4,2,1,70,0,1
70846,-83.3333333333333,4,2,1,5,0,1
70918,-83.3333333333333,4,2,1,70,0,1
71918,-66.6666666666667,4,2,1,70,0,1
72061,-66.6666666666667,4,2,1,5,0,1
72132,-66.6666666666667,4,2,1,70,0,1
72275,-66.6666666666667,4,2,1,5,0,1
72346,-66.6666666666667,4,2,1,70,0,1
72418,-66.6666666666667,4,2,1,5,0,1
72489,-66.6666666666667,4,2,1,70,0,1
72846,-66.6666666666667,4,2,1,5,0,1
72918,-66.6666666666667,4,2,1,70,0,1
72989,-66.6666666666667,4,2,1,5,0,1
73061,-66.6666666666667,4,2,1,70,0,1
73203,-66.6666666666667,4,2,1,5,0,1
73275,-66.6666666666667,4,2,1,70,0,1
73418,-66.6666666666667,4,2,1,5,0,1
73489,-66.6666666666667,4,2,1,70,0,1
73561,-66.6666666666667,4,2,1,5,0,1
73632,-66.6666666666667,4,2,1,70,0,1
73989,-66.6666666666667,4,2,1,5,0,1
74061,-66.6666666666667,4,2,1,70,0,1
74132,-66.6666666666667,4,2,1,5,0,1
74203,-66.6666666666667,4,2,1,70,0,1
76489,-83.3333333333333,4,2,1,70,0,1
76703,-83.3333333333333,4,2,1,5,0,1
76775,-83.3333333333333,4,2,1,70,0,1
83418,-83.3333333333333,4,2,1,5,0,1
83489,-83.3333333333333,4,2,1,70,0,1
85632,-100,4,2,1,70,0,1
86918,-100,4,2,1,70,0,0
87775,-90.9090909090909,4,2,1,60,0,0

[Colours]
Combo1 : 251,171,157
Combo2 : 176,245,255
Combo3 : 102,171,255
Combo4 : 254,112,230
Combo5 : 9,234,217
Combo6 : 247,221,43
Combo7 : 236,168,253

[HitObjects]
398,97,5632,6,0,B|415:57|464:49|464:49|500:128|440:211,1,255,4|0,0:0|0:0,0:0:0:0:
220,330,6632,6,0,B|213:304|183:281|183:281|289:285|222:359|370:358,1,255,4|0,0:0|0:0,0:0:0:0:
413,301,7632,1,8,0:0:0:0:
300,113,7775,6,0,P|316:193|331:298,1,170,4|0,0:0|0:0,0:0:0:0:
368,78,8489,5,8,0:0:0:0:
243,172,8632,1,0,1:0:0:0:
373,84,8775,1,0,1:0:0:0:
244,182,8918,6,0,B|210:193|210:193|203:207|203:207|158:221,1,85,4|8,0:0|0:0,0:0:0:0:
46,149,9346,2,0,P|43:125|49:104,1,42.5,0|0,1:0|1:0,0:0:0:0:
126,107,9632,2,0,P|130:127|127:148,1,42.5,0|0,1:0|1:0,0:0:0:0:
126,162,9846,1,0,1:0:0:0:
126,162,9918,1,8,0:0:0:0:
13,296,10061,1,0,0:0:0:0:
73,255,10203,5,2,1:2:0:0:
85,247,10274,1,0,1:2:0:0:
98,243,10345,1,0,1:2:0:0:
112,242,10417,1,0,1:2:0:0:
126,244,10488,1,0,1:2:0:0:
139,249,10561,1,0,1:2:0:0:
151,257,10632,2,0,L|195:293,1,42.5,2|0,1:2|1:2,1:2:0:0:
313,358,10775,5,2,1:2:0:0:
336,323,10846,1,0,1:2:0:0:
340,281,10917,1,0,1:2:0:0:
321,244,10989,1,0,1:2:0:0:
280,231,11061,1,0,1:2:0:0:
263,191,11132,1,0,1:2:0:0:
263,149,11203,1,2,1:2:0:0:
280,111,11275,1,0,1:2:0:0:
316,89,11346,6,0,L|308:39,1,42.5,0|0,1:2|1:2,1:2:0:0:
466,205,11489,5,0,1:2:0:0:
466,205,11561,1,0,1:2:0:0:
466,205,11632,2,0,L|417:220,1,42.5,10|0,0:2|1:2,1:2:0:0:
309,47,11775,2,0,L|363:56,1,42.5,2|0,1:2|1:2,1:2:0:0:
322,259,11918,6,0,B|315:234|315:234|323:209,1,42.5,10|0,0:2|1:2,1:2:0:0:
474,41,12061,2,0,B|478:59|478:59|471:82,1,42.5,2|0,1:2|1:2,1:2:0:0:
318,339,12203,5,10,0:2:0:0:
269,322,12275,1,0,1:2:0:0:
236,283,12346,1,2,1:2:0:0:
236,231,12418,1,0,1:2:0:0:
264,184,12489,6,0,B|166:177|223:99|91:93|91:93|121:112|130:138,1,263.5,6|0,1:2|0:0,0:0:0:0:
129,135,14775,6,0,L|117:197,1,63.75,2|0,0:0|0:0,0:0:0:0:
56,258,15918,5,8,0:0:0:0:
84,244,15989,1,8,0:0:0:0:
114,242,16060,1,8,0:0:0:0:
144,250,16132,1,8,0:0:0:0:
151,266,16203,5,0,1:0:0:0:
163,271,16275,1,0,1:0:0:0:
176,273,16346,1,0,1:0:0:0:
189,269,16418,1,0,1:0:0:0:
202,264,16489,5,8,0:0:0:0:
433,108,16632,1,8,0:0:0:0:
188,12,16775,1,8,0:0:0:0:
435,195,16918,6,0,B|372:211|372:211|352:249|352:249|271:272,1,187.000005706787,6|0,1:2|1:0,0:0:0:0:
118,121,17346,1,8,0:0:0:0:
73,177,17489,1,0,0:0:0:0:
238,76,17632,1,0,1:0:0:0:
40,11,17775,2,0,P|45:61|47:109,1,93.5000028533937,0|8,1:0|0:0,0:0:0:0:
37,337,18061,6,0,P|41:286|165:250,1,187.000005706787,2|0,1:2|1:0,0:0:0:0:
362,143,18489,1,8,0:0:0:0:
315,81,18632,1,0,0:0:0:0:
403,241,18775,1,0,1:0:0:0:
480,53,18918,2,0,P|433:74|389:79,1,93.5000028533937,0|8,1:0|0:0,0:0:0:0:
255,340,19203,6,0,P|235:290|259:154,1,187.000005706787,6|0,1:2|1:0,0:0:0:0:
166,352,19632,1,8,0:0:0:0:
326,226,19775,1,0,0:0:0:0:
154,142,19918,1,0,1:0:0:0:
329,31,20061,2,0,L|321:140,1,93.5000028533937,0|8,1:0|0:0,0:0:0:0:
88,281,20346,6,0,B|161:307|161:307|171:340|171:340|245:365,1,187.000005706787,6|0,1:2|1:0,0:0:0:0:
410,175,20775,1,8,0:0:0:0:
237,281,20918,1,0,0:0:0:0:
418,363,21061,5,0,1:0:0:0:
293,200,21203,1,2,1:2:0:0:
291,214,21275,1,2,0:0:0:0:
293,227,21346,1,10,0:0:0:0:
454,85,21489,1,2,0:0:0:0:
379,43,21632,6,0,L|387:142,1,93.5000028533937,4|0,1:2|0:0,0:0:0:0:
192,63,21918,1,8,0:0:0:0:
245,5,22061,1,0,0:0:0:0:
148,167,22203,1,0,1:0:0:0:
41,0,22346,2,0,P|91:16|133:19,1,93.5000028533937,0|8,1:0|0:0,0:0:0:0:
306,237,22632,6,0,B|279:189|211:209|211:209|193:246|122:245,1,187.000005706787,2|0,1:2|1:0,0:0:0:0:
19,80,23061,1,8,0:0:0:0:
73,134,23203,1,0,0:0:0:0:
0,263,23346,1,0,1:0:0:0:
142,88,23489,2,0,P|190:102|248:108,1,93.5000028533936,0|8,1:0|0:0,0:0:0:0:
372,336,23775,6,0,P|397:264|370:148,1,187.000005706787,6|0,1:2|1:0,0:0:0:0:
235,8,24203,1,8,0:0:0:0:
425,100,24346,1,0,0:0:0:0:
245,210,24489,1,0,1:0:0:0:
320,20,24632,2,0,P|313:85|310:123,1,93.5000028533936,0|8,1:0|0:0,0:0:0:0:
168,352,24918,6,0,P|103:338|83:223,1,187.000005706787,6|0,1:2|0:0,0:0:0:0:
245,25,25346,5,8,0:0:0:0:
251,347,25489,2,0,P|299:329|343:322,1,93.5000028533936,8|0,0:0|1:0,0:0:0:0:
232,98,25775,6,0,B|120:98|187:24|42:19|42:19|77:38|96:77,1,280.500008560181,10|0,0:0|1:0,0:0:0:0:
84,73,26489,6,0,P|75:107|91:147,1,76.4999976654053,2|0,1:2|0:0,0:0:0:0:
3,236,26775,2,0,B|85:243|39:299|159:303,1,152.999995330811,2|0,1:2|1:0,0:0:0:0:
244,176,27203,6,0,P|196:192|156:190,1,76.4999976654053,2|0,0:0|1:0,0:0:0:0:
280,316,27489,1,2,0:0:0:0:
280,316,27632,2,0,P|290:278|275:234,1,76.4999976654053,2|2,1:2|0:0,0:0:0:0:
165,116,27918,2,0,P|170:162|170:202,1,76.4999976654053,2|2,1:2|0:0,0:0:0:0:
279,42,28203,2,0,P|323:37|361:101,1,114.749996498108,2|0,1:2|0:0,0:0:0:0:
370,104,28489,6,0,P|327:112|292:122,1,76.4999976654053,2|0,1:2|0:0,0:0:0:0:
98,72,28775,2,0,P|86:36|99:-8,1,76.4999976654053,2|0,1:2|0:0,0:0:0:0:
0,145,29061,2,0,B|88:151|37:202|150:202,1,152.999995330811,2|0,1:2|1:0,0:0:0:0:
226,94,29489,6,0,P|175:112|161:143,1,76.4999976654053,2|0,0:0|1:0,0:0:0:0:
71,238,29775,1,2,0:0:0:0:
71,238,29918,2,0,P|81:292|82:314,1,76.4999976654053,2|2,1:2|0:0,0:0:0:0:
222,380,30203,2,0,P|219:341|211:304,1,76.4999976654053,2|2,1:2|0:0,0:0:0:0:
303,156,30489,2,0,P|259:147|237:73,1,114.749996498108,2|0,1:2|0:0,0:0:0:0:
234,63,30775,6,0,P|278:71|315:74,1,76.4999976654053,0|0,1:2|0:0,0:0:0:0:
428,207,31061,2,0,P|438:168|427:133,1,76.4999976654053,2|0,1:2|0:0,0:0:0:0:
510,267,31346,2,0,B|422:273|473:324|360:324,1,152.999995330811,2|0,1:2|1:0,0:0:0:0:
265,177,31775,6,0,P|307:190|346:191,1,76.4999976654053,2|0,0:0|1:2,0:0:0:0:
240,317,32061,1,2,0:0:0:0:
240,317,32203,2,0,P|201:319|165:331,1,76.4999976654053,2|2,1:2|0:0,0:0:0:0:
24,240,32489,5,2,1:2:0:0:
89,280,32632,1,2,0:0:0:0:
23,314,32775,5,2,1:2:0:0:
89,280,32918,1,2,0:0:0:0:
18,164,33061,6,0,B|86:158|73:100|151:99,1,152.999995330811,2|0,1:2|1:0,0:0:0:0:
322,28,33489,1,2,0:0:0:0:
245,0,33632,2,0,L|255:95,1,76.4999976654053,0|0,1:0|0:0,0:0:0:0:
396,200,33918,2,0,P|355:198|305:285,1,152.999995330811,2|0,1:2|1:0,0:0:0:0:
209,158,34346,5,10,0:0:0:0:
379,271,34489,1,10,0:0:0:0:
192,356,34632,1,10,0:0:0:0:
229,290,34775,5,2,1:2:0:0:
361,364,34918,2,0,P|319:366|282:376,1,76.4999976654053,10|0,0:0|0:0,0:0:0:0:
457,236,35203,5,8,0:0:0:0:
457,236,35275,1,8,0:0:0:0:
457,236,35346,2,0,P|443:187|468:102,1,127.5,0|0,1:2|0:0,0:0:0:0:
476,96,35632,2,0,P|430:87|400:55,1,85,8|0,0:0|0:0,0:0:0:0:
239,182,35918,2,0,B|273:140|339:162|339:162|354:193|396:204|395:204,1,170,2|8,1:2|0:0,0:0:0:0:
208,20,36346,6,0,P|215:65|213:119,1,85,2|0,0:0|1:0,0:0:0:0:
360,270,36632,1,2,0:0:0:0:
311,217,36775,2,0,P|266:231|246:266,1,85,8|2,0:0|0:0,0:0:0:0:
132,366,37061,1,2,1:2:0:0:
42,253,37203,1,2,0:0:0:0:
175,305,37346,2,0,P|124:311|53:356,1,127.5,8|0,0:0|0:0,0:0:0:0:
40,332,37632,6,0,P|28:289|42:251,1,85,0|0,1:2|0:0,0:0:0:0:
186,122,37918,2,0,P|179:171|179:212,1,85,10|0,0:0|0:0,0:0:0:0:
50,84,38203,2,0,B|139:83|93:12|228:23,1,170,2|8,1:2|0:0,0:0:0:0:
340,144,38632,6,0,P|292:153|250:171,1,85,2|0,0:0|1:0,0:0:0:0:
391,29,38918,1,2,0:0:0:0:
447,83,39061,2,0,P|459:127|448:165,1,85,10|2,0:0|0:0,0:0:0:0:
352,277,39346,1,2,1:2:0:0:
258,166,39489,1,2,0:0:0:0:
412,238,39632,2,0,P|402:296|399:386,1,127.5,8|0,0:0|0:0,0:0:0:0:
408,374,39918,6,0,P|364:358|321:355,1,85,2|0,1:2|0:0,0:0:0:0:
157,256,40203,2,0,P|135:214|156:130,1,127.5,8|0,0:0|0:0,0:0:0:0:
162,126,40489,1,0,1:0:0:0:
34,284,40632,2,0,P|45:335|51:378,1,85,2|8,0:0|0:0,0:0:0:0:
208,192,40918,6,0,P|251:184|304:285,1,170,2|0,0:0|0:0,0:0:0:0:
213,375,41346,2,0,P|172:364|122:360,1,85,10|0,0:0|0:0,0:0:0:0:
15,205,41632,2,0,P|57:200|98:189,1,85,2|0,1:2|0:0,0:0:0:0:
217,49,41918,2,0,P|174:44|133:33,1,85,10|0,0:0|0:0,0:0:0:0:
285,211,42203,6,0,B|320:166|390:178|390:178|414:211|457:216,1,170,2|8,1:2|0:0,0:0:0:0:
247,314,42632,1,2,0:0:0:0:
318,362,42775,2,0,P|317:318|324:274,1,85,0|0,1:0|0:0,0:0:0:0:
341,48,43061,2,0,P|330:97|217:113,1,170,10|0,0:0|1:0,0:0:0:0:
50,233,43489,5,10,0:0:0:0:
140,22,43632,2,0,P|146:65|154:122,1,85,10|0,0:0|0:0,0:0:0:0:
251,302,43918,6,0,P|195:313|156:330,1,85,10|0,0:0|0:0,0:0:0:0:
328,146,44203,1,10,0:0:0:0:
445,311,44346,5,8,0:0:0:0:
445,311,44418,1,8,0:0:0:0:
445,311,44489,2,0,P|448:261|467:138,2,170,2|8|0,1:2|0:0|1:0,0:0:0:0:
395,370,45203,1,0,1:0:0:0:
262,228,45346,5,2,1:2:0:0:
300,291,45489,1,10,0:0:0:0:
391,137,45632,2,0,B|290:134|351:82|233:72,2,170,2|8|0,1:2|0:0|1:0,0:0:0:0:
379,62,46346,5,0,1:0:0:0:
262,228,46489,2,0,P|247:188|261:143,1,85,10|0,0:0|0:0,0:0:0:0:
95,38,46775,2,0,P|101:90|102:135,1,85,2|2,1:2|0:0,0:0:0:0:
25,274,47061,5,8,0:0:0:0:
88,315,47203,1,2,0:0:0:0:
14,263,47346,1,2,1:2:0:0:
159,172,47489,2,0,P|118:192|79:196,1,85,2|0,1:2|1:0,0:0:0:0:
172,353,47775,6,0,P|220:356|249:266,1,127.5,10|0,0:0|0:0,0:0:0:0:
272,281,48061,2,0,P|264:234|263:191,1,85,2|8,0:0|0:0,0:0:0:0:
180,34,48346,5,2,0:0:0:0:
138,95,48489,1,2,1:2:0:0:
186,29,48632,1,2,1:2:0:0:
135,108,48775,2,0,P|89:95|49:93,1,85,10|0,0:0|0:0,0:0:0:0:
258,2,49061,6,0,P|304:0|358:102,2,170,6|8|0,1:2|0:0|1:0,0:0:0:0:
199,52,49775,1,0,1:0:0:0:
335,167,49918,5,2,1:2:0:0:
288,108,50061,1,10,0:0:0:0:
175,227,50203,2,0,B|147:190|86:203|86:203|69:233|25:241,2,170,2|8|0,1:2|0:0|1:0,0:0:0:0:
125,286,50918,5,2,1:2:0:0:
26,169,51061,2,0,P|16:123|31:81,1,85,10|0,0:0|0:0,0:0:0:0:
190,0,51346,2,0,L|180:106,1,85,2|2,1:2|0:0,0:0:0:0:
249,243,51632,5,10,0:0:0:0:
305,193,51775,1,2,0:0:0:0:
245,256,51918,2,0,B|201:242|160:240|160:239,1,85,2|2,1:2|1:2,0:0:0:0:
263,134,52203,1,2,1:2:0:0:
349,315,52346,6,0,P|397:308|419:188,1,170,10|2,0:0|0:0,0:0:0:0:
511,65,52775,1,10,0:0:0:0:
450,20,52918,1,2,0:0:0:0:
509,78,53061,1,2,1:2:0:0:
448,30,53203,1,2,1:2:0:0:
353,113,53346,2,0,P|406:120|445:138,1,85,10|0,0:0|0:0,0:0:0:0:
220,23,53632,6,0,P|229:87|238:199,2,170,6|8|0,1:2|0:0|1:0,0:0:0:0:
297,54,54346,1,0,1:0:0:0:
167,155,54489,5,10,0:0:0:0:
127,94,54632,1,2,0:0:0:0:
28,224,54775,2,0,B|118:224|69:294|197:285,2,170,2|8|0,1:2|0:0|1:0,0:0:0:0:
44,300,55489,1,0,1:0:0:0:
176,131,55632,2,0,P|167:180|163:217,1,85,10|0,0:0|0:0,0:0:0:0:
291,350,55918,6,0,B|318:302|385:313|385:313|406:340|445:345,1,170,2|8,1:2|0:0,0:0:0:0:
512,209,56346,1,2,0:0:0:0:
433,179,56489,2,0,L|446:277,1,85,0|0,1:0|1:0,0:0:0:0:
260,119,56775,6,0,P|262:71|366:34,1,170,8|0,0:0|1:0,0:0:0:0:
502,112,57203,1,2,0:0:0:0:
339,180,57346,2,0,P|386:183|428:198,1,85,8|0,0:0|0:0,0:0:0:0:
237,276,57632,5,0,1:0:0:0:
427,345,57775,1,0,1:0:0:0:
237,276,57918,1,8,0:0:0:0:
319,361,58061,5,8,0:0:0:0:
319,361,58132,1,8,0:0:0:0:
319,361,58203,2,0,P|325:306|336:265,1,85,6|2,1:2|0:0,0:0:0:0:
225,50,58489,5,10,0:0:0:0:
411,173,58632,1,2,1:2:0:0:
189,218,58775,5,10,0:0:0:0:
398,96,58918,1,0,1:0:0:0:
159,8,59061,5,10,0:0:0:0:
262,243,59203,1,2,1:2:0:0:
344,7,59346,5,8,0:0:0:0:
257,263,59489,1,0,1:2:0:0:
157,20,59632,5,10,0:0:0:0:
44,295,59775,1,0,1:2:0:0:
297,132,59918,5,10,0:0:0:0:
39,0,60061,1,2,1:2:0:0:
312,143,60203,2,0,P|358:134|406:134,1,85,8|0,0:0|1:0,0:0:0:0:
238,349,60489,5,8,0:0:0:0:
402,91,60632,2,0,L|394:144,2,42.5,8|0|0,0:0|1:0|1:0,0:0:0:0:
181,3,60918,5,8,0:0:0:0:
316,210,61061,2,0,L|322:167,2,42.5,8|0|0,0:0|1:0|1:0,0:0:0:0:
88,364,61346,5,8,0:0:0:0:
252,106,61489,2,0,L|244:159,2,42.5,8|0|0,0:0|1:0|1:0,0:0:0:0:
63,13,61775,5,8,0:0:0:0:
239,227,61918,5,8,0:0:0:0:
195,252,61989,1,8,0:0:0:0:
143,257,62061,1,8,0:0:0:0:
102,227,62132,1,8,0:0:0:0:
77,182,62203,1,8,0:0:0:0:
88,131,62275,1,8,0:0:0:0:
122,94,62346,1,8,0:0:0:0:
171,80,62418,1,8,0:0:0:0:
192,81,62489,5,0,1:0:0:0:
193,89,62561,1,0,1:0:0:0:
193,97,62632,1,0,1:0:0:0:
194,105,62703,1,0,1:0:0:0:
194,113,62775,2,0,L|194:139,4,25.5,2|2|2|2|2,1:2|0:0|0:0|0:0|0:0,0:0:0:0:
194,113,64965,6,0,P|193:131|198:150,1,21.2500008106232,2|0,1:2|1:0,0:0:0:0:
267,141,65061,2,0,P|270:117|259:90,4,42.5000016212464,10|2|2|2|2,0:0|0:0|0:0|0:0|0:0,0:0:0:0:
272,222,65537,6,0,P|275:232|274:243,1,21.2500008106232,2|0,1:2|1:0,0:0:0:0:
202,257,65632,2,0,P|195:232|201:203,2,42.5000016212464,10|2|2,0:0|0:0|0:0,0:0:0:0:
250,311,65918,6,0,L|256:350,2,21.2500008106232,2|0|0,1:2|1:0|1:0,0:0:0:0:
267,307,66061,6,0,B|352:325|352:325|372:357|372:357|452:376,1,191.250007295609,4|0,1:2|0:0,0:0:0:0:
452,374,66346,5,8,0:0:0:0:
197,172,66489,1,8,0:0:0:0:
477,51,66632,1,8,0:0:0:0:
469,56,66918,5,2,1:2:0:0:
317,359,67061,2,0,L|309:291,1,63.75,2|0,1:2|0:0,0:0:0:0:
325,282,67346,6,0,B|279:245|219:272|219:272|209:311|150:317|150:316,1,191.250007295609,6|0,1:2|0:0,0:0:0:0:
87,271,67632,2,0,P|72:235|89:172,1,101.999996887207,10|0,0:0|0:0,0:0:0:0:
250,99,67918,5,2,1:2:0:0:
105,0,68061,1,2,1:2:0:0:
250,99,68203,1,8,0:0:0:0:
13,225,68346,6,0,B|133:221|56:312|213:294,1,203.999993774414,2|0,1:2|1:0,0:0:0:0:
157,115,68775,2,0,P|166:176|171:233,1,101.999996887207,10|0,0:0|0:0,0:0:0:0:
305,363,69061,5,2,1:2:0:0:
360,146,69203,1,2,1:2:0:0:
192,295,69346,1,8,0:0:0:0:
410,368,69489,6,0,P|353:355|338:258,1,152.999995330811,2|0,1:2|0:0,0:0:0:0:
387,219,69775,2,0,P|377:125|375:74,1,101.999996887207,2|8,1:2|0:0,0:0:0:0:
152,37,70061,5,2,0:0:0:0:
285,148,70203,1,0,1:0:0:0:
401,21,70346,2,0,P|346:41|301:44,1,101.999996887207,2|8,1:2|0:0,0:0:0:0:
137,267,70632,6,0,P|119:215|146:96,1,152.999995330811,2|0,0:0|0:0,0:0:0:0:
138,108,70918,1,0,1:0:0:0:
4,311,71061,2,0,P|54:315|102:334,1,101.999996887207,8|0,0:0|0:0,0:0:0:0:
260,205,71346,1,0,1:0:0:0:
209,150,71489,5,2,1:2:0:0:
301,315,71632,1,10,0:2:0:0:
379,144,71775,1,2,0:2:0:0:
102,250,71918,6,0,P|154:253|217:311,1,127.500004863739,6|0,1:2|0:0,0:0:0:0:
332,61,72132,6,0,P|303:104|221:130,1,127.500004863739,2|0,0:0|0:0,0:0:0:0:
392,302,72346,6,0,P|372:262|388:191,1,63.7500024318696,2|0,0:0|0:0,0:0:0:0:
220,46,72489,6,0,B|241:36|250:-2|250:-2|265:31|254:73,1,127.500004863739,2|0,1:2|1:0,0:0:0:0:
136,258,72703,6,0,B|116:244|79:256|79:256|100:226|142:215,1,127.500004863739,2|0,0:0|0:0,0:0:0:0:
370,243,72918,6,0,B|371:255|376:264|376:264|356:261|332:232,1,63.7500024318696,2|0,0:0|0:0,0:0:0:0:
122,128,73061,6,0,B|123:104|95:78|95:78|131:81|162:112,1,127.500004863739,2|0,1:2|0:0,0:0:0:0:
266,307,73275,6,0,B|243:317|235:355|235:355|220:322|231:280,1,127.500004863739,2|0,0:0|0:0,0:0:0:0:
360,122,73489,6,0,B|370:127|381:127|381:127|368:143|331:149,1,63.7500024318696,2|0,0:0|0:0,0:0:0:0:
140,264,73632,6,0,P|90:235|19:229,1,127.500004863739,2|0,1:2|1:0,0:0:0:0:
341,242,73846,6,0,P|340:299|371:364,1,127.500004863739,2|0,0:0|0:0,0:0:0:0:
239,87,74061,6,0,P|289:58|325:9,1,63.7500024318696,2|0,0:0|0:0,0:0:0:0:
157,191,74203,5,14,0:0:0:0:
416,268,74346,1,0,1:0:0:0:
157,191,74489,1,0,1:0:0:0:
401,56,74632,5,14,0:0:0:0:
247,298,74775,1,0,1:0:0:0:
401,56,74918,1,0,1:0:0:0:
112,51,75061,5,14,0:0:0:0:
366,210,75203,1,0,1:0:0:0:
112,51,75346,1,0,1:0:0:0:
92,293,75489,5,14,0:0:0:0:
345,128,75632,1,0,1:0:0:0:
86,296,75775,1,0,1:0:0:0:
260,87,75918,5,10,0:0:0:0:
191,322,76061,1,0,1:0:0:0:
190,18,76203,5,10,0:0:0:0:
290,335,76346,1,0,1:0:0:0:
459,71,76489,6,0,B|393:97|393:97|378:126|378:126|293:158,1,152.999995330811,6|0,1:2|0:0,0:0:0:0:
271,102,76775,2,0,P|254:55|268:7,1,101.999996887207,10|0,0:0|0:0,0:0:0:0:
460,148,77061,5,2,1:2:0:0:
292,258,77203,1,2,1:2:0:0:
460,148,77346,1,8,0:0:0:0:
381,362,77489,6,0,P|372:292|346:143,1,203.999993774414,2|0,1:2|1:0,0:0:0:0:
198,31,77918,2,0,P|144:53|128:91,1,101.999996887207,10|0,0:0|0:0,0:0:0:0:
326,179,78203,5,2,1:2:0:0:
130,302,78346,1,2,1:2:0:0:
364,361,78489,1,10,0:2:0:0:
241,150,78632,2,0,P|249:207|252:254,1,101.999996887207,2|0,1:2|0:0,0:0:0:0:
101,374,78918,5,2,1:2:0:0:
325,256,79061,1,10,0:2:0:0:
100,173,79203,1,2,0:2:0:0:
248,346,79346,5,2,1:2:0:0:
427,159,79489,2,0,P|368:177|313:181,1,101.999996887207,2|8,1:2|0:0,0:0:0:0:
127,0,79775,6,0,B|212:23|212:23|220:54|220:54|330:82,1,203.999993774414,6|0,1:2|1:0,0:0:0:0:
163,230,80203,2,0,P|148:181|163:131,1,101.999996887207,8|0,0:0|0:0,0:0:0:0:
318,6,80489,1,0,1:0:0:0:
239,120,80632,5,2,1:2:0:0:
113,0,80775,1,10,0:2:0:0:
300,82,80918,1,2,0:2:0:0:
103,191,81061,6,0,P|50:176|-1:176,1,101.999996887207,2|0,1:2|0:0,0:0:0:0:
3,175,81275,1,2,0:0:0:0:
3,175,81346,1,8,0:0:0:0:
163,345,81489,1,2,0:0:0:0:
274,165,81632,5,2,1:2:0:0:
219,219,81775,2,0,L|226:272,1,50.9999984436036,0|2,1:0|0:0,0:0:0:0:
400,317,81918,5,8,0:2:0:0:
196,146,82061,1,2,1:2:0:0:
468,40,82203,5,10,0:2:0:0:
325,289,82346,1,0,1:2:0:0:
267,27,82489,5,10,0:2:0:0:
480,295,82632,1,0,1:2:0:0:
181,338,82775,5,10,0:2:0:0:
468,188,82918,1,2,1:2:0:0:
169,346,83061,1,2,1:2:0:0:
361,31,83203,6,0,L|344:205,1,152.999995330811,6|0,1:2|0:0,0:0:0:0:
346,199,83489,1,0,1:0:0:0:
169,347,83632,2,0,P|112:327|99:284,1,101.999996887207,8|0,0:0|0:0,0:0:0:0:
250,145,83918,5,0,1:0:0:0:
199,203,84061,1,0,1:0:0:0:
93,60,84203,2,0,P|148:77|194:79,1,101.999996887207,8|0,0:0|0:0,0:0:0:0:
22,201,84489,5,0,1:0:0:0:
225,275,84632,1,0,1:0:0:0:
168,347,84775,2,0,P|161:291|136:145,1,203.999993774414,8|0,0:0|1:0,0:0:0:0:
306,0,85203,5,2,0:0:0:0:
209,119,85346,1,10,0:0:0:0:
111,11,85489,1,2,0:0:0:0:
291,133,85632,6,0,P|343:119|386:120,1,85,2|0,1:2|0:0,0:0:0:0:
373,118,85846,1,2,1:2:0:0:
373,118,85918,1,0,1:0:0:0:
481,303,86061,1,2,1:2:0:0:
481,303,86132,1,0,1:0:0:0:
481,303,86203,6,0,P|500:259|481:179,1,127.5,2|2,1:2|0:0,0:0:0:0:
465,175,86489,2,0,L|472:87,1,85,0|2,1:2|0:0,0:0:0:0:
341,338,86775,5,8,0:0:0:0:
248,35,86918,1,8,0:0:0:0:
248,35,87775,6,0,B|171:56|171:56|151:89|151:89|79:109,1,187.000005706787,6|0,1:2|1:0,0:0:0:0:
217,232,88203,1,8,0:0:0:0:
262,164,88346,1,0,0:0:0:0:
96,270,88489,1,0,1:0:0:0:
288,350,88632,2,0,P|302:300|289:262,1,93.5000028533936,0|8,1:0|0:0,0:0:0:0:
247,19,88918,6,0,P|260:71|383:92,1,187.000005706787,2|0,1:2|1:0,0:0:0:0:
219,236,89346,1,8,0:2:0:0:
186,167,89489,1,0,0:2:0:0:
362,270,89632,1,0,1:0:0:0:
180,354,89775,2,0,P|132:341|83:339,1,93.5000028533936,0|8,1:0|0:0,0:0:0:0:
226,99,90061,6,0,B|335:112|263:179|417:184,1,187.000005706787,6|0,1:2|1:0,0:0:0:0:
476,350,90489,1,8,0:0:0:0:
295,235,90632,1,0,0:0:0:0:
483,139,90775,1,0,1:0:0:0:
301,36,90918,2,8,P|307:90|308:148,1,93.5000028533936,0|8,1:0|0:0,0:0:0:0:
400,362,91203,6,0,B|369:322|307:335|307:335|283:365|226:364,1,187.000005706787,6|0,1:2|1:0,0:0:0:0:
101,233,91632,1,8,0:0:0:0:
0,360,91775,1,0,1:0:0:0:
188,212,91918,5,0,1:0:0:0:
7,117,92061,1,2,1:2:0:0:
3,135,92132,1,2,1:2:0:0:
7,153,92203,1,10,1:2:0:0:
178,33,92346,1,2,0:0:0:0:
98,0,92489,6,0,L|107:108,1,93.5000028533936,4|0,1:2|0:0,0:0:0:0:
263,234,92775,1,8,0:0:0:0:
302,167,92918,1,0,0:0:0:0:
144,263,93061,1,0,1:0:0:0:
311,353,93203,2,0,P|363:339|409:338,1,93.5000028533936,0|8,1:0|0:0,0:0:0:0:
274,94,93489,6,0,P|223:80|157:195,1,187.000005706787,2|0,1:2|1:0,0:0:0:0:
350,281,93918,1,8,0:0:0:0:
293,228,94061,1,0,0:0:0:0:
187,357,94203,1,0,1:0:0:0:
372,208,94346,2,0,P|361:157|360:106,1,93.5000028533936,0|8,1:0|0:0,0:0:0:0:
512,286,94632,6,0,B|436:306|436:306|412:342|412:342|331:368|331:367,1,187.000005706787,6|0,1:2|1:0,0:0:0:0:
150,219,95061,2,0,P|136:171|157:124,1,93.5000028533936,8|0,0:0|0:0,0:0:0:0:
32,359,95346,5,8,0:0:0:0:
263,157,95489,2,0,P|254:214|250:266,1,93.5000028533936,8|0,0:0|1:0,0:0:0:0:
25,280,95775,6,0,B|100:300|100:300|124:336|124:336|205:362|205:361,1,187.000005706787,6|0,1:2|1:0,0:0:0:0:
263,376,96132,1,0,1:0:0:0:
263,376,96203,2,0,B|269:350|269:350|262:326,1,46.7500014266968,0|0,1:0|1:0,0:0:0:0:
169,207,96346,2,0,B|164:232|164:232|170:255,1,46.7500014266968,0|0,1:0|1:0,0:0:0:0:
326,70,96489,5,8,0:0:0:0:
41,220,96632,1,8,0:0:0:0:
347,329,96775,1,8,0:0:0:0:
149,86,96918,1,8,0:0:0:0:
149,86,97203,5,2,0:0:0:0:
162,73,97346,5,2,0:0:0:0:
196,59,97489,5,2,0:0:0:0:
275,66,97632,5,2,0:0:0:0:
333,126,97775,5,2,0:0:0:0:
415,177,97918,5,2,1:2:0:0:
432,182,97989,1,2,1:2:0:0:
450,176,98061,1,10,0:0:0:0:
454,175,98346,5,8,0:0:0:0:
88,48,98489,1,8,0:0:0:0:
