osu file format v14

[General]
AudioFilename: audio.mp3
AudioLeadIn: 0
PreviewTime: 66116
Countdown: 0
SampleSet: Soft
StackLeniency: 0.7
Mode: 0
LetterboxInBreaks: 0
WidescreenStoryboard: 1

[Editor]
Bookmarks: 72545
DistanceSpacing: 0.8
BeatDivisor: 4
GridSize: 4
TimelineZoom: 1.8

[Metadata]
Title:Sacrifice (Short Ver.)
TitleUnicode:Sacrifice (Short Ver.)
Artist:Ouse Akira
ArtistUnicode:逢瀬アキラ
Creator:Saggin
Version:Atri's Hard
Source:ふゆから​、くるる。
Tags:シルキーズプラス silky's plus eroge visual novel vn japanese rock jrock j-rock video game videogame opening op ふゆくる fuyukuru _kotachi_ -brethia miyohashikoori sanairrt hoto cocoa lude interlude- -atri- kurantemelodii firis mistlud heto
BeatmapID:3188879
BeatmapSetID:1560037

[Difficulty]
HPDrainRate:4
CircleSize:3.4
OverallDifficulty:5
ApproachRate:8
SliderMultiplier:1.4
SliderTickRate:1

[Events]
//Background and Video events
0,0,"bg5.jpg",0,0
//Break Periods
//Storyboard Layer 0 (Background)
//Storyboard Layer 1 (Fail)
//Storyboard Layer 2 (Pass)
//Storyboard Layer 3 (Foreground)
//Storyboard Layer 4 (Overlay)
//Storyboard Sound Samples

[TimingPoints]
1061,285.714285714286,4,2,1,40,1,0
5632,-153.846153846154,4,2,1,45,0,0
10203,-100,4,2,1,45,0,0
14703,-100,4,2,1,5,0,0
14775,-100,4,2,1,45,0,0
16489,-100,4,2,1,50,0,0
16918,-90.9090909090909,4,2,1,60,0,0
26203,-117.647058823529,4,2,1,60,0,0
26489,-117.647058823529,4,2,1,40,0,0
28418,-117.647058823529,4,2,1,5,0,0
28489,-117.647058823529,4,2,1,40,0,0
30703,-117.647058823529,4,2,1,5,0,0
30775,-117.647058823529,4,2,1,40,0,0
35346,-100,4,2,1,40,0,0
35561,-100,4,2,1,5,0,0
35632,-100,4,2,1,50,0,0
39846,-100,4,2,1,5,0,0
39918,-100,4,2,1,50,0,0
40418,-100,4,2,1,5,0,0
40489,-100,4,2,1,50,0,0
47989,-100,4,2,1,5,0,0
48061,-100,4,2,1,50,0,0
58203,-100,4,2,1,60,0,0
62775,-100,4,2,1,30,0,0
64965,-100,4,2,1,40,0,0
66061,-100,4,2,1,60,0,0
66275,-100,4,2,1,5,0,0
66346,-100,4,2,1,60,0,0
67275,-100,4,2,1,5,0,0
67346,-90.9090909090909,4,2,1,70,0,1
67561,-90.9090909090909,4,2,1,5,0,1
67632,-90.9090909090909,4,2,1,70,0,1
69703,-90.9090909090909,4,2,1,5,0,1
69775,-90.9090909090909,4,2,1,70,0,1
70846,-90.9090909090909,4,2,1,5,0,1
70918,-90.9090909090909,4,2,1,70,0,1
72061,-90.9090909090909,4,2,1,5,0,1
72132,-90.9090909090909,4,2,1,70,0,1
72275,-90.9090909090909,4,2,1,5,0,1
72346,-90.9090909090909,4,2,1,70,0,1
72418,-90.9090909090909,4,2,1,5,0,1
72489,-90.9090909090909,4,2,1,70,0,1
72846,-90.9090909090909,4,2,1,5,0,1
72918,-90.9090909090909,4,2,1,70,0,1
72989,-90.9090909090909,4,2,1,5,0,1
73061,-90.9090909090909,4,2,1,70,0,1
73203,-90.9090909090909,4,2,1,5,0,1
73275,-90.9090909090909,4,2,1,70,0,1
73418,-90.9090909090909,4,2,1,5,0,1
73489,-90.9090909090909,4,2,1,70,0,1
73561,-90.9090909090909,4,2,1,5,0,1
73632,-90.9090909090909,4,2,1,70,0,1
73989,-90.9090909090909,4,2,1,5,0,1
74061,-90.9090909090909,4,2,1,70,0,1
74132,-90.9090909090909,4,2,1,5,0,1
74203,-90.9090909090909,4,2,1,70,0,1
76703,-90.9090909090909,4,2,1,5,0,1
76775,-90.9090909090909,4,2,1,70,0,1
83418,-90.9090909090909,4,2,1,5,0,1
83489,-90.9090909090909,4,2,1,70,0,1
87775,-90.9090909090909,4,2,1,60,0,0

[Colours]
Combo1 : 251,171,157
Combo2 : 176,245,255
Combo3 : 102,171,255
Combo4 : 254,112,230
Combo5 : 9,234,217
Combo6 : 247,221,43
Combo7 : 236,168,253

[HitObjects]
423,365,5632,6,0,B|476:361|473:258|430:284|379:278|377:204|404:171,1,227.499989585877,4|0,0:0|0:0,0:0:0:0:
475,59,6632,6,0,B|494:39|527:47|524:116|494:148|406:99|465:58|390:-3|313:33,1,272.999987503052,4|0,0:0|0:0,0:0:0:0:
256,64,7632,1,8,0:0:0:0:
158,20,7775,6,0,B|138:71|171:59|151:127,1,90.9999958343508,4|0,0:0|0:0,0:0:0:0:
123,181,8203,1,0,0:0:0:0:
123,181,8489,1,8,0:0:0:0:
60,235,8632,2,0,L|-2:227,1,45.4999979171754,0|0,1:0|1:0,0:0:0:0:
66,342,8918,6,0,P|82:316|153:302,1,90.9999958343508,4|8,0:0|0:0,0:0:0:0:
198,353,9346,1,0,1:0:0:0:
198,353,9632,1,0,1:0:0:0:
213,270,9775,2,0,L|208:215,2,45.4999979171754,0|8|0,1:0|0:0|0:0,0:0:0:0:
279,328,10203,6,0,B|363:323|330:375|423:375,1,140,2|0,1:2|1:2,0:0:0:0:
464,317,10632,1,2,1:2:0:0:
464,317,10775,2,0,L|472:270,3,35,2|0|0|0,1:2|1:2|1:2|1:2,0:0:0:0:
451,259,11061,2,0,L|443:215,3,35,0|0|2|0,1:2|1:2|1:2|1:2,0:0:0:0:
462,190,11346,6,0,P|454:144|484:55,1,140,0|10,1:2|0:2,1:2:0:0:
422,5,11775,1,2,1:2:0:0:
345,40,11918,2,0,L|294:41,3,35,10|0|2|0,0:2|1:2|1:2|1:2,1:2:0:0:
284,29,12203,2,0,L|233:30,3,35,10|0|2|0,0:2|1:2|1:2|1:2,0:0:0:0:
226,45,12488,5,6,1:2:0:0:
256,192,12561,12,0,15346,0:0:0:0:
102,59,15918,5,8,0:0:0:0:
25,87,16061,2,0,P|19:57|28:16,2,70,8|0|0,0:0|1:0|1:0,0:0:0:0:
105,175,16489,2,0,L|96:248,1,70,8|8,0:0|0:0,0:0:0:0:
23,206,16775,1,8,0:0:0:0:
1,307,16918,6,0,B|85:310|40:367|153:361,1,154.000004699707,6|0,1:2|1:0,0:0:0:0:
172,271,17346,2,0,P|211:263|247:291,1,77.0000023498536,8|0,0:0|0:0,0:0:0:0:
269,358,17632,1,0,1:0:0:0:
323,295,17775,2,0,P|362:303|398:275,1,77.0000023498536,0|8,1:0|0:0,0:0:0:0:
486,343,18061,6,0,B|453:335|453:335|408:274|461:200,1,154.000004699707,2|0,1:2|1:0,0:0:0:0:
497,156,18489,1,8,0:0:0:0:
497,156,18632,1,0,0:0:0:0:
500,72,18775,1,0,1:0:0:0:
500,72,18918,2,0,P|459:80|430:103,1,77.0000023498536,0|8,1:0|0:0,0:0:0:0:
352,8,19203,6,0,B|345:81|345:81|347:86|347:86|339:165,1,154.000004699707,6|0,1:2|1:0,0:0:0:0:
262,146,19632,2,0,P|276:206|362:236,1,154.000004699707,8|0,0:0|1:0,0:0:0:0:
418,184,20061,1,0,1:0:0:0:
418,184,20203,1,8,0:0:0:0:
419,311,20346,6,0,B|336:301|370:360|263:358,1,154.000004699707,6|0,1:2|1:0,0:0:0:0:
246,283,20775,2,0,L|151:271,1,77.0000023498536,8|0,0:0|0:0,0:0:0:0:
90,290,21061,2,0,P|80:338|88:367,1,77.0000023498536,0|2,1:0|1:2,0:0:0:0:
86,364,21275,1,2,0:0:0:0:
86,364,21346,1,10,0:0:0:0:
0,324,21489,1,2,0:0:0:0:
50,216,21632,6,0,L|45:130,1,77.0000023498536,4|0,1:2|0:0,0:0:0:0:
14,68,21918,2,0,B|63:64|63:64|92:79,1,77.0000023498536,8|0,0:0|0:0,0:0:0:0:
128,145,22203,1,0,1:0:0:0:
165,75,22346,2,0,B|214:79|214:79|243:64,1,77.0000023498536,0|8,1:0|0:0,0:0:0:0:
313,9,22632,6,0,P|282:76|323:137,1,154.000004699707,2|0,1:2|1:0,0:0:0:0:
377,199,23061,1,8,0:0:0:0:
377,199,23203,1,0,0:0:0:0:
461,188,23346,1,0,1:0:0:0:
475,270,23489,2,0,L|468:355,1,77.0000023498536,0|8,1:0|0:0,0:0:0:0:
368,383,23775,6,0,P|377:341|302:261,1,154.000004699707,6|0,1:2|1:0,0:0:0:0:
273,193,24203,2,0,P|242:222|232:267,1,77.0000023498536,8|0,0:0|0:0,0:0:0:0:
266,332,24489,1,0,1:0:0:0:
187,321,24632,2,0,B|136:319|158:347|83:345,1,77.0000023498536,0|8,1:0|0:0,0:0:0:0:
14,284,24918,6,0,P|72:237|71:163,1,154.000004699707,6|0,1:2|0:0,0:0:0:0:
1,125,25346,1,8,0:0:0:0:
1,125,25489,1,8,0:0:0:0:
4,40,25632,1,0,1:0:0:0:
73,83,25775,2,0,B|167:82|128:130|222:131,1,154.000004699707,10|0,0:0|0:0,0:0:0:0:
306,47,26203,6,0,L|297:110,1,59.5000011348725,0|0,1:0|0:0,0:0:0:0:
355,167,26489,2,0,P|420:158|442:109,2,119.000002269745,2|2|0,1:2|1:2|1:0,0:0:0:0:
280,184,27203,6,0,B|269:255|298:242|286:302,1,119.000002269745,2|2,0:0|0:0,0:0:0:0:
279,384,27632,2,0,P|249:335|192:331,2,119.000002269745,2|2|2,1:2|1:2|1:2,0:0:0:0:
494,298,28489,6,0,L|420:304,1,59.5000011348725,2|0,1:2|0:0,0:0:0:0:
369,260,28775,2,0,B|352:285|352:285|364:377,2,119.000002269745,2|2|0,1:2|1:2|1:0,0:0:0:0:
341,184,29489,6,0,B|412:170|386:201|457:190,1,119.000002269745,2|2,0:0|0:0,0:0:0:0:
433,116,29918,2,0,B|450:91|450:91|438:-1,2,119.000002269745,2|2|2,1:2|1:2|1:2,0:0:0:0:
256,64,30775,6,0,L|193:67,1,59.5000011348725,0|0,1:2|0:0,0:0:0:0:
120,122,31061,2,0,P|106:66|44:37,2,119.000002269745,2|2|0,1:2|1:2|1:0,0:0:0:0:
196,141,31775,2,0,B|187:192|187:192|184:200|184:200|176:264,1,119.000002269745,2|2,0:0|0:0,0:0:0:0:
158,343,32203,2,0,P|144:287|82:258,2,119.000002269745,2|2|2,1:2|1:2|1:2,0:0:0:0:
237,319,32918,1,2,0:0:0:0:
303,266,33061,6,0,B|322:202|352:239|364:159,1,119.000002269745,2|0,1:2|1:0,0:0:0:0:
296,114,33489,2,0,B|231:129|248:85|173:114,1,119.000002269745,2|0,0:0|0:0,0:0:0:0:
168,195,33918,2,0,B|214:244|167:251|230:302,1,119.000002269745,2|0,1:2|1:0,0:0:0:0:
315,375,34346,5,10,0:0:0:0:
369,314,34489,2,0,P|415:310|448:319,1,59.5000011348725,10|10,0:0|0:0,0:0:0:0:
478,379,34775,1,2,1:2:0:0:
500,267,34918,2,0,B|473:242|473:242|468:151,1,119.000002269745,10|8,0:0|0:0,0:0:0:0:
477,137,35275,1,8,0:0:0:0:
489,116,35346,6,0,P|496:75|474:36,1,70,0|0,1:2|0:0,0:0:0:0:
399,16,35632,2,0,L|406:91,1,70,8|0,0:0|0:0,0:0:0:0:
343,140,35918,2,0,B|257:143|302:85|206:85,1,140,2|8,1:2|0:0,0:0:0:0:
160,26,36346,6,0,B|141:58|141:58|148:170,1,140,2|2,0:0|0:0,0:0:0:0:
226,169,36775,1,8,0:0:0:0:
226,169,36918,1,2,0:0:0:0:
169,235,37061,2,0,P|124:234|95:214,1,70,2|2,1:2|0:0,0:0:0:0:
70,150,37346,2,0,P|34:177|22:210,1,70,8|0,0:0|0:0,0:0:0:0:
7,326,37632,6,0,L|83:325,1,70,0|0,1:2|0:0,0:0:0:0:
147,384,37918,2,0,B|153:352|153:352|152:349|152:349|160:308,1,70,10|0,0:0|0:0,0:0:0:0:
169,235,38203,2,0,B|256:240|203:290|309:292,1,140,2|8,1:2|0:0,0:0:0:0:
349,235,38632,6,0,B|368:267|368:267|361:379,1,140,2|2,0:0|0:0,0:0:0:0:
442,338,39060,1,10,0:0:0:0:
442,338,39203,1,2,0:0:0:0:
502,283,39346,2,0,P|464:256|429:254,1,70,2|2,1:2|0:0,0:0:0:0:
408,179,39632,2,0,L|419:105,1,70,8|0,0:0|0:0,0:0:0:0:
505,43,39918,6,0,P|467:45|431:26,1,70,2|0,1:2|0:0,0:0:0:0:
330,33,40203,2,0,B|342:12|342:12|369:71|326:128,1,140,8|0,0:0|1:0,0:0:0:0:
329,198,40632,2,0,P|291:196|255:215,1,70,2|8,0:0|0:0,0:0:0:0:
249,120,40918,6,0,B|165:118|209:74|106:72,1,140,2|0,0:0|0:0,0:0:0:0:
58,28,41346,2,0,P|44:68|54:106,1,70,10|0,0:0|0:0,0:0:0:0:
106,151,41632,1,2,1:2:0:0:
106,151,41775,1,0,0:0:0:0:
26,170,41918,2,0,L|20:248,1,70,10|0,0:0|0:0,0:0:0:0:
43,343,42203,6,0,B|23:327|7:326|7:326|58:301|115:320,1,140,2|8,1:2|0:0,0:0:0:0:
169,365,42632,2,0,B|253:363|209:319|312:317,1,140,2|0,0:0|0:0,0:0:0:0:
371,327,43061,2,0,P|370:292|353:263,1,70,10|0,0:0|0:0,0:0:0:0:
280,223,43346,5,0,1:0:0:0:
256,128,43489,1,10,0:0:0:0:
256,128,43632,2,0,L|256:32,1,70,10|0,0:0|0:0,0:0:0:0:
328,24,43918,2,0,P|357:20|403:50,1,70,10|0,0:0|0:0,0:0:0:0:
449,96,44203,1,10,0:0:0:0:
378,147,44346,1,8,0:0:0:0:
378,147,44418,1,8,0:0:0:0:
378,147,44489,6,0,L|522:156,2,140,2|8|0,1:2|0:0|1:0,0:0:0:0:
302,128,45203,2,0,P|303:182|323:205,1,70,0|2,1:0|1:2,0:0:0:0:
407,235,45489,1,10,0:0:0:0:
328,275,45632,6,0,B|251:271|286:325|187:314,2,140,2|8|0,1:2|0:0|1:0,0:0:0:0:
399,323,46346,1,0,1:0:0:0:
324,359,46489,1,10,0:0:0:0:
139,255,46775,5,2,1:2:0:0:
81,323,46918,1,2,0:0:0:0:
81,323,47061,2,0,P|54:273|83:191,1,140,8|2,0:0|1:2,0:0:0:0:
161,178,47489,1,2,1:2:0:0:
13,34,47775,6,0,P|29:89|109:111,1,140,10|2,0:0|0:0,0:0:0:0:
150,52,48203,2,0,P|184:51|219:81,1,70,8|2,0:0|0:0,0:0:0:0:
256,136,48489,1,2,1:2:0:0:
299,70,48632,1,2,1:2:0:0:
299,70,48775,2,0,P|327:51|362:52,1,70,10|0,0:0|0:0,0:0:0:0:
412,147,49061,6,0,B|410:69|459:100|472:18,2,140,6|8|0,1:2|0:0|1:0,0:0:0:0:
465,208,49775,2,0,P|431:224|399:225,1,70,0|2,1:0|1:2,0:0:0:0:
346,287,50061,1,10,0:0:0:0:
375,362,50203,6,0,P|415:339|508:326,2,140,2|8|0,1:2|0:0|1:0,0:0:0:0:
298,351,50918,1,2,1:2:0:0:
221,342,51061,1,10,0:0:0:0:
65,304,51346,5,2,1:2:0:0:
49,380,51489,1,2,0:0:0:0:
49,380,51632,2,0,P|112:370|142:283,1,140,10|2,0:0|1:2,0:0:0:0:
107,235,52061,1,2,1:2:0:0:
8,108,52346,6,0,B|104:112|48:161|152:159,1,140,10|2,0:0|0:0,0:0:0:0:
203,197,52775,2,0,P|213:155|201:118,1,70,10|2,0:0|0:0,0:0:0:0:
256,68,53061,1,2,1:2:0:0:
304,129,53203,1,2,1:2:0:0:
304,129,53346,2,0,P|299:163|309:197,1,70,10|0,0:0|0:0,0:0:0:0:
373,283,53632,6,0,P|338:285|271:363,2,140,6|8|0,1:2|0:0|1:0,0:0:0:0:
446,322,54346,1,0,1:0:0:0:
446,322,54489,2,0,B|452:284|452:284|450:277|450:277|455:238,1,70,10|2,0:0|0:0,0:0:0:0:
370,188,54775,2,0,B|449:205|429:137|508:159,2,140,2|8|0,1:2|0:0|1:0,0:0:0:0:
293,205,55489,1,0,1:0:0:0:
304,129,55632,2,0,L|317:54,1,70,10|0,0:0|0:0,0:0:0:0:
212,47,55918,6,0,P|165:30|70:42,1,140,2|8,1:2|0:0,0:0:0:0:
0,33,56346,2,0,P|1:68|21:97,1,70,2|0,0:0|1:0,0:0:0:0:
97,112,56632,1,0,1:0:0:0:
49,171,56775,6,0,P|96:154|191:166,1,140,8|0,0:0|1:0,0:0:0:0:
262,157,57203,2,0,P|259:191|239:220,1,70,2|8,0:0|0:0,0:0:0:0:
164,236,57489,1,0,0:0:0:0:
222,296,57632,5,0,1:0:0:0:
222,296,57775,1,0,1:0:0:0:
144,318,57918,2,0,L|74:315,1,70,8|8,0:0|0:0,0:0:0:0:
62,322,58132,1,8,0:0:0:0:
51,331,58203,6,0,P|31:302|28:267,1,70,6|2,1:2|0:0,0:0:0:0:
68,196,58489,1,10,0:0:0:0:
68,196,58632,1,2,1:2:0:0:
12,118,58775,2,0,B|92:122|62:86|165:95,1,140,10|10,0:0|0:0,0:0:0:0:
220,145,59203,1,2,1:2:0:0:
220,145,59346,6,0,L|229:66,1,70,8|0,0:0|1:2,0:0:0:0:
282,18,59632,2,0,B|307:45|307:45|297:169,1,140,10|10,0:0|0:0,0:0:0:0:
256,216,60061,1,2,1:2:0:0:
256,292,60203,1,8,0:0:0:0:
440,355,60489,5,8,0:0:0:0:
440,355,60632,2,0,L|361:367,1,70,8|0,0:0|1:0,0:0:0:0:
336,267,60918,5,8,0:0:0:0:
336,267,61061,2,0,L|415:279,1,70,8|0,0:0|1:0,0:0:0:0:
459,181,61346,5,8,0:0:0:0:
459,181,61489,2,0,L|380:193,1,70,8|0,0:0|1:0,0:0:0:0:
323,135,61775,5,8,0:0:0:0:
398,106,61918,2,0,P|412:65|399:35,1,70,8|8,0:0|0:0,0:0:0:0:
335,0,62203,1,8,0:0:0:0:
335,0,62775,5,2,1:2:0:0:
128,192,65061,5,10,0:0:0:0:
384,192,65632,1,10,0:0:0:0:
256,24,66061,6,0,B|236:104|272:84|252:168,1,140,4|8,1:2|0:0,0:0:0:0:
203,250,66489,1,8,0:0:0:0:
309,250,66632,1,8,0:0:0:0:
309,250,66918,1,2,1:2:0:0:
256,328,67061,2,0,P|220:333|190:355,1,70,2|0,1:2|0:0,0:0:0:0:
59,371,67346,6,0,B|46:355|46:355|52:286,1,77.0000023498536,6|0,1:2|0:0,0:0:0:0:
11,212,67632,2,0,B|101:200|66:253|162:239,1,154.000004699707,10|2,0:0|1:2,0:0:0:0:
226,191,68061,1,2,1:2:0:0:
226,191,68203,1,8,0:0:0:0:
222,92,68346,6,0,B|186:70|170:97|207:144|306:93,1,154.000004699707,2|0,1:2|1:0,0:0:0:0:
368,38,68775,2,0,B|363:78|383:59|373:124,1,77.0000023498536,10|0,0:0|0:0,0:0:0:0:
315,183,69061,1,2,1:2:0:0:
315,183,69203,2,0,B|355:178|336:198|401:188,1,77.0000023498536,2|8,1:2|0:0,0:0:0:0:
470,112,69489,6,0,P|446:158|441:283,1,154.000004699707,2|2,1:2|1:2,0:0:0:0:
478,327,69918,2,0,P|434:339|394:327,1,77.0000023498536,8|2,0:0|0:0,0:0:0:0:
349,269,70203,1,0,1:0:0:0:
280,308,70346,2,0,L|285:384,1,77.0000023498536,2|8,1:2|0:0,0:0:0:0:
206,278,70632,6,0,B|126:268|169:332|48:316,1,154.000004699707,2|0,0:0|1:0,0:0:0:0:
12,250,71061,1,8,0:0:0:0:
12,250,71346,1,0,1:0:0:0:
74,189,71489,1,2,1:2:0:0:
24,125,71632,2,0,P|65:109|111:119,1,77.0000023498536,10|2,0:2|0:2,0:0:0:0:
183,66,71918,6,0,P|176:129|170:209,2,115.50000352478,6|2|2,1:2|0:0|0:0,0:0:0:0:
274,114,72489,2,0,P|269:56|262:0,2,115.50000352478,2|2|2,1:2|0:0|0:0,0:0:0:0:
261,205,73061,6,0,P|302:191|348:203,1,77.0000023498536,2|0,1:2|0:0,0:0:0:0:
355,208,73275,2,0,P|396:221|442:209,1,77.0000023498536,2|0,0:0|0:0,0:0:0:0:
448,204,73489,1,2,0:0:0:0:
497,275,73632,2,0,L|494:355,1,77.0000023498536,2|0,1:2|1:0,0:0:0:0:
475,366,73846,2,0,P|433:379|387:367,1,77.0000023498536,2|0,0:0|0:0,0:0:0:0:
382,359,74061,1,2,0:0:0:0:
267,307,74203,6,0,P|198:288|113:294,1,154.000004699707,14|0,0:0|1:0,0:0:0:0:
140,203,74632,2,0,P|159:134|153:49,1,154.000004699707,14|0,0:0|1:0,0:0:0:0:
244,76,75061,2,0,P|313:95|398:89,1,154.000004699707,14|0,0:0|1:0,0:0:0:0:
371,180,75490,2,0,P|352:249|358:334,1,154.000004699707,14|0,0:0|1:0,0:0:0:0:
420,382,75918,6,0,L|502:374,1,77.0000023498536,10|0,0:0|1:0,0:0:0:0:
506,296,76203,2,0,L|429:303,1,77.0000023498536,10|0,0:0|1:0,0:0:0:0:
339,349,76489,6,0,P|295:328|257:338,1,77.0000023498536,6|0,1:2|0:0,0:0:0:0:
189,370,76775,2,0,B|102:365|134:324|36:320,1,154.000004699707,10|2,0:0|1:2,0:0:0:0:
14,243,77203,1,2,1:2:0:0:
14,243,77346,1,8,0:0:0:0:
116,253,77489,6,0,B|137:231|137:231|133:100,1,154.000004699707,2|0,1:2|1:0,0:0:0:0:
76,49,77918,2,0,P|117:30|158:33,1,77.0000023498536,10|0,0:0|0:0,0:0:0:0:
222,92,78203,1,2,1:2:0:0:
222,92,78346,2,0,L|231:15,1,77.0000023498536,2|10,1:2|0:2,0:0:0:0:
349,17,78632,6,0,B|327:99|374:74|346:173,1,154.000004699707,2|2,1:2|1:2,0:0:0:0:
270,188,79061,2,0,P|292:227|335:246,1,77.0000023498536,10|2,0:2|0:2,0:0:0:0:
401,233,79346,2,0,L|482:226,1,77.0000023498536,2|2,1:2|1:2,0:0:0:0:
477,226,79561,1,2,0:0:0:0:
477,226,79632,1,8,0:0:0:0:
416,323,79775,6,0,P|374:307|263:317,1,154.000004699707,6|0,1:2|1:0,0:0:0:0:
196,363,80203,1,8,0:0:0:0:
196,363,80489,1,0,1:0:0:0:
127,322,80632,1,2,1:2:0:0:
56,364,80775,2,0,P|45:321|58:280,1,77.0000023498536,10|2,0:2|0:2,0:0:0:0:
76,194,81061,6,0,L|66:55,2,115.50000352478,2|2|2,1:2|0:0|0:0,0:0:0:0:
145,259,81632,2,0,L|135:398,2,115.50000352478,2|2|2,1:2|0:0|1:2,0:0:0:0:
207,189,82203,6,0,P|200:152|204:104,1,77.0000023498536,10|0,0:2|1:2,0:0:0:0:
305,189,82489,2,0,P|312:152|308:104,1,77.0000023498536,10|0,0:2|1:2,0:0:0:0:
268,8,82775,2,0,B|359:2|314:57|420:54,1,154.000004699707,10|2,0:2|1:2,0:0:0:0:
479,160,83203,6,0,P|424:162|398:255,1,154.000004699707,6|0,1:2|1:0,0:0:0:0:
461,308,83632,2,0,L|456:397,1,77.0000023498536,8|0,0:0|0:0,0:0:0:0:
379,335,83918,1,0,1:0:0:0:
299,368,84061,1,0,1:0:0:0:
299,368,84203,2,0,P|257:344|217:344,1,77.0000023498536,8|0,0:0|0:0,0:0:0:0:
148,383,84489,5,0,1:0:0:0:
148,383,84632,2,0,L|143:306,1,77.0000023498536,0|8,1:0|0:0,0:0:0:0:
114,223,84918,2,0,P|162:224|227:139,1,154.000004699707,0|2,0:0|0:0,0:0:0:0:
221,60,85346,1,10,0:0:0:0:
221,60,85489,1,2,0:0:0:0:
101,22,85632,6,0,P|115:68|83:103,1,77.0000023498536,2|0,1:2|0:0,0:0:0:0:
93,112,85846,2,0,L|10:108,1,77.0000023498536,2|0,1:2|0:0,0:0:0:0:
4,128,86061,1,2,1:2:0:0:
52,202,86203,6,0,P|38:248|70:283,1,77.0000023498536,2|0,1:2|0:0,0:0:0:0:
60,292,86417,2,0,L|143:288,1,77.0000023498536,2|0,0:0|0:0,0:0:0:0:
155,273,86632,1,2,0:0:0:0:
256,212,86775,5,8,0:0:0:0:
256,324,86918,1,8,0:0:0:0:
256,324,87203,6,0,B|293:304|377:310|308:380|370:390|457:368|430:310|384:288|368:332,1,231.000007049561,2|0,0:0|0:0,0:0:0:0:
341,244,87775,6,0,B|336:151|388:193|366:81,1,154.000004699707,6|0,1:2|1:0,0:0:0:0:
317,39,88203,2,0,P|354:19|398:26,1,77.0000023498536,8|0,0:0|0:0,0:0:0:0:
477,16,88489,1,0,1:0:0:0:
450,94,88632,2,0,L|456:173,1,77.0000023498536,0|8,1:0|0:0,0:0:0:0:
460,273,88918,6,0,P|403:263|330:334,1,154.000004699707,2|0,1:2|1:0,0:0:0:0:
256,368,89346,1,8,0:2:0:0:
256,368,89489,1,0,0:2:0:0:
179,321,89632,1,0,1:0:0:0:
179,321,89775,2,0,L|96:324,1,77.0000023498536,0|8,1:0|0:0,0:0:0:0:
23,243,90061,6,0,B|7:159|67:180|57:99,1,154.000004699707,6|0,1:2|1:0,0:0:0:0:
32,18,90489,2,0,B|116:2|95:62|176:52,1,154.000004699707,8|0,0:0|1:0,0:0:0:0:
256,24,90918,1,0,1:0:0:0:
256,24,91061,1,8,0:0:0:0:
226,121,91203,6,0,P|259:83|357:96,1,154.000004699707,6|0,1:2|1:0,0:0:0:0:
372,173,91632,2,0,P|410:154|430:116,1,77.0000023498536,8|0,0:0|1:0,0:0:0:0:
505,75,91918,2,0,L|509:168,1,77.0000023498536,0|2,1:0|1:2,0:0:0:0:
508,151,92132,1,2,1:2:0:0:
508,151,92203,1,10,1:2:0:0:
457,221,92346,1,2,0:0:0:0:
501,327,92489,6,0,L|408:331,1,77.0000023498536,4|0,1:2|0:0,0:0:0:0:
361,277,92775,2,0,P|342:322|349:362,1,77.0000023498536,8|0,0:0|0:0,0:0:0:0:
256,368,93061,1,0,1:0:0:0:
167,349,93203,2,0,P|168:311|151:277,1,77.0000023498536,0|8,1:0|0:0,0:0:0:0:
64,210,93489,6,0,B|147:226|121:159|212:183,1,154.000004699707,2|0,1:2|1:0,0:0:0:0:
256,256,93918,1,8,0:0:0:0:
256,256,94061,1,0,0:0:0:0:
304,184,94203,1,0,1:0:0:0:
256,112,94346,2,0,L|256:28,1,77.0000023498536,0|8,1:0|0:0,0:0:0:0:
144,20,94632,6,0,P|160:80|87:140,1,154.000004699707,6|0,1:2|1:0,0:0:0:0:
22,107,95061,2,0,P|17:147|30:185,1,77.0000023498536,8|0,0:0|0:0,0:0:0:0:
97,227,95346,1,8,0:0:0:0:
32,297,95489,2,0,L|128:310,1,77.0000023498536,8|0,0:0|1:0,0:0:0:0:
216,376,95775,6,0,P|262:319|335:331,1,154.000004699707,6|0,1:2|1:0,0:0:0:0:
349,344,96132,1,0,1:0:0:0:
362,357,96203,2,0,L|450:355,1,77.0000023498536,0|0,1:0|1:0,0:0:0:0:
498,288,96489,1,8,0:0:0:0:
498,288,96632,1,8,0:0:0:0:
415,271,96775,1,8,0:0:0:0:
415,271,96918,1,8,0:0:0:0:
426,107,97203,6,0,L|515:94,2,77.0000023498536,2|2|2,0:0|0:0|0:0,0:0:0:0:
357,64,97632,2,0,L|280:52,1,77.0000023498536,2|2,0:0|0:0,0:0:0:0:
210,131,97918,1,2,1:2:0:0:
210,131,97989,1,2,1:2:0:0:
210,131,98061,6,0,B|298:135|254:191|354:199,1,154.000004699707,10|8,0:0|0:0,0:0:0:0:
459,188,98489,1,8,0:0:0:0:
