osu file format v14

[General]
AudioFilename: audio.mp3
AudioLeadIn: 0
PreviewTime: 66178
Countdown: 0
SampleSet: Soft
StackLeniency: 0.7
Mode: 2
LetterboxInBreaks: 0
WidescreenStoryboard: 1

[Editor]
DistanceSpacing: 1.4
BeatDivisor: 4
GridSize: 8
TimelineZoom: 2.699999

[Metadata]
Title:Sacrifice (Short Ver.)
TitleUnicode:Sacrifice (Short Ver.)
Artist:Ouse Akira
ArtistUnicode:逢瀬アキラ
Creator:-Luminate
Version:Zonda's Cup
Source:ふゆから​、くるる。
Tags:ふゆくる シルキーズプラス silky's plus galgame eroge visual novel opening rock japanese Fuyukara Kururu Fuyukuru video game rustyy -Rustyy bighzonda bigh
BeatmapID:3358674
BeatmapSetID:1639425

[Difficulty]
HPDrainRate:3
CircleSize:2
OverallDifficulty:6
ApproachRate:6
SliderMultiplier:1.3
SliderTickRate:0.5

[Events]
//Background and Video events
0,0,"zondabg.jpg",0,0
//Break Periods
2,62062,63285
//Storyboard Layer 0 (Background)
//Storyboard Layer 1 (Fail)
//Storyboard Layer 2 (Pass)
//Storyboard Layer 3 (Foreground)
//Storyboard Layer 4 (Overlay)
//Storyboard Sound Samples

[TimingPoints]
335,285.714285714286,4,2,1,10,1,0
906,-100,4,2,1,20,0,0
1477,-100,4,2,1,30,0,0
2620,-100,4,2,1,40,0,0
3763,-100,4,2,1,50,0,0
4906,-100,4,2,1,65,0,0
11763,-100,4,2,1,50,0,0
11835,-100,4,2,1,25,0,0
14049,-100,4,2,1,50,0,0
14121,-100,4,2,1,25,0,0
15192,-100,4,2,1,65,0,0
16192,-100,4,2,1,75,0,0
25477,-100,4,2,1,40,0,0
33620,-100,4,2,1,48,0,0
34620,-100,4,2,1,60,0,0
57477,-100,4,2,1,65,0,0
59763,-100,4,2,1,75,0,0
62049,-100,4,2,1,30,0,0
62906,-100,4,2,1,30,0,0
63763,-100,4,2,1,30,0,0
64239,-100,4,2,1,55,0,0
65335,-100,4,2,1,70,0,0
66620,-100,4,2,1,85,0,1
71192,-100,4,2,1,85,0,1
75192,-100,4,2,1,85,0,1
80335,-100,4,2,1,85,0,1
83049,-100,4,2,1,85,0,1
86049,-100,4,2,1,77,0,0
87049,-100,4,2,1,75,0,0
96477,-100,4,2,1,65,0,0
97763,-100,4,2,1,50,0,0
97811,-100,4,2,1,15,0,0

[Colours]
Combo1 : 179,179,255
Combo2 : 192,192,192
Combo3 : 81,81,255
Combo4 : 142,214,240

[HitObjects]
256,192,335,12,2,4335,0:0:0:0:
69,30,4906,5,4,0:0:0:0:
387,30,5906,1,4,0:0:0:0:
69,30,6906,1,8,0:1:0:0:
128,96,7049,5,14,0:0:0:0:
404,101,7763,1,8,0:1:0:0:
238,103,8192,1,14,0:0:0:0:
357,103,8477,1,8,0:1:0:0:
475,102,8763,1,8,0:0:0:0:
357,103,9192,1,10,0:1:0:0:
256,192,9477,5,14,0:2:0:0:
464,192,10049,1,10,3:2:0:0:
256,192,10620,5,10,3:2:0:0:
256,192,11192,1,10,3:2:0:0:
48,192,11763,5,14,0:0:0:0:
256,192,12049,12,0,14906,0:0:0:0:
384,288,15192,5,8,0:1:0:0:
384,208,15477,1,8,0:0:0:0:
282,196,15763,1,8,3:1:0:0:
90,188,16192,6,0,P|50:172|114:76,1,195,14|8,0:0|0:1,0:0:0:0:
234,68,16906,1,8,0:0:0:0:
362,68,17192,1,8,0:1:0:0:
426,68,17335,6,0,P|466:84|402:180,1,195,2|8,0:0|0:1,0:0:0:0:
282,188,18049,1,8,0:0:0:0:
154,188,18335,1,8,0:1:0:0:
217,188,18477,6,0,P|272:192|338:73,1,195,4|8,0:0|0:1,0:0:0:0:
208,64,19192,1,8,0:0:0:0:
80,64,19477,1,8,0:1:0:0:
80,64,19620,6,0,L|240:64,1,130,6|2,0:0|0:0,0:0:0:0:
275,63,20049,2,0,P|317:81|267:122,1,130,8|10,0:1|0:0,0:0:0:0:
145,125,20620,1,8,0:1:0:0:
209,125,20763,5,2,0:0:0:0:
273,125,20906,2,0,L|425:125,2,130,14|8|8,0:0|0:1|0:0,0:0:0:0:
137,141,21763,1,8,0:1:0:0:
73,141,21906,6,0,P|66:93|201:29,1,195,2|8,0:0|0:1,0:0:0:0:
302,48,22620,1,8,0:0:0:0:
174,120,22906,1,8,0:1:0:0:
174,120,23049,6,0,L|382:120,1,195,6|8,0:0|0:1,0:0:0:0:
246,120,23763,1,8,0:0:0:0:
120,120,24049,1,8,0:1:0:0:
56,120,24192,6,0,B|41:100|68:95|68:95|172:74,1,130,6|8,0:0|0:1,0:0:0:0:
225,73,24620,1,8,0:1:0:0:
291,72,24763,1,2,0:0:0:0:
162,114,25049,1,10,0:1:0:0:
376,160,25477,5,10,0:0:0:0:
376,160,25763,1,10,0:0:0:0:
376,160,26049,1,10,0:0:0:0:
376,160,26335,1,8,0:0:0:0:
376,160,26620,1,2,0:0:0:0:
376,160,26906,1,10,0:0:0:0:
376,160,27192,1,10,0:0:0:0:
376,160,27477,1,10,0:0:0:0:
256,64,27763,5,8,0:0:0:0:
256,64,28049,1,10,0:0:0:0:
256,64,28335,1,10,0:0:0:0:
256,64,28621,1,8,0:0:0:0:
256,64,28906,1,0,0:0:0:0:
256,64,29192,1,10,0:0:0:0:
256,64,29478,1,10,0:0:0:0:
256,64,29763,1,10,0:0:0:0:
134,154,30049,5,10,0:0:0:0:
134,154,30335,1,10,0:0:0:0:
134,154,30621,1,10,0:0:0:0:
134,154,30907,1,8,0:0:0:0:
134,154,31192,1,2,0:0:0:0:
134,154,31478,1,10,0:0:0:0:
134,154,31764,1,10,0:0:0:0:
134,154,32049,1,10,0:0:0:0:
256,64,32335,6,0,P|320:64|392:176,2,195,10|2|10,0:0|0:0|0:0,0:0:0:0:
64,168,33620,1,8,0:1:0:0:
128,168,33763,1,8,0:1:0:0:
256,168,34049,1,8,0:1:0:0:
192,168,34192,2,0,L|136:48,1,130,10|8,0:0|0:1,0:0:0:0:
200,32,34620,5,14,0:0:0:0:
328,32,34906,2,0,L|472:32,2,130,8|10|8,0:1|0:0|0:1,0:0:0:0:
264,32,35620,2,0,P|222:49|288:152,1,195,2|8,0:0|0:1,0:0:0:0:
394,160,36335,1,10,0:0:0:0:
265,156,36620,1,8,0:1:0:0:
136,152,36906,5,8,0:0:0:0:
265,156,37192,2,0,L|424:160,2,130,10|10|8,0:1|0:0|0:1,0:0:0:0:
200,160,37906,2,0,P|200:104|328:48,1,195,2|8,0:0|0:1,0:0:0:0:
184,40,38620,1,10,0:0:0:0:
56,40,38906,1,8,0:1:0:0:
184,40,39192,5,8,0:0:0:0:
312,40,39477,2,0,P|368:80|360:144,1,130,10|10,0:1|0:0,0:0:0:0:
312,169,39906,1,2,0:0:0:0:
184,120,40192,1,2,0:0:0:0:
184,120,40335,2,0,L|320:120,1,130,8|10,0:0|0:1,0:0:0:0:
444,120,40906,2,0,L|308:120,1,130,10|10,0:0|0:1,0:0:0:0:
184,197,41477,6,0,P|182:168|310:85,3,195,10|2|10|10,0:0|0:0|0:1|0:1,0:0:0:0:
292,56,42906,1,8,0:1:0:0:
163,252,43192,2,0,L|198:116,1,130,10|10,0:1|0:0,0:0:0:0:
352,184,43763,6,0,P|264:40|176:192,1,390,10|8,0:0|0:1,0:0:0:0:
296,48,44906,2,0,P|213:191|110:62,1,390,10|8,0:0|0:1,0:0:0:0:
248,96,46049,6,0,L|400:88,2,130,10|8|10,0:0|0:1|0:0,0:0:0:0:
184,104,46763,1,10,0:0:0:0:
184,104,47049,2,0,L|335:101,2,130,10|2|2,0:1|0:0|0:0,0:0:0:0:
120,104,47763,1,10,0:0:0:0:
0,104,48049,1,10,0:1:0:0:
120,184,48335,6,0,P|208:40|296:192,1,390,14|8,0:0|0:1,0:0:0:0:
176,48,49478,2,0,P|259:191|362:62,1,390,10|10,0:0|0:1,0:0:0:0:
224,96,50621,6,0,L|72:88,2,130,10|8|10,0:0|0:1|0:0,0:0:0:0:
288,104,51335,1,10,0:0:0:0:
288,104,51620,2,0,L|440:96,2,130,6|2|2,0:0|0:0|0:0,0:0:0:0:
224,112,52335,1,10,0:0:0:0:
224,112,52620,1,8,0:1:0:0:
344,272,52906,6,0,B|400:272|400:184|344:184|344:184|216:184|216:184|184:32,1,390,14|10,0:0|0:1,0:0:0:0:
64,272,54049,2,0,B|8:272|8:184|64:184|64:184|192:184|192:184|224:32,1,390,10|8,0:0|0:1,0:0:0:0:
352,40,55192,6,0,P|416:56|470:164,4,195,10|2|2|2|10,0:0|0:0|0:1|0:0|0:0,0:0:0:0:
224,48,57192,1,8,0:1:0:0:
160,56,57335,1,8,0:1:0:0:
224,48,57477,6,0,L|376:48,1,130,14|8,0:0|0:1,0:0:0:0:
224,128,58049,2,0,L|80:128,1,130,10|10,0:1|0:1,0:0:0:0:
224,224,58620,2,0,L|249:73,1,130,10|10,0:1|0:1,0:0:0:0:
376,160,59192,2,0,L|401:9,1,130,10|8,0:1|0:1,0:0:0:0:
264,24,59763,5,8,0:1:0:0:
72,32,60192,1,8,0:1:0:0:
264,120,60620,1,8,0:1:0:0:
456,128,61049,1,8,0:1:0:0:
264,216,61477,1,8,0:1:0:0:
256,192,64335,12,8,65906,0:1:0:0:
160,160,66335,5,10,0:0:0:0:
304,160,66620,6,0,P|352:152|368:64,2,130,14|8|10,0:0|0:1|0:0,0:0:0:0:
176,160,67477,1,8,0:1:0:0:
176,160,67620,2,0,L|384:152,1,195,10|8,0:0|0:1,0:0:0:0:
240,224,68335,2,0,L|208:88,1,130,10|8,0:0|0:1,0:0:0:0:
272,80,68763,5,2,0:0:0:0:
400,72,69049,1,2,0:0:0:0:
272,80,69335,1,2,0:0:0:0:
208,88,69477,1,2,0:0:0:0:
240,136,69620,1,2,0:0:0:0:
304,144,69906,6,0,P|376:144|416:32,2,195,2|8|2,0:0|0:1|0:0,0:0:0:0:
240,144,70906,1,8,0:1:0:0:
112,152,71192,6,0,P|124:110|304:24,1,260,14|10,0:0|0:0,0:0:0:0:
434,44,72049,1,8,0:1:0:0:
303,23,72335,6,0,P|178:44|112:152,1,260,10|10,0:0|0:0,0:0:0:0:
240,176,73192,1,8,0:1:0:0:
368,184,73477,5,14,0:1:0:0:
176,184,73906,1,14,0:1:0:0:
368,184,74335,1,14,0:1:0:0:
176,184,74763,1,14,0:1:0:0:
368,184,75192,2,0,L|384:40,1,130,10|10,0:1|0:1,0:0:0:0:
248,160,75763,6,0,P|200:152|184:64,2,130,14|8|10,0:0|0:1|0:0,0:0:0:0:
376,160,76620,1,8,0:1:0:0:
376,160,76763,2,0,L|168:152,1,195,10|8,0:0|0:1,0:0:0:0:
312,224,77478,2,0,L|344:88,1,130,10|8,0:0|0:1,0:0:0:0:
280,80,77906,5,2,0:0:0:0:
152,72,78192,1,2,0:0:0:0:
216,72,78335,1,10,0:1:0:0:
246,77,78477,1,2,0:0:0:0:
216,72,78620,1,10,0:0:0:0:
246,77,78763,1,2,0:0:0:0:
376,168,79049,6,0,P|304:168|208:80,2,195,2|8|0,0:0|0:1|0:0,0:0:0:0:
440,40,80049,1,8,0:1:0:0:
304,40,80335,6,0,L|168:40,1,130,14|8,0:0|0:1,0:0:0:0:
304,144,80906,2,0,L|440:144,1,130,10|8,0:0|0:1,0:0:0:0:
304,144,81477,1,14,0:1:0:0:
176,144,81763,1,10,0:1:0:0:
48,144,82049,1,10,0:1:0:0:
176,144,82335,1,10,0:1:0:0:
240,144,82477,6,0,P|328:136|288:48,1,195,14|8,0:0|0:1,0:0:0:0:
176,48,83192,1,8,0:0:0:0:
48,56,83477,1,8,0:1:0:0:
176,48,83763,2,0,L|384:56,2,195,8|2|8,0:0|0:0|0:1,0:0:0:0:
304,184,84906,6,0,P|348:148|240:32,1,260,8|10,0:3|0:0,0:0:0:0:
120,40,85763,1,8,0:1:0:0:
249,28,86049,1,10,0:1:0:0:
377,28,86335,1,2,0:0:0:0:
505,28,86621,1,2,0:1:0:0:
377,28,86907,1,2,0:1:0:0:
304,256,87049,6,0,P|228:243|227:126,1,195,6|8,0:0|0:1,0:0:0:0:
344,120,87763,1,8,0:0:0:0:
472,120,88049,1,8,0:1:0:0:
408,120,88192,6,0,L|190:132,1,195,2|8,0:0|0:1,0:0:0:0:
80,136,88906,1,8,0:0:0:0:
213,130,89192,1,8,0:1:0:0:
213,130,89334,6,0,L|5:97,1,195,14|8,0:0|0:1,0:0:0:0:
152,32,90049,1,10,0:0:0:0:
280,32,90334,1,8,0:1:0:0:
280,32,90477,6,0,L|120:32,1,130,6|2,0:0|0:0,0:0:0:0:
85,33,90906,2,0,P|43:51|93:92,1,130,8|10,0:1|0:0,0:0:0:0:
216,160,91477,1,8,0:1:0:0:
152,160,91620,1,2,0:0:0:0:
86,160,91763,6,0,L|238:160,1,130,14|8,0:0|0:1,0:0:0:0:
344,160,92335,1,8,0:0:0:0:
216,160,92620,1,8,0:1:0:0:
216,160,92763,6,0,B|216:13|216:13|259:70,1,195,2|8,0:0|0:1,0:0:0:0:
376,48,93477,1,8,0:0:0:0:
248,168,93763,1,8,0:1:0:0:
248,168,93906,6,0,B|448:168,1,195,6|8,0:0|0:1,0:0:0:0:
312,120,94620,1,10,0:1:0:0:
312,120,94906,1,8,0:0:0:0:
376,120,95049,6,0,P|445:96|376:32,1,195,6|2,0:0|3:2,0:0:0:0:
256,32,95763,1,8,3:1:0:0:
128,40,96049,1,8,3:1:0:0:
192,40,96192,1,2,0:0:0:0:
328,232,97335,6,0,P|349:190|282:157,1,130,8|8,0:1|0:1,0:0:0:0:
202,167,97763,1,10,0:1:0:0:
256,192,98049,12,0,100906,0:0:0:0:
