osu file format v14

[General]
AudioFilename: audio.mp3
AudioLeadIn: 0
PreviewTime: 66178
Countdown: 0
SampleSet: Soft
StackLeniency: 0.7
Mode: 2
LetterboxInBreaks: 0
WidescreenStoryboard: 1

[Editor]
DistanceSpacing: 1.4
BeatDivisor: 4
GridSize: 8
TimelineZoom: 2.699999

[Metadata]
Title:Sacrifice (Short Ver.)
TitleUnicode:Sacrifice (Short Ver.)
Artist:Ouse Akira
ArtistUnicode:逢瀬アキラ
Creator:-Luminate
Version:Salad
Source:ふゆから​、くるる。
Tags:ふゆくる シルキーズプラス silky's plus galgame eroge visual novel opening rock japanese Fuyukara Kururu Fuyukuru video game rustyy -Rustyy bighzonda bigh
BeatmapID:3351618
BeatmapSetID:1639425

[Difficulty]
HPDrainRate:4
CircleSize:3
OverallDifficulty:7
ApproachRate:7
SliderMultiplier:1.5
SliderTickRate:1

[Events]
//Background and Video events
0,0,"bg.jpg",0,0
//Break Periods
//Storyboard Layer 0 (Background)
//Storyboard Layer 1 (Fail)
//Storyboard Layer 2 (Pass)
//Storyboard Layer 3 (Foreground)
//Storyboard Layer 4 (Overlay)
//Storyboard Sound Samples

[TimingPoints]
335,285.714285714286,4,2,1,10,1,0
906,-100,4,2,1,20,0,0
1477,-100,4,2,1,30,0,0
2620,-100,4,2,1,40,0,0
3763,-100,4,2,1,50,0,0
4906,-100,4,2,1,65,0,0
11763,-100,4,2,1,50,0,0
11835,-125,4,2,1,25,0,0
14049,-125,4,2,1,50,0,0
14121,-125,4,2,1,25,0,0
15192,-125,4,2,1,65,0,0
16192,-100,4,2,1,75,0,0
25477,-100,4,2,1,40,0,0
33620,-100,4,2,1,48,0,0
34620,-100,4,2,1,60,0,0
57477,-100,4,2,1,65,0,0
59763,-100,4,2,1,75,0,0
62049,-100,4,2,1,30,0,0
62906,-100,4,2,1,30,0,0
63763,-100,4,2,1,30,0,0
64239,-100,4,2,1,55,0,0
65335,-100,4,2,1,70,0,0
66620,-100,4,2,1,85,0,1
71192,-100,4,2,1,85,0,1
75192,-100,4,2,1,85,0,1
80335,-100,4,2,1,85,0,1
83049,-100,4,2,1,85,0,1
86049,-100,4,2,1,77,0,0
87049,-100,4,2,1,75,0,0
96477,-100,4,2,1,65,0,0
97763,-125,4,2,1,50,0,0
97811,-125,4,2,1,25,0,0

[Colours]
Combo1 : 230,0,230
Combo2 : 192,192,192
Combo3 : 81,81,255
Combo4 : 181,126,113

[HitObjects]
256,192,335,12,0,4049,0:0:0:0:
288,336,4335,5,2,0:0:0:0:
352,304,4478,1,2,0:0:0:0:
352,232,4621,1,2,0:0:0:0:
96,344,4906,6,0,P|24:248|128:16,1,375,4|0,0:0|0:0,0:0:0:0:
344,256,5906,6,0,P|384:136|320:48,1,225,4|0,0:0|0:0,0:0:0:0:
192,192,6620,1,2,0:0:0:0:
192,120,6763,1,2,0:0:0:0:
440,320,7049,6,0,L|440:152,1,150,14|2,0:0|0:0,0:0:0:0:
368,176,7477,1,2,0:0:0:0:
368,104,7763,1,8,0:1:0:0:
424,104,7906,1,8,0:3:0:0:
192,168,8192,6,0,P|152:120|200:56,1,150,14|8,0:0|0:1,0:0:0:0:
280,56,8620,1,8,0:0:0:0:
280,56,8763,1,8,0:0:0:0:
195,56,9049,1,8,0:0:0:0:
195,56,9192,1,10,0:1:0:0:
432,224,9477,6,0,P|464:184|424:96,1,150,14|8,0:2|3:2,0:0:0:0:
304,328,10049,2,0,L|312:152,1,150,10|8,3:2|3:2,0:0:0:0:
64,288,10620,6,0,L|56:120,1,150,10|10,3:2|3:2,0:0:0:0:
160,136,11192,1,10,3:2:0:0:
56,138,11477,1,10,3:2:0:0:
56,138,11620,1,2,3:2:0:0:
216,136,11763,5,14,0:0:0:0:
256,192,12049,12,2,14049,0:0:0:0:
312,328,15192,6,0,L|320:184,1,120,8|8,0:1|0:0,0:0:0:0:
168,208,15763,1,8,3:1:0:0:
144,160,15906,1,8,3:1:0:0:
168,112,16049,1,8,3:1:0:0:
328,208,16192,6,0,P|360:136|320:72,1,150,14|2,0:0|0:0,0:0:0:0:
264,72,16620,1,8,0:1:0:0:
144,72,16906,1,8,0:0:0:0:
200,72,17049,1,2,0:0:0:0:
432,368,17335,6,0,L|304:272,1,150,2|2,0:0|0:0,0:0:0:0:
264,240,17763,1,8,0:1:0:0:
392,104,18049,1,10,0:0:0:0:
392,48,18192,1,8,0:0:0:0:
136,336,18477,6,0,L|136:176,1,150,4|2,0:0|0:0,0:0:0:0:
208,176,18906,2,0,L|56:104,1,150,8|8,0:1|0:0,0:0:0:0:
72,48,19335,1,2,0:0:0:0:
336,336,19620,6,0,P|408:296|424:208,1,150,6|2,0:0|0:0,0:0:0:0:
368,224,20049,2,0,L|256:120,2,150,8|10|8,0:1|0:0|0:1,0:0:0:0:
112,336,20906,6,0,L|112:160,1,150,14|8,0:0|0:1,0:0:0:0:
224,128,21477,1,8,0:0:0:0:
160,120,21620,1,2,0:0:0:0:
416,336,21906,6,0,P|400:256|320:208,1,150,2|2,0:0|0:0,0:0:0:0:
280,216,22335,1,8,0:1:0:0:
160,184,22620,1,8,0:0:0:0:
152,120,22763,1,2,0:0:0:0:
416,224,23049,6,0,L|424:48,1,150,6|2,0:0|0:0,0:0:0:0:
352,192,23477,2,0,P|320:104|376:72,1,150,8|8,0:1|0:0,0:0:0:0:
422,74,23906,1,2,0:0:0:0:
176,336,24192,6,0,P|72:288|56:240,1,150,6|8,0:0|0:1,0:0:0:0:
64,216,24620,1,8,0:1:0:0:
64,160,24763,1,2,0:0:0:0:
208,248,25049,2,0,L|216:80,1,150,10|0,0:1|0:0,0:0:0:0:
304,80,25477,5,10,0:0:0:0:
432,136,25763,1,10,0:0:0:0:
304,200,26049,1,10,0:0:0:0:
128,304,26477,6,0,P|104:200|136:152,1,150,2|2,0:0|0:0,0:0:0:0:
184,168,26906,1,10,0:0:0:0:
304,104,27192,1,10,0:0:0:0:
248,72,27335,1,2,0:0:0:0:
184,48,27477,1,10,0:0:0:0:
424,344,27763,6,0,P|456:272|416:200,1,150,8|10,0:0|0:0,0:0:0:0:
304,320,28335,2,0,L|296:144,1,150,10|8,0:0|0:0,0:0:0:0:
216,168,28763,6,0,P|152:184|120:280,1,150,2|2,0:0|0:0,0:0:0:0:
120,312,29192,1,10,0:0:0:0:
240,320,29477,1,10,0:0:0:0:
296,288,29620,1,2,0:0:0:0:
296,224,29763,1,10,0:0:0:0:
48,288,30049,6,0,P|40:208|96:144,1,150,10|10,0:0|0:0,0:0:0:0:
192,248,30621,2,0,L|200:72,1,150,8|8,0:0|0:0,0:0:0:0:
280,96,31049,6,0,P|344:112|376:208,1,150,2|2,0:0|0:0,0:0:0:0:
312,192,31477,1,10,0:0:0:0:
200,248,31763,1,10,0:0:0:0:
256,280,31906,1,2,0:0:0:0:
312,320,32049,1,10,0:0:0:0:
64,328,32335,6,0,L|232:168,2,225,10|2|10,0:0|0:0|0:0,0:0:0:0:
216,160,33620,5,8,0:1:0:0:
240,216,33763,1,8,0:1:0:0:
240,264,33906,1,8,0:0:0:0:
208,296,34049,1,8,0:1:0:0:
168,304,34192,1,10,0:0:0:0:
464,296,34620,6,0,L|472:112,1,150,14|8,0:0|0:1,0:0:0:0:
344,280,35192,2,0,L|336:112,1,150,10|8,0:0|0:1,0:0:0:0:
264,136,35620,6,0,P|224:80|288:24,1,150,2|2,0:0|0:0,0:0:0:0:
336,24,36049,1,8,0:1:0:0:
456,104,36335,1,10,0:0:0:0:
448,176,36477,1,2,0:0:0:0:
440,240,36620,1,8,0:1:0:0:
200,344,36906,6,0,L|192:168,1,150,8|10,0:0|0:1,0:0:0:0:
312,192,37477,2,0,L|176:104,1,150,10|8,0:0|0:1,0:0:0:0:
120,112,37906,6,0,L|264:16,1,150,2|2,0:0|0:0,0:0:0:0:
244,28,38335,1,8,0:1:0:0:
344,136,38620,1,10,0:0:0:0:
280,112,38763,1,2,0:0:0:0:
120,262,38906,6,0,L|120:86,1,150,8|8,0:1|0:0,0:0:0:0:
256,112,39477,1,10,0:1:0:0:
120,262,39763,1,10,0:0:0:0:
120,262,39906,1,2,0:0:0:0:
384,272,40192,6,0,L|392:88,1,150,2|0,0:0|0:0,0:0:0:0:
320,136,40620,1,10,0:1:0:0:
208,216,40906,1,10,0:0:0:0:
320,296,41192,1,10,0:1:0:0:
72,328,41477,6,0,L|256:160,2,225,10|2|10,0:0|0:0|0:1,0:0:0:0:
224,280,42763,5,10,0:1:0:0:
224,216,42906,1,8,0:1:0:0:
344,168,43192,1,10,0:1:0:0:
224,104,43477,1,10,0:0:0:0:
464,336,43763,6,0,L|464:176,1,150,10|8,0:0|0:1,0:0:0:0:
352,192,44335,1,8,0:0:0:0:
408,176,44477,1,8,0:0:0:0:
464,160,44620,1,8,0:1:0:0:
224,184,44906,6,0,L|104:288,2,150,10|8|8,0:0|0:1|0:0,0:0:0:0:
344,184,45763,1,8,0:1:0:0:
104,274,46049,6,0,L|96:98,1,150,10|8,0:0|0:1,0:0:0:0:
168,120,46477,1,2,0:0:0:0:
97,124,46620,2,0,L|97:28,1,75,10|10,0:0|0:0,0:0:0:0:
344,336,47049,6,0,L|352:168,1,150,10|2,0:1|0:0,0:0:0:0:
472,168,47620,1,2,0:0:0:0:
408,136,47763,1,10,0:0:0:0:
408,72,47906,1,10,0:0:0:0:
472,48,48049,1,10,0:1:0:0:
240,328,48335,6,0,L|232:168,1,150,14|8,0:0|0:1,0:0:0:0:
128,184,48906,1,8,0:0:0:0:
136,128,49049,1,8,0:0:0:0:
144,64,49192,1,8,0:1:0:0:
384,48,49477,6,0,L|248:160,2,150,10|8|8,0:0|0:1|0:0,0:0:0:0:
416,96,50192,1,10,0:0:0:0:
384,144,50335,1,10,0:1:0:0:
144,336,50620,6,0,L|136:168,1,150,10|8,0:0|0:1,0:0:0:0:
272,232,51192,2,0,L|280:64,1,150,10|8,0:0|0:1,0:0:0:0:
120,176,51620,6,0,P|88:112|136:48,1,150,6|2,0:0|0:0,0:0:0:0:
184,312,52049,1,8,0:1:0:0:
64,256,52335,1,10,0:0:0:0:
184,208,52620,1,8,0:1:0:0:
424,344,52906,6,0,L|432:160,1,150,14|8,0:0|0:1,0:0:0:0:
310,226,53477,1,8,0:0:0:0:
366,210,53620,1,8,0:0:0:0:
430,194,53763,1,10,0:1:0:0:
192,344,54049,6,0,L|184:184,1,150,10|8,0:0|0:1,0:0:0:0:
312,192,54620,1,8,0:0:0:0:
320,112,54763,1,8,0:0:0:0:
328,32,54906,1,8,0:1:0:0:
72,56,55192,6,0,L|208:144,1,150,10|8,0:0|0:1,0:0:0:0:
197,137,55620,2,0,P|112:168|72:312,2,225,2|10|2,0:0|0:1|0:0,0:0:0:0:
264,136,56620,5,8,0:1:0:0:
264,240,56906,1,10,0:0:0:0:
160,288,57192,1,8,0:1:0:0:
400,320,57477,6,0,L|400:232,1,75,14|2,0:0|0:0,0:0:0:0:
328,256,57763,2,0,L|328:176,1,75,8|2,0:1|0:0,0:0:0:0:
400,176,58049,1,10,0:1:0:0:
176,304,58335,1,10,0:1:0:0:
112,272,58477,1,2,0:0:0:0:
176,240,58620,6,0,L|336:200,1,150,10|10,0:1|0:1,0:0:0:0:
104,192,59192,1,10,0:1:0:0:
40,192,59335,2,0,L|40:8,1,150,2|8,0:0|0:0,0:0:0:0:
200,72,59763,5,8,0:1:0:0:
264,64,59906,1,10,0:0:0:0:
400,88,60192,1,8,0:1:0:0:
336,80,60335,1,10,0:0:0:0:
104,192,60620,1,8,0:1:0:0:
104,192,60763,1,10,0:0:0:0:
344,208,61049,5,8,0:1:0:0:
400,192,61192,1,8,0:1:0:0:
344,304,61477,2,0,L|344:120,1,150,8|8,0:1|0:0,0:0:0:0:
96,144,62049,5,10,0:0:0:0:
240,176,62477,1,2,0:0:0:0:
392,208,62906,1,2,0:0:0:0:
240,288,63335,1,2,0:0:0:0:
392,358,63763,2,0,L|392:206,1,150,2|0,0:0|0:0,0:0:0:0:
152,144,64335,5,8,0:1:0:0:
288,144,64763,1,8,0:0:0:0:
288,144,64906,1,8,0:1:0:0:
192,144,65192,1,10,0:0:0:0:
352,224,65335,6,0,P|384:280|344:352,1,150,6|10,0:0|0:0,0:0:0:0:
296,352,65763,1,8,0:1:0:0:
347,350,65906,1,8,0:1:0:0:
112,256,66192,1,10,0:0:0:0:
112,256,66335,1,10,0:0:0:0:
352,240,66620,6,0,L|472:136,2,150,14|8|10,0:0|0:1|0:0,0:0:0:0:
416,240,67335,1,10,0:0:0:0:
184,320,67620,6,0,P|160:224|200:192,1,150,10|8,0:0|0:0,0:0:0:0:
272,192,68049,2,0,P|344:168|360:88,1,150,8|10,0:1|0:0,0:0:0:0:
360,64,68477,1,2,0:0:0:0:
304,32,68620,1,8,0:1:0:0:
144,304,68763,6,0,L|136:120,1,150,2|2,0:0|0:0,0:0:0:0:
208,152,69192,2,0,L|216:72,1,75,8|2,0:1|0:0,0:0:0:0:
152,64,69477,1,10,0:0:0:0:
88,56,69620,1,2,0:0:0:0:
328,344,69906,6,0,P|408:312|432:224,1,150,2|0,0:0|0:0,0:0:0:0:
368,240,70335,2,0,L|256:128,2,150,8|8|8,0:1|0:0|0:1,0:0:0:0:
112,344,71192,5,14,0:0:0:0:
72,272,71406,1,2,0:0:0:0:
112,192,71620,1,2,0:0:0:0:
192,176,71763,2,0,L|80:56,1,150,10|8,0:0|0:1,0:0:0:0:
368,336,72335,5,10,0:0:0:0:
432,256,72549,1,2,0:0:0:0:
368,176,72763,1,2,0:0:0:0:
288,160,72906,2,0,L|408:40,1,150,10|8,0:0|0:1,0:0:0:0:
120,328,73477,6,0,L|120:88,1,225,14|14,0:1|0:1,0:0:0:0:
464,320,74335,2,0,L|464:88,1,225,14|14,0:1|0:1,0:0:0:0:
264,96,75192,5,10,0:1:0:0:
384,96,75477,1,10,0:1:0:0:
144,336,75763,6,0,L|128:176,1,150,14|8,0:0|0:1,0:0:0:0:
272,240,76335,1,10,0:0:0:0:
280,160,76477,1,2,0:0:0:0:
48,320,76763,6,0,L|176:216,1,150,10|0,0:0|0:0,0:0:0:0:
224,240,77192,2,0,L|88:128,1,150,8|10,0:1|0:0,0:0:0:0:
112,80,77620,1,2,0:0:0:0:
168,56,77763,1,8,0:1:0:0:
320,336,77906,6,0,L|328:160,1,150,2|2,0:0|0:0,0:0:0:0:
248,192,78335,2,0,L|240:104,1,75,10|2,0:1|0:0,0:0:0:0:
326,186,78620,2,0,L|334:98,1,75,10|2,0:0|0:0,0:0:0:0:
72,352,79049,6,0,L|64:176,1,150,2|0,0:0|0:0,0:0:0:0:
144,192,79477,2,0,L|32:72,2,150,8|8|8,0:1|0:0|0:1,0:0:0:0:
376,56,80335,5,14,0:0:0:0:
416,136,80549,1,2,0:0:0:0:
360,200,80763,1,2,0:0:0:0:
288,200,80906,2,0,L|400:320,1,150,10|8,0:0|0:1,0:0:0:0:
120,336,81477,5,14,0:1:0:0:
120,232,81763,1,10,0:1:0:0:
336,232,82049,1,10,0:1:0:0:
120,232,82335,1,10,0:1:0:0:
56,240,82477,6,0,P|24:176|64:104,1,150,14|0,0:0|0:0,0:0:0:0:
120,136,82906,2,0,L|216:16,1,150,8|8,0:1|0:0,0:0:0:0:
344,112,83477,1,8,0:1:0:0:
104,208,83763,6,0,L|96:32,1,150,8|8,0:0|0:1,0:0:0:0:
160,56,84192,1,2,0:0:0:0:
280,296,84477,1,2,0:0:0:0:
336,240,84620,1,8,0:1:0:0:
280,192,84763,1,2,0:0:0:0:
128,312,84906,5,8,0:3:0:0:
72,240,85120,1,10,0:0:0:0:
128,168,85335,1,10,0:0:0:0:
208,168,85477,2,0,L|96:24,1,150,10|8,0:0|0:1,0:0:0:0:
392,280,86049,5,10,0:1:0:0:
392,280,86192,1,8,0:1:0:0:
184,208,87049,6,0,P|152:136|192:72,1,150,6|2,0:0|0:0,0:0:0:0:
248,72,87477,1,8,0:1:0:0:
368,72,87763,1,8,0:0:0:0:
312,72,87906,1,2,0:0:0:0:
80,352,88192,6,0,L|208:256,1,150,2|2,0:0|0:0,0:0:0:0:
248,240,88620,1,8,0:1:0:0:
128,104,88906,1,10,0:0:0:0:
128,48,89049,1,10,0:0:0:0:
376,336,89334,6,0,L|376:176,1,150,14|2,0:0|0:0,0:0:0:0:
304,176,89763,2,0,L|456:104,1,150,8|10,0:1|0:0,0:0:0:0:
440,48,90192,1,2,0:0:0:0:
176,336,90477,6,0,P|104:296|88:208,1,150,6|2,0:0|0:0,0:0:0:0:
144,224,90906,2,0,L|256:120,2,150,8|10|8,0:1|0:0|0:1,0:0:0:0:
400,336,91763,6,0,L|400:160,1,150,14|8,0:0|0:1,0:0:0:0:
288,128,92334,1,10,0:0:0:0:
336,120,92477,1,2,0:0:0:0:
96,336,92763,6,0,P|112:256|192:208,1,150,2|2,0:0|0:0,0:0:0:0:
232,216,93192,1,8,0:1:0:0:
352,184,93477,1,8,0:0:0:0:
360,120,93620,1,2,0:0:0:0:
96,224,93906,6,0,L|88:48,1,150,6|2,0:0|0:0,0:0:0:0:
168,192,94334,2,0,P|200:104|144:72,1,150,8|10,0:1|0:1,0:0:0:0:
90,74,94763,1,10,0:1:0:0:
336,336,95049,6,0,P|440:288|456:240,1,150,6|8,0:0|0:3,0:0:0:0:
376,256,95477,1,2,3:2:0:0:
240,256,95763,2,0,L|120:136,1,150,8|8,3:1|3:1,0:0:0:0:
136,96,96192,1,2,0:0:0:0:
368,320,96477,5,2,0:0:0:0:
432,288,96620,2,0,L|512:144,2,150,2|2|8,0:0|0:0|0:0,0:0:0:0:
368,320,97335,1,8,0:1:0:0:
104,312,97620,5,8,0:1:0:0:
104,312,97763,1,10,0:1:0:0:
