osu file format v14

[General]
AudioFilename: audio.mp3
AudioLeadIn: 0
PreviewTime: 66178
Countdown: 0
SampleSet: Soft
StackLeniency: 0.7
Mode: 2
LetterboxInBreaks: 0
WidescreenStoryboard: 1

[Editor]
DistanceSpacing: 1.4
BeatDivisor: 4
GridSize: 8
TimelineZoom: 2.699999

[Metadata]
Title:Sacrifice (Short Ver.)
TitleUnicode:Sacrifice (Short Ver.)
Artist:Ouse Akira
ArtistUnicode:逢瀬アキラ
Creator:-Luminate
Version:Rustyy's Overdose
Source:ふゆから​、くるる。
Tags:ふゆくる シルキーズプラス silky's plus galgame eroge visual novel opening rock japanese Fuyukara Kururu Fuyukuru video game rustyy -Rustyy bighzonda bigh
BeatmapID:3353588
BeatmapSetID:1639425

[Difficulty]
HPDrainRate:6
CircleSize:4.1
OverallDifficulty:9.2
ApproachRate:9.2
SliderMultiplier:1.84
SliderTickRate:2

[Events]
//Background and Video events
0,0,"bg.jpg",0,0
//Break Periods
//Storyboard Layer 0 (Background)
//Storyboard Layer 1 (Fail)
//Storyboard Layer 2 (Pass)
//Storyboard Layer 3 (Foreground)
//Storyboard Layer 4 (Overlay)
//Storyboard Sound Samples

[TimingPoints]
335,285.714285714286,4,2,1,10,1,0
906,-100,4,2,1,20,0,0
1477,-100,4,2,1,30,0,0
2620,-100,4,2,1,40,0,0
3763,-100,4,2,1,50,0,0
4906,-100,4,2,1,65,0,0
5906,-111.111111111111,4,2,1,65,0,0
6763,-100,4,2,1,65,0,0
11763,-125,4,2,1,50,0,0
11835,-125,4,2,1,25,0,0
14049,-125,4,2,1,50,0,0
14121,-125,4,2,1,25,0,0
15192,-100,4,2,1,65,0,0
16192,-100,4,2,1,75,0,0
25477,-100,4,2,1,40,0,0
33620,-100,4,2,1,48,0,0
34620,-100,4,2,1,60,0,0
57477,-100,4,2,1,65,0,0
59763,-100,4,2,1,75,0,0
62049,-71.4285714285714,4,2,1,30,0,0
62906,-83.3333333333333,4,2,1,30,0,0
63763,-100,4,2,1,30,0,0
64239,-100,4,2,1,55,0,0
65335,-100,4,2,1,70,0,0
66620,-100,4,2,1,85,0,1
71192,-83.3333333333333,4,2,1,85,0,1
75192,-100,4,2,1,85,0,1
80335,-83.3333333333333,4,2,1,85,0,1
83049,-100,4,2,1,85,0,1
86049,-100,4,2,1,77,0,0
87049,-100,4,2,1,75,0,0
96477,-100,4,2,1,65,0,0
97763,-125,4,2,1,50,0,0
97811,-125,4,2,1,25,0,0

[Colours]
Combo1 : 230,0,230
Combo2 : 192,192,192
Combo3 : 81,81,255
Combo4 : 181,126,113

[HitObjects]
256,192,335,12,0,4192,0:0:0:0:
139,371,4335,5,2,0:0:0:0:
221,342,4477,1,2,0:0:0:0:
304,310,4620,1,2,0:0:0:0:
387,283,4763,1,2,0:0:0:0:
169,356,4906,6,0,P|46:265|226:0,1,552,4|0,0:0|0:0,0:0:0:0:
427,57,5906,6,0,P|477:108|252:352,1,496.799984838868,4|2,0:0|0:0,0:0:0:0:
148,202,6906,1,8,0:1:0:0:
359,353,7049,6,0,P|406:306|273:63,1,368,14|0,0:0|0:0,0:0:0:0:
65,82,7763,5,8,0:1:0:0:
159,42,7906,1,8,0:3:0:0:
65,82,8049,1,8,0:0:0:0:
273,127,8192,6,0,P|324:155|247:233,1,184,14|8,0:0|0:1,0:0:0:0:
141,282,8620,1,8,0:0:0:0:
271,326,8763,1,8,0:0:0:0:
140,351,8906,2,0,L|131:250,1,92,8|8,0:0|0:0,0:0:0:0:
178,241,9120,1,0,0:0:0:0:
321,184,9192,2,0,L|199:154,1,92,10|2,0:1|0:0,0:0:0:0:
441,359,9477,5,14,0:2:0:0:
467,321,9548,1,0,3:0:0:0:
472,276,9619,1,0,3:0:0:0:
456,233,9691,1,0,3:0:0:0:
422,203,9762,1,8,3:2:0:0:
378,192,9834,1,0,3:2:0:0:
196,164,9906,2,0,L|141:155,1,46,2|0,3:2|3:0,0:0:0:0:
329,57,10049,2,0,L|403:55,1,46,10|0,3:2|3:0,0:0:0:0:
310,142,10192,1,0,3:0:0:0:
265,141,10263,1,0,3:0:0:0:
238,106,10334,1,8,3:2:0:0:
251,64,10406,1,0,3:0:0:0:
417,177,10477,2,0,L|362:189,1,46,2|0,3:2|3:0,0:0:0:0:
196,309,10620,5,10,3:2:0:0:
153,296,10691,1,0,3:0:0:0:
139,254,10762,1,0,3:0:0:0:
165,218,10834,1,0,3:0:0:0:
328,175,10906,2,0,L|377:163,1,46,10|0,3:2|3:0,0:0:0:0:
195,128,11049,2,0,L|135:123,1,46,2|0,3:2|3:0,0:0:0:0:
305,77,11192,2,0,L|314:133,1,46,10|0,3:2|3:0,0:0:0:0:
246,137,11335,2,0,L|240:206,1,46,2|0,3:2|3:0,0:0:0:0:
404,243,11477,2,4,L|331:247,1,46,10|0,3:2|3:0,0:0:0:0:
186,304,11620,2,8,L|242:321,1,46,2|0,3:2|3:0,0:0:0:0:
433,341,11763,5,14,0:0:0:0:
256,192,11906,12,0,13763,0:0:0:0:
255,191,14049,5,2,0:0:0:0:
256,192,14192,12,0,15049,0:0:0:0:
321,358,15192,5,8,0:1:0:0:
334,314,15263,1,8,0:1:0:0:
334,268,15334,1,8,0:0:0:0:
319,225,15406,1,8,0:0:0:0:
292,188,15477,1,8,0:0:0:0:
254,162,15549,1,8,0:0:0:0:
193,148,15620,1,8,0:0:0:0:
147,149,15691,1,8,0:0:0:0:
313,108,15763,2,0,L|373:106,1,46,8|0,3:1|3:2,0:0:0:0:
203,56,15906,2,0,L|142:53,1,46,8|0,3:1|3:2,0:0:0:0:
313,108,16049,2,0,L|358:109,1,46,8|0,3:1|3:2,0:0:0:0:
115,134,16192,6,0,P|87:177|185:268,1,184,14|2,0:0|0:0,0:0:0:0:
284,303,16620,1,8,0:1:0:0:
155,340,16763,1,2,0:0:0:0:
284,355,16906,2,0,L|387:361,1,92,8|2,0:0|0:0,0:0:0:0:
247,279,17192,1,8,0:1:0:0:
450,226,17335,6,0,L|239:204,1,184,2|2,0:0|0:0,0:0:0:0:
395,194,17763,2,0,L|395:98,1,92,8|2,0:1|0:0,0:0:0:0:
265,51,18049,2,0,L|362:30,1,92,10|8,0:0|0:0,0:0:0:0:
221,139,18335,1,8,0:1:0:0:
434,158,18477,6,0,P|458:215|368:281,1,184,4|2,0:0|0:0,0:0:0:0:
246,315,18906,1,8,0:1:0:0:
375,348,19049,1,2,0:0:0:0:
246,365,19192,1,8,0:0:0:0:
375,348,19335,2,0,L|467:352,1,92,2|8,0:0|0:1,0:0:0:0:
222,297,19620,6,0,P|175:272|209:156,1,184,6|2,0:0|0:0,0:0:0:0:
327,40,20049,2,0,L|329:139,1,92,8|2,0:1|0:0,0:0:0:0:
198,146,20335,2,0,L|191:248,1,92,10|2,0:0|0:0,0:0:0:0:
320,268,20620,1,8,0:1:0:0:
189,321,20763,1,2,0:0:0:0:
400,361,20906,6,0,L|402:251,1,92,14|0,0:0|0:0,0:0:0:0:
269,212,21192,1,8,0:1:0:0:
398,165,21335,1,2,0:0:0:0:
266,100,21477,2,0,L|145:63,1,92,8|2,0:0|0:0,0:0:0:0:
309,25,21763,1,8,0:1:0:0:
106,109,21906,6,0,L|325:134,1,184,2|2,0:0|0:0,0:0:0:0:
157,217,22335,2,0,L|60:233,1,92,8|2,0:1|0:0,0:0:0:0:
195,283,22620,1,8,0:0:0:0:
63,346,22763,2,0,L|60:253,1,92,2|8,0:0|0:1,0:0:0:0:
286,192,23049,6,0,P|253:154|107:112,1,184,6|2,0:0|0:0,0:0:0:0:
265,33,23477,2,0,L|275:127,1,92,8|2,0:1|0:0,0:0:0:0:
143,200,23763,1,8,0:0:0:0:
274,239,23906,2,0,L|385:257,1,92,2|8,0:0|0:1,0:0:0:0:
124,357,24192,6,0,P|95:301|166:213,1,184,6|8,0:0|0:1,0:0:0:0:
364,168,24620,1,8,0:1:0:0:
156,105,24763,2,0,L|41:90,1,92,2|0,0:0|0:0,0:0:0:0:
305,34,25049,2,0,P|334:110|256:189,1,184,10|0,0:1|0:0,0:0:0:0:
60,233,25477,5,10,0:0:0:0:
245,328,25763,2,0,L|247:138,1,184,10|10,0:0|0:0,0:0:0:0:
60,233,26335,1,8,0:0:0:0:
190,212,26477,6,0,L|367:131,1,184,2|2,0:0|0:0,0:0:0:0:
229,89,26906,2,0,L|226:187,1,92,10|2,0:0|0:0,0:0:0:0:
347,206,27192,2,0,L|351:310,1,92,10|2,0:0|0:0,0:0:0:0:
463,333,27477,1,10,0:0:0:0:
78,346,27763,5,8,0:0:0:0:
238,271,28049,2,0,L|66:185,1,184,10|10,0:0|0:0,0:0:0:0:
258,138,28620,1,8,0:0:0:0:
125,59,28763,6,0,P|90:99|161:195,1,184,2|2,0:0|0:0,0:0:0:0:
281,215,29192,2,0,L|278:313,1,92,10|2,0:0|0:0,0:0:0:0:
149,328,29477,2,0,L|246:348,1,92,10|2,0:0|0:0,0:0:0:0:
105,368,29763,1,10,0:0:0:0:
473,292,30049,5,10,0:0:0:0:
302,263,30335,2,0,L|305:56,1,184,10|8,0:0|0:0,0:0:0:0:
138,56,30906,1,8,0:0:0:0:
268,31,31049,6,0,P|310:65|253:174,1,184,2|2,0:0|0:0,0:0:0:0:
141,232,31477,2,0,L|244:259,1,92,10|2,0:0|0:0,0:0:0:0:
340,314,31763,1,10,0:0:0:0:
246,329,31906,1,2,0:0:0:0:
361,368,32049,2,0,L|369:255,1,92,10|2,0:0|0:0,0:0:0:0:
161,240,32335,6,0,P|235:225|331:157,1,184,10|8,0:0|0:0,0:0:0:0:
212,147,32763,2,0,L|28:101,1,184,2|0,0:0|0:0,0:0:0:0:
248,23,33192,2,0,L|250:238,1,184,10|8,0:0|0:0,0:0:0:0:
36,278,33620,5,8,0:1:0:0:
267,306,33763,1,8,0:1:0:0:
155,253,33906,1,8,0:0:0:0:
389,209,34049,1,8,0:1:0:0:
102,171,34192,1,10,0:0:0:0:
102,171,34477,2,0,L|169:172,1,46,8|8,0:1|0:1,0:0:0:0:
335,103,34620,6,0,L|435:90,1,92,14|0,0:0|0:0,0:0:0:0:
295,42,34906,2,0,L|285:154,1,92,8|0,0:1|0:0,0:0:0:0:
417,178,35192,2,0,L|420:271,1,92,10|0,0:0|0:0,0:0:0:0:
286,346,35477,1,8,0:1:0:0:
490,304,35620,6,0,P|499:243|401:162,1,184,2|2,0:0|0:0,0:0:0:0:
287,100,36049,1,8,0:1:0:0:
415,60,36192,1,2,0:0:0:0:
285,25,36335,2,0,L|181:33,1,92,10|2,0:0|0:0,0:0:0:0:
323,79,36620,2,0,L|324:202,1,92,8|0,0:1|0:0,0:0:0:0:
113,250,36906,6,0,L|206:277,1,92,8|0,0:0|0:0,0:0:0:0:
314,341,37192,2,0,L|316:245,1,92,10|0,0:1|0:0,0:0:0:0:
187,204,37477,2,0,L|182:84,1,92,10|0,0:0|0:0,0:0:0:0:
315,85,37763,1,8,0:1:0:0:
105,63,37906,6,0,L|308:60,1,184,2|2,0:0|0:0,0:0:0:0:
159,152,38335,2,0,L|158:244,1,92,8|2,0:1|0:0,0:0:0:0:
290,284,38620,1,10,0:0:0:0:
198,312,38763,1,2,0:0:0:0:
328,346,38906,2,0,L|427:358,1,92,8|0,0:1|0:0,0:0:0:0:
214,247,39192,6,0,L|123:225,1,92,8|0,0:0|0:0,0:0:0:0:
262,167,39477,2,0,L|271:53,1,92,10|0,0:1|0:0,0:0:0:0:
142,45,39763,1,10,0:0:0:0:
277,106,39906,2,0,L|374:99,1,92,2|8,0:0|0:1,0:0:0:0:
156,160,40192,6,0,P|133:209|212:293,1,184,2|0,0:0|0:0,0:0:0:0:
343,326,40620,1,10,0:1:0:0:
253,329,40763,1,0,0:0:0:0:
381,252,40906,2,0,L|387:149,1,92,10|0,0:0|0:0,0:0:0:0:
255,110,41192,2,0,L|164:96,1,92,10|0,0:1|0:0,0:0:0:0:
369,58,41477,6,0,L|461:78,2,92,10|0|8,0:0|0:0|0:1,0:0:0:0:
238,193,41906,2,0,L|351:156,2,92,2|8|0,0:0|0:0|0:0,0:0:0:0:
107,265,42335,2,0,L|202:279,1,92,10|0,0:1|0:0,0:0:0:0:
291,290,42620,1,10,0:0:0:0:
74,338,42763,5,10,0:1:0:0:
282,344,42906,2,0,L|386:344,1,92,8|0,0:1|0:0,0:0:0:0:
168,280,43192,2,0,L|150:167,1,92,10|0,0:1|0:0,0:0:0:0:
364,169,43477,2,0,L|470:148,1,92,10|8,0:0|0:0,0:0:0:0:
408,143,43692,1,8,0:0:0:0:
219,79,43763,5,10,0:0:0:0:
385,45,44049,1,8,0:1:0:0:
416,129,44191,1,0,0:0:0:0:
380,211,44334,1,8,0:0:0:0:
297,246,44477,1,8,0:0:0:0:
428,308,44620,2,0,L|327:316,1,92,8|8,0:1|0:1,0:0:0:0:
107,347,44906,5,10,0:0:0:0:
283,332,45192,2,0,L|300:239,1,92,8|2,0:1|0:0,0:0:0:0:
207,209,45477,2,0,L|204:108,1,92,8|8,0:0|0:0,0:0:0:0:
70,48,45763,2,0,L|170:43,1,92,8|0,0:1|0:0,0:0:0:0:
400,128,46049,5,10,0:0:0:0:
301,124,46192,2,0,L|300:223,1,92,2|8,0:0|0:1,0:0:0:0:
392,250,46477,1,2,0:0:0:0:
263,316,46620,2,0,L|352:339,1,92,10|10,0:0|0:0,0:0:0:0:
445,355,46906,1,0,0:0:0:0:
230,349,47049,6,0,P|203:301|293:215,1,184,10|2,0:1|0:0,0:0:0:0:
366,188,47477,1,8,0:1:0:0:
232,135,47620,1,2,0:0:0:0:
362,42,47763,2,0,L|368:145,1,92,10|10,0:0|0:0,0:0:0:0:
237,205,48049,2,0,L|132:230,1,92,10|0,0:1|0:0,0:0:0:0:
386,308,48335,5,14,0:0:0:0:
221,353,48620,1,8,0:1:0:0:
190,268,48762,1,2,0:0:0:0:
222,184,48905,1,8,0:0:0:0:
302,141,49048,1,8,0:0:0:0:
433,94,49192,2,0,L|321:65,1,92,8|8,0:1|0:1,0:0:0:0:
113,49,49477,5,10,0:0:0:0:
278,30,49763,2,0,L|282:133,1,92,8|8,0:1|0:0,0:0:0:0:
198,168,50049,2,0,L|290:198,1,92,8|10,0:0|0:0,0:0:0:0:
156,267,50335,2,0,L|60:277,1,92,10|0,0:1|0:0,0:0:0:0:
303,338,50620,6,0,L|406:361,2,92,10|2|8,0:0|0:0|0:1,0:0:0:0:
174,283,51049,1,0,0:0:0:0:
303,231,51192,2,0,L|302:136,1,92,10|8,0:0|0:0,0:0:0:0:
427,105,51477,1,8,0:1:0:0:
218,115,51620,6,0,P|259:71|381:48,1,184,6|2,0:0|0:0,0:0:0:0:
246,78,52049,2,0,L|118:64,1,92,8|2,0:1|0:0,0:0:0:0:
288,151,52335,1,10,0:0:0:0:
157,223,52477,2,0,L|215:250,1,46,8|8,0:0|0:0,0:0:0:0:
365,319,52620,2,0,L|478:320,1,92,8|0,0:1|0:0,0:0:0:0:
182,354,52906,5,14,0:0:0:0:
351,311,53192,1,8,0:1:0:0:
377,224,53334,1,2,0:0:0:0:
343,141,53477,1,8,0:0:0:0:
263,99,53620,1,8,0:0:0:0:
126,51,53763,2,0,L|235:36,1,92,10|0,0:1|0:0,0:0:0:0:
451,49,54049,5,10,0:0:0:0:
267,81,54335,2,0,L|176:96,1,92,8|2,0:1|0:0,0:0:0:0:
268,141,54620,2,0,L|267:243,1,92,8|8,0:0|0:0,0:0:0:0:
401,254,54906,2,0,L|404:352,1,92,8|0,0:1|0:0,0:0:0:0:
200,337,55192,6,0,L|107:362,2,92,10|0|8,0:0|0:0|0:1,0:0:0:0:
330,262,55620,2,0,L|235:232,1,92,2|8,0:0|0:0,0:0:0:0:
149,196,55906,1,8,0:0:0:0:
354,183,56049,2,0,L|250:134,1,92,10|0,0:1|0:0,0:0:0:0:
178,96,56335,1,8,0:0:0:0:
312,70,56477,6,0,L|419:96,2,92,2|8|0,0:0|0:1|0:0,0:0:0:0:
181,31,56906,1,10,0:0:0:0:
313,17,57049,1,0,0:0:0:0:
182,112,57192,2,0,L|67:119,1,92,8|8,0:1|0:1,0:0:0:0:
136,166,57406,1,8,0:1:0:0:
326,248,57477,6,0,L|232:255,1,92,14|2,0:0|0:0,0:0:0:0:
364,353,57763,2,0,L|372:222,1,92,8|2,0:1|0:0,0:0:0:0:
138,217,58049,1,10,0:1:0:0:
250,175,58192,1,0,0:1:0:0:
138,217,58335,1,10,0:1:0:0:
356,122,58477,5,2,0:0:0:0:
244,81,58620,1,10,0:1:0:0:
361,124,58763,1,0,0:0:0:0:
125,187,58906,1,10,0:1:0:0:
217,225,59049,1,0,0:0:0:0:
436,305,59192,1,10,0:1:0:0:
231,270,59335,1,2,0:0:0:0:
332,230,59477,1,8,0:1:0:0:
103,179,59620,1,8,0:0:0:0:
348,101,59763,5,8,0:1:0:0:
145,145,59906,2,0,L|43:132,1,92,10|8,0:0|0:0,0:0:0:0:
273,188,60192,1,8,0:1:0:0:
59,221,60335,2,0,L|48:337,1,92,10|8,0:0|0:0,0:0:0:0:
270,321,60620,1,8,0:1:0:0:
45,272,60763,6,0,L|170:251,1,92,10|8,0:0|0:0,0:0:0:0:
355,238,61049,1,8,0:1:0:0:
141,169,61192,2,0,L|242:150,1,92,8|8,0:1|0:0,0:0:0:0:
448,52,61477,1,8,0:1:0:0:
467,92,61548,1,8,0:1:0:0:
456,135,61619,1,8,0:3:0:0:
418,160,61691,1,8,0:3:0:0:
260,201,61763,2,8,L|202:215,1,46,8|8,0:0|0:0,0:0:0:0:
395,264,61906,2,4,L|439:277,1,46,4|4,0:3|0:3,0:0:0:0:
176,344,62049,5,10,0:0:0:0:
361,252,62477,1,2,0:0:0:0:
176,344,62906,1,2,0:0:0:0:
361,252,63335,1,2,0:0:0:0:
85,191,63763,1,2,0:0:0:0:
288,101,64192,6,0,L|224:93,1,46,0|8,0:0|0:0,0:0:0:0:
75,81,64335,1,8,0:1:0:0:
264,164,64763,2,0,L|320:150,1,46,8|8,0:0|0:0,0:0:0:0:
474,204,64906,2,0,L|395:144,2,92,8|0|10,0:1|0:0|0:0,0:0:0:0:
203,353,65335,6,0,P|152:315|204:210,1,184,6|10,0:0|0:0,0:0:0:0:
394,185,65763,1,8,0:1:0:0:
71,127,65906,1,8,0:1:0:0:
269,68,66192,2,0,L|193:53,1,46,10|0,0:0|0:0,0:0:0:0:
56,42,66335,2,0,L|148:29,1,92,10|0,0:0|0:0,0:0:0:0:
408,37,66620,6,0,L|409:146,1,92,14|0,0:0|0:0,0:0:0:0:
277,148,66906,2,0,L|267:250,1,92,8|0,0:1|0:0,0:0:0:0:
475,306,67192,1,10,0:0:0:0:
376,275,67335,1,10,0:0:0:0:
475,306,67477,1,8,0:1:0:0:
263,347,67620,6,0,P|232:293|317:194,1,184,10|8,0:0|0:0,0:0:0:0:
414,147,68049,2,0,L|314:123,1,92,8|0,0:1|0:0,0:0:0:0:
113,102,68335,2,0,L|217:92,1,92,10|2,0:0|0:0,0:0:0:0:
414,75,68620,1,8,0:1:0:0:
158,30,68763,6,0,L|153:158,1,92,2|8,0:0|0:0,0:0:0:0:
360,152,69049,2,0,L|361:254,1,92,2|8,0:0|0:1,0:0:0:0:
141,315,69335,1,2,0:0:0:0:
245,358,69477,1,10,0:0:0:0:
141,315,69620,1,2,0:0:0:0:
348,258,69763,1,8,0:1:0:0:
91,234,69906,6,0,P|67:173|157:96,1,184,2|0,0:0|0:0,0:0:0:0:
274,69,70335,2,0,L|156:45,1,92,8|2,0:1|0:0,0:0:0:0:
92,36,70620,1,8,0:0:0:0:
318,177,70763,2,0,L|430:168,2,92,2|8|2,0:0|0:1|0:0,0:0:0:0:
95,321,71192,6,0,L|86:166,1,110.399996630859,14|0,0:0|0:0,0:0:0:0:
155,188,71406,2,0,L|252:122,1,110.399996630859,2|0,0:0|0:0,0:0:0:0:
95,99,71620,1,2,0:0:0:0:
310,85,71763,2,0,L|416:44,1,110.399996630859,10|0,0:0|0:0,0:0:0:0:
346,20,71977,2,0,L|336:147,1,110.399996630859,2|0,0:0|0:0,0:0:0:0:
492,194,72192,1,2,0:0:0:0:
270,273,72335,6,0,L|156:309,1,110.399996630859,10|0,0:0|0:0,0:0:0:0:
231,331,72549,2,0,L|366:370,1,110.399996630859,2|0,0:0|0:0,0:0:0:0:
184,366,72763,1,2,0:0:0:0:
405,345,72906,2,0,L|406:229,1,110.399996630859,10|0,0:0|0:0,0:0:0:0:
350,199,73120,2,0,L|241:150,1,110.399996630859,2|0,0:0|0:0,0:0:0:0:
411,157,73335,1,2,0:0:0:0:
142,89,73477,5,14,0:1:0:0:
42,29,73620,2,0,L|39:143,1,110.399996630859,0|8,0:0|0:0,0:0:0:0:
258,207,73906,1,14,0:1:0:0:
147,202,74049,2,0,L|140:318,1,110.399996630859,0|8,0:0|0:0,0:0:0:0:
363,301,74335,2,0,L|244:310,1,110.399996630859,14|0,0:1|0:0,0:0:0:0:
142,312,74620,1,10,0:0:0:0:
366,213,74763,6,0,L|256:166,2,110.399996630859,14|0|8,0:1|0:0|0:0,0:0:0:0:
129,133,75192,2,0,L|246:91,1,92,10|0,0:1|0:0,0:0:0:0:
453,76,75477,2,0,L|327:50,1,92,10|0,0:1|0:0,0:0:0:0:
113,45,75763,6,0,L|101:159,1,92,14|0,0:0|0:0,0:0:0:0:
235,197,76049,2,0,L|328:221,1,92,8|0,0:1|0:0,0:0:0:0:
117,288,76335,1,10,0:0:0:0:
219,326,76477,1,2,0:0:0:0:
120,292,76620,1,8,0:1:0:0:
333,225,76763,6,0,P|354:157|256:83,1,184,10|0,0:0|0:0,0:0:0:0:
158,56,77192,2,0,L|265:33,1,92,8|0,0:1|0:0,0:0:0:0:
451,134,77477,1,10,0:0:0:0:
350,154,77620,1,2,0:0:0:0:
249,180,77763,1,8,0:1:0:0:
472,194,77906,6,0,L|472:299,1,92,2|8,0:0|0:0,0:0:0:0:
259,322,78192,2,0,L|352:338,2,92,2|10|2,0:0|0:1|0:0,0:0:0:0:
461,252,78620,2,0,L|340:214,1,92,10|2,0:0|0:0,0:0:0:0:
158,183,78906,1,8,0:1:0:0:
392,53,79049,6,0,P|429:104|364:198,1,184,2|0,0:0|0:0,0:0:0:0:
238,271,79477,2,0,L|343:323,1,92,8|2,0:1|0:0,0:0:0:0:
413,341,79763,1,8,0:0:0:0:
177,297,79906,2,0,L|83:318,2,92,2|8|2,0:0|0:1|0:0,0:0:0:0:
405,69,80335,6,0,L|414:185,1,110.399996630859,14|0,0:0|0:0,0:0:0:0:
346,179,80549,2,0,L|337:298,1,110.399996630859,2|0,0:0|0:0,0:0:0:0:
487,328,80763,1,2,0:0:0:0:
257,326,80906,2,0,L|126:285,1,110.399996630859,10|0,0:0|0:0,0:0:0:0:
220,257,81120,2,0,L|227:111,1,110.399996630859,2|0,0:0|0:0,0:0:0:0:
76,145,81335,1,2,0:0:0:0:
330,119,81477,6,0,L|435:68,1,110.399996630859,14|8,0:1|0:0,0:0:0:0:
204,84,81763,2,0,L|93:45,1,110.399996630859,10|8,0:1|0:0,0:0:0:0:
355,175,82049,1,10,0:1:0:0:
244,206,82192,1,8,0:0:0:0:
133,239,82335,1,10,0:1:0:0:
409,350,82477,6,0,P|446:278|329:185,1,220.799993261719,14|0,0:0|0:0,0:0:0:0:
281,165,82906,1,8,0:1:0:0:
411,30,83049,2,0,L|418:145,1,92,2|8,0:0|0:0,0:0:0:0:
285,182,83335,2,0,L|378:213,1,92,2|8,0:0|0:1,0:0:0:0:
170,318,83620,6,0,P|100:300|138:211,1,184,2|2,0:0|0:0,0:0:0:0:
221,184,84049,1,8,0:1:0:0:
93,140,84192,2,0,L|82:21,1,92,2|0,0:0|0:0,0:0:0:0:
292,82,84477,2,0,L|173:98,1,92,2|8,0:0|0:1,0:0:0:0:
108,110,84763,1,2,0:0:0:0:
344,185,84906,5,8,0:3:0:0:
231,242,85049,2,8,L|291:258,1,46,8|10,0:3|0:0,0:0:0:0:
443,235,85192,1,8,0:0:0:0:
464,274,85263,1,0,0:0:0:0:
449,316,85334,1,10,0:0:0:0:
408,333,85406,1,8,0:0:0:0:
261,292,85477,2,0,L|350:260,1,92,10|8,0:0|0:0,0:0:0:0:
214,191,85763,2,0,L|162:203,2,46,8|8|10,0:0|0:0|0:0,0:0:0:0:
427,131,86049,5,10,0:1:0:0:
116,79,86192,1,8,0:1:0:0:
335,43,86620,2,0,P|389:83|317:167,1,184,2|2,0:1|0:1,0:0:0:0:
116,252,87049,6,0,L|305:289,1,184,6|2,0:0|0:0,0:0:0:0:
167,344,87477,2,0,L|159:234,1,92,8|2,0:1|0:0,0:0:0:0:
293,192,87763,2,0,L|392:209,2,92,8|2|8,0:0|0:0|0:1,0:0:0:0:
87,72,88192,6,0,P|60:135|148:213,1,184,2|2,0:0|0:0,0:0:0:0:
260,223,88620,2,0,L|265:337,1,92,8|2,0:1|0:0,0:0:0:0:
128,336,88906,2,0,L|226:299,2,92,10|10|8,0:0|0:0|0:1,0:0:0:0:
353,353,89335,6,0,P|393:305|310:217,1,184,14|2,0:0|0:0,0:0:0:0:
201,187,89763,2,0,L|193:87,1,92,8|2,0:1|0:0,0:0:0:0:
328,50,90049,2,0,L|233:38,1,92,10|2,0:0|0:0,0:0:0:0:
144,33,90335,1,8,0:1:0:0:
376,109,90477,6,0,P|394:159|291:242,1,184,6|2,0:0|0:0,0:0:0:0:
200,290,90906,2,0,L|303:306,1,92,8|2,0:1|0:0,0:0:0:0:
170,350,91192,2,0,L|162:217,1,92,10|2,0:0|0:0,0:0:0:0:
297,220,91477,1,8,0:1:0:0:
168,178,91620,1,2,0:0:0:0:
377,135,91763,6,0,L|387:27,1,92,14|0,0:0|0:0,0:0:0:0:
256,31,92049,2,0,L|252:135,1,92,8|0,0:1|0:0,0:0:0:0:
383,195,92335,2,0,L|476:237,2,92,10|2|8,0:0|0:0|0:1,0:0:0:0:
175,303,92763,6,0,L|384:302,1,184,2|2,0:0|0:0,0:0:0:0:
227,348,93192,2,0,L|220:235,1,92,8|0,0:1|0:0,0:0:0:0:
351,206,93477,2,0,L|219:192,1,92,8|2,0:0|0:0,0:0:0:0:
167,182,93763,1,8,0:1:0:0:
388,45,93906,6,0,P|421:89|336:167,1,184,6|2,0:0|0:0,0:0:0:0:
235,236,94335,2,0,L|331:248,1,92,8|10,0:1|0:0,0:0:0:0:
115,342,94620,1,10,0:1:0:0:
216,350,94763,1,10,0:1:0:0:
115,342,94906,1,8,0:0:0:0:
340,281,95049,6,0,P|389:248|334:185,1,138,6|0,0:0|0:0,0:0:0:0:
185,153,95335,2,0,L|130:150,1,46,8|8,0:3|0:3,0:0:0:0:
294,113,95477,1,2,3:2:0:0:
319,76,95548,1,0,3:0:0:0:
311,32,95619,1,8,3:2:0:0:
273,8,95691,1,0,3:0:0:0:
119,53,95763,1,8,3:1:0:0:
212,72,95906,1,8,3:1:0:0:
418,126,96049,1,8,3:1:0:0:
123,202,96192,1,2,0:0:0:0:
292,85,96477,5,2,0:0:0:0:
319,171,96619,1,2,0:0:0:0:
296,259,96762,1,2,0:0:0:0:
230,321,96905,1,2,0:0:0:0:
141,339,97048,1,2,0:0:0:0:
290,320,97192,2,8,L|340:324,1,46,8|8,0:0|0:0,0:0:0:0:
90,274,97335,6,0,P|56:222|116:130,1,184,8|8,0:1|0:1,0:0:0:0:
363,45,97763,6,0,L|363:298,1,220.8,10|0,0:1|0:0,0:0:0:0:
