osu file format v14

[General]
AudioFilename: audio.mp3
AudioLeadIn: 0
PreviewTime: 66178
Countdown: 0
SampleSet: Soft
StackLeniency: 0.7
Mode: 2
LetterboxInBreaks: 0
WidescreenStoryboard: 1

[Editor]
DistanceSpacing: 1.4
BeatDivisor: 4
GridSize: 8
TimelineZoom: 2.699999

[Metadata]
Title:Sacrifice (Short Ver.)
TitleUnicode:Sacrifice (Short Ver.)
Artist:Ouse Akira
ArtistUnicode:逢瀬アキラ
Creator:-Luminate
Version:Rain
Source:ふゆから​、くるる。
Tags:ふゆくる シルキーズプラス silky's plus galgame eroge visual novel opening rock japanese Fuyukara Kururu Fuyukuru video game rustyy -Rustyy bighzonda bigh
BeatmapID:3347093
BeatmapSetID:1639425

[Difficulty]
HPDrainRate:6
CircleSize:4
OverallDifficulty:9
ApproachRate:9
SliderMultiplier:1.6
SliderTickRate:2

[Events]
//Background and Video events
0,0,"bg.jpg",0,0
//Break Periods
//Storyboard Layer 0 (Background)
//Storyboard Layer 1 (Fail)
//Storyboard Layer 2 (Pass)
//Storyboard Layer 3 (Foreground)
//Storyboard Layer 4 (Overlay)
//Storyboard Sound Samples

[TimingPoints]
335,285.714285714286,4,2,1,10,1,0
906,-100,4,2,1,20,0,0
1477,-100,4,2,1,30,0,0
2620,-100,4,2,1,40,0,0
3763,-100,4,2,1,50,0,0
4906,-100,4,2,1,65,0,0
11763,-125,4,2,1,50,0,0
11835,-125,4,2,1,25,0,0
14049,-125,4,2,1,50,0,0
14121,-125,4,2,1,25,0,0
15192,-125,4,2,1,65,0,0
16192,-100,4,2,1,75,0,0
25477,-100,4,2,1,40,0,0
33620,-100,4,2,1,48,0,0
34620,-100,4,2,1,60,0,0
57477,-100,4,2,1,65,0,0
59763,-100,4,2,1,75,0,0
62049,-71.4285714285714,4,2,1,30,0,0
62906,-83.3333333333333,4,2,1,30,0,0
63763,-100,4,2,1,30,0,0
64239,-100,4,2,1,55,0,0
65335,-100,4,2,1,70,0,0
66620,-100,4,2,1,85,0,1
71192,-83.3333333333333,4,2,1,85,0,1
75192,-100,4,2,1,85,0,1
80335,-83.3333333333333,4,2,1,85,0,1
83049,-100,4,2,1,85,0,1
86049,-100,4,2,1,77,0,0
87049,-100,4,2,1,75,0,0
96477,-100,4,2,1,65,0,0
97763,-125,4,2,1,50,0,0
97811,-125,4,2,1,25,0,0

[Colours]
Combo1 : 230,0,230
Combo2 : 192,192,192
Combo3 : 81,81,255
Combo4 : 181,126,113

[HitObjects]
256,192,335,12,0,4192,0:0:0:0:
280,296,4334,5,2,0:0:0:0:
296,176,4477,1,2,0:0:0:0:
168,192,4620,1,2,0:0:0:0:
160,80,4763,1,2,0:0:0:0:
424,352,4906,6,0,B|504:304|512:56|256:280|360:144|272:0|480:8|480:112,1,480,4|0,0:0|0:0,0:0:0:0:
224,344,5906,6,0,P|136:272|264:48,1,400,4|2,0:0|0:0,0:0:0:0:
352,48,6763,1,2,0:0:0:0:
360,160,6906,1,8,0:1:0:0:
64,304,7049,6,0,L|48:112,1,160,14|2,0:0|0:0,0:0:0:0:
160,184,7477,2,0,L|168:80,1,80,2|0,0:0|0:0,0:0:0:0:
384,144,7763,1,8,0:1:0:0:
480,88,7906,1,8,0:3:0:0:
384,56,8049,1,8,0:0:0:0:
160,336,8192,6,0,P|120:264|176:208,1,160,14|8,0:0|0:1,0:0:0:0:
288,208,8620,1,8,0:0:0:0:
248,200,8692,1,8,0:0:0:0:
208,192,8763,1,8,0:0:0:0:
64,168,9049,1,8,0:0:0:0:
40,96,9192,1,10,0:1:0:0:
64,40,9335,1,2,0:0:0:0:
296,336,9477,5,14,0:2:0:0:
336,312,9548,1,0,3:0:0:0:
336,256,9619,1,0,3:0:0:0:
296,240,9691,1,0,3:0:0:0:
256,224,9763,1,8,3:2:0:0:
256,168,9835,1,0,3:2:0:0:
312,152,9906,2,0,L|312:96,1,40,2|0,3:2|3:0,0:0:0:0:
160,336,10049,1,10,3:2:0:0:
125,317,10120,1,0,3:0:0:0:
99,286,10191,1,0,3:0:0:0:
86,248,10263,1,0,3:0:0:0:
88,209,10334,1,8,3:2:0:0:
105,173,10406,1,0,3:0:0:0:
133,145,10477,1,2,3:2:0:0:
170,130,10548,1,0,3:0:0:0:
312,336,10620,6,0,L|328:264,3,40,10|0|0|0,3:2|3:0|3:0|3:0,0:0:0:0:
264,288,10906,2,0,L|256:224,1,40,10|0,3:2|3:0,0:0:0:0:
320,224,11049,2,0,L|328:160,1,40,2|0,3:2|3:0,0:0:0:0:
176,184,11192,1,10,3:2:0:0:
153,151,11263,1,0,3:0:0:0:
157,112,11334,1,2,3:2:0:0:
185,85,11406,1,0,3:0:0:0:
240,80,11477,2,0,L|296:80,1,40,10|0,3:2|3:0,0:0:0:0:
440,184,11620,2,0,L|392:184,1,40,2|0,3:2|3:0,0:0:0:0:
264,288,11763,5,14,0:0:0:0:
256,192,11906,12,0,13906,0:0:0:0:
296,368,14049,6,0,P|184:280|320:56,1,448,2|0,0:0|0:0,0:0:0:0:
440,64,15192,5,8,0:1:0:0:
472,104,15263,1,8,0:1:0:0:
480,160,15335,1,8,0:0:0:0:
472,208,15406,1,8,0:0:0:0:
432,240,15477,1,8,0:0:0:0:
320,240,15620,1,8,0:0:0:0:
64,208,15763,1,8,3:1:0:0:
160,136,15906,1,8,3:1:0:0:
64,88,16049,1,8,3:1:0:0:
320,240,16192,6,0,P|360:184|296:112,1,160,14|2,0:0|0:0,0:0:0:0:
64,88,16620,2,0,L|168:88,1,80,8|2,0:1|0:0,0:0:0:0:
368,168,16906,2,0,L|376:56,1,80,8|2,0:0|0:0,0:0:0:0:
296,88,17192,1,8,0:1:0:0:
96,304,17335,6,0,P|112:216|200:184,1,160,2|2,0:0|0:0,0:0:0:0:
416,184,17763,2,0,L|312:184,1,80,8|2,0:1|0:0,0:0:0:0:
128,112,18049,2,0,L|240:112,1,80,10|8,0:0|0:0,0:0:0:0:
296,112,18335,1,8,0:1:0:0:
72,336,18477,6,0,P|32:288|96:208,1,160,4|2,0:0|0:0,0:0:0:0:
200,184,18906,1,8,0:1:0:0:
256,128,19049,1,2,0:0:0:0:
200,88,19192,1,8,0:0:0:0:
72,160,19335,2,0,L|64:56,1,80,2|8,0:0|0:1,0:0:0:0:
304,352,19620,6,0,P|392:320|416:232,1,160,6|2,0:0|0:0,0:0:0:0:
192,224,20049,1,8,0:1:0:0:
112,184,20192,1,2,0:0:0:0:
192,144,20335,1,10,0:0:0:0:
416,96,20477,2,0,L|464:96,2,40,2|2|8,0:0|0:0|0:1,0:0:0:0:
304,96,20763,1,2,0:0:0:0:
72,304,20906,6,0,L|184:304,1,80,14|0,0:0|0:0,0:0:0:0:
416,208,21192,2,0,L|304:208,1,80,8|2,0:1|0:0,0:0:0:0:
424,144,21477,2,0,L|432:56,1,80,8|2,0:0|0:0,0:0:0:0:
336,64,21763,1,8,0:1:0:0:
112,320,21906,6,0,P|72:272|136:192,1,160,2|2,0:0|0:0,0:0:0:0:
376,200,22335,2,0,L|384:120,1,80,8|2,0:1|0:0,0:0:0:0:
240,136,22620,2,0,L|232:40,1,80,8|2,0:0|0:0,0:0:0:0:
320,56,22906,1,8,0:1:0:0:
64,328,23049,6,0,P|88:224|160:208,1,160,6|2,0:0|0:0,0:0:0:0:
344,176,23477,2,0,L|448:168,1,80,8|2,0:1|0:0,0:0:0:0:
312,96,23763,2,0,L|208:88,1,80,8|2,0:0|0:0,0:0:0:0:
128,80,24049,1,8,0:1:0:0:
352,344,24192,6,0,P|392:256|336:216,1,160,6|8,0:0|0:1,0:0:0:0:
104,200,24620,1,8,0:1:0:0:
96,88,24763,1,2,0:0:0:0:
320,240,25049,2,0,L|336:48,1,160,10|0,0:1|0:0,0:0:0:0:
192,80,25477,6,0,L|64:208,2,160,10|10|10,0:0|0:0|0:0,0:0:0:0:
400,328,26477,6,0,P|424:232|384:160,1,160,2|2,0:0|0:0,0:0:0:0:
296,184,26906,1,10,0:0:0:0:
368,128,27049,1,2,0:0:0:0:
376,48,27192,1,10,0:0:0:0:
368,128,27335,1,2,0:0:0:0:
296,184,27477,1,10,0:0:0:0:
56,184,27763,6,0,L|176:304,2,160,8|10|10,0:0|0:0|0:0,0:0:0:0:
264,344,28763,2,0,L|232:160,1,160,2|2,0:0|0:0,0:0:0:0:
344,184,29192,5,10,0:0:0:0:
352,88,29335,1,2,0:0:0:0:
248,120,29477,1,10,0:0:0:0:
256,32,29620,1,2,0:0:0:0:
408,32,29763,1,10,0:0:0:0:
216,344,30049,6,0,L|80:216,2,160,10|10|8,0:0|0:0|0:0,0:0:0:0:
432,336,31049,2,0,P|432:256|360:184,1,160,2|2,0:0|0:0,0:0:0:0:
288,216,31477,6,0,L|280:120,1,80,10|2,0:0|0:0,0:0:0:0:
400,136,31763,1,10,0:0:0:0:
456,104,31906,1,2,0:0:0:0:
456,32,32049,1,10,0:0:0:0:
400,16,32192,1,2,0:0:0:0:
240,344,32335,6,0,P|168:304|160:224,1,160,10|8,0:0|0:0,0:0:0:0:
232,224,32763,2,0,P|272:160|224:88,1,160,2|0,0:0|0:0,0:0:0:0:
104,176,33192,2,0,P|80:128|136:32,1,160,10|8,0:0|0:0,0:0:0:0:
248,336,33620,2,0,L|256:232,1,80,8|8,0:1|0:1,0:0:0:0:
128,304,33906,6,0,L|120:200,1,80,8|8,0:0|0:1,0:0:0:0:
328,216,34192,2,0,P|368:144|312:88,1,160,10|8,0:0|0:1,0:0:0:0:
272,88,34549,1,8,0:1:0:0:
128,88,34620,6,0,L|120:280,1,160,14|8,0:0|0:1,0:0:0:0:
320,336,35192,2,0,L|136:304,1,160,10|8,0:0|0:1,0:0:0:0:
256,280,35620,2,0,P|296:200|232:136,1,160,2|2,0:0|0:0,0:0:0:0:
144,176,36049,6,0,L|136:80,1,80,8|2,0:1|0:0,0:0:0:0:
264,152,36335,2,0,L|272:48,1,80,10|2,0:0|0:0,0:0:0:0:
128,56,36620,2,0,L|224:56,1,80,8|0,0:1|0:0,0:0:0:0:
424,280,36906,6,0,L|440:88,1,160,8|10,0:0|0:1,0:0:0:0:
208,336,37477,2,0,L|200:144,1,160,10|8,0:0|0:1,0:0:0:0:
296,120,37906,2,0,L|120:88,1,160,2|2,0:0|0:0,0:0:0:0:
208,136,38335,5,8,0:1:0:0:
232,208,38477,1,2,0:0:0:0:
208,280,38620,1,10,0:0:0:0:
160,320,38763,1,2,0:0:0:0:
40,328,38906,2,0,L|136:328,1,80,8|0,0:1|0:0,0:0:0:0:
344,328,39192,6,0,L|216:200,2,160,8|10|10,0:0|0:1|0:0,0:0:0:0:
200,336,39906,2,0,L|192:224,1,80,2|8,0:0|0:1,0:0:0:0:
352,256,40192,2,0,L|368:64,1,160,2|0,0:0|0:0,0:0:0:0:
216,64,40620,6,0,L|328:64,1,80,10|0,0:1|0:0,0:0:0:0:
408,144,40906,2,0,L|320:144,1,80,10|0,0:0|0:0,0:0:0:0:
208,184,41192,2,0,L|296:184,1,80,10|0,0:1|0:0,0:0:0:0:
496,248,41477,6,0,L|312:248,1,160,10|8,0:0|0:1,0:0:0:0:
216,248,41906,2,0,L|312:248,2,80,2|8|0,0:0|0:0|0:0,0:0:0:0:
80,248,42335,2,0,P|48:192|104:104,1,160,10|10,0:1|0:0,0:0:0:0:
320,112,42763,5,10,0:1:0:0:
360,200,42906,1,8,0:1:0:0:
152,288,43192,2,0,L|56:288,1,80,10|0,0:1|0:0,0:0:0:0:
176,344,43477,2,0,L|272:344,1,80,10|8,0:0|0:0,0:0:0:0:
296,344,43692,1,8,0:0:0:0:
440,344,43763,6,0,L|448:232,1,80,10|0,0:0|0:0,0:0:0:0:
352,248,44049,1,8,0:1:0:0:
296,200,44192,1,0,0:0:0:0:
296,128,44335,1,8,0:0:0:0:
352,80,44477,1,8,0:0:0:0:
472,56,44620,2,0,L|368:56,1,80,8|8,0:1|0:1,0:0:0:0:
168,176,44906,6,0,L|344:176,1,160,10|8,0:0|0:1,0:0:0:0:
360,248,45335,1,2,0:0:0:0:
328,320,45477,1,8,0:0:0:0:
256,336,45620,1,8,0:0:0:0:
360,248,45763,2,0,L|368:136,1,80,8|0,0:1|0:0,0:0:0:0:
128,320,46049,6,0,P|88:264|152:184,1,160,10|8,0:0|0:1,0:0:0:0:
216,152,46477,1,2,0:0:0:0:
64,128,46620,2,0,L|56:40,1,80,10|10,0:0|0:0,0:0:0:0:
272,112,47049,6,0,L|120:56,1,160,10|2,0:1|0:0,0:0:0:0:
328,320,47620,1,2,0:0:0:0:
240,280,47763,1,10,0:0:0:0:
328,240,47906,1,10,0:0:0:0:
104,232,48049,1,10,0:1:0:0:
280,232,48335,6,0,P|352:192|368:104,1,160,14|8,0:0|0:1,0:0:0:0:
280,232,48763,1,2,0:0:0:0:
200,208,48906,1,8,0:0:0:0:
200,128,49049,1,8,0:0:0:0:
328,128,49192,2,0,L|336:32,1,80,8|8,0:1|0:1,0:0:0:0:
104,336,49477,6,0,L|96:160,1,160,10|8,0:0|0:1,0:0:0:0:
184,144,49906,1,8,0:0:0:0:
192,56,50049,1,8,0:0:0:0:
104,32,50192,1,10,0:0:0:0:
344,320,50335,2,0,L|352:240,1,80,10|0,0:1|0:0,0:0:0:0:
120,232,50620,6,0,L|112:120,1,80,10|2,0:0|0:0,0:0:0:0:
232,136,50906,2,0,L|144:128,1,80,8|0,0:1|0:0,0:0:0:0:
32,112,51192,2,0,L|136:88,2,80,10|8|8,0:0|0:0|0:1,0:0:0:0:
240,336,51620,6,0,P|336:288|352:216,1,160,6|2,0:0|0:0,0:0:0:0:
464,216,52049,2,0,L|456:104,1,80,8|2,0:1|0:0,0:0:0:0:
352,112,52335,1,10,0:0:0:0:
456,64,52477,1,8,0:0:0:0:
184,56,52620,1,8,0:1:0:0:
360,48,52906,6,0,P|400:104|336:192,1,160,14|8,0:0|0:1,0:0:0:0:
256,344,53335,1,2,0:0:0:0:
200,304,53477,1,8,0:0:0:0:
256,248,53620,1,8,0:0:0:0:
400,256,53763,2,0,L|408:144,1,80,10|0,0:1|0:0,0:0:0:0:
192,216,54049,6,0,L|200:40,1,160,10|8,0:0|0:1,0:0:0:0:
112,56,54477,1,2,0:0:0:0:
48,112,54620,1,8,0:0:0:0:
48,192,54763,1,8,0:0:0:0:
112,256,54906,2,0,L|208:248,1,80,8|0,0:1|0:0,0:0:0:0:
408,336,55192,6,0,P|440:272|392:200,1,160,10|8,0:0|0:1,0:0:0:0:
256,208,55620,2,0,P|232:152|312:80,1,160,2|8,0:0|0:0,0:0:0:0:
432,200,56049,2,0,P|424:128|344:88,1,160,10|8,0:1|0:0,0:0:0:0:
232,88,56477,5,2,0:0:0:0:
352,87,56620,2,0,L|360:183,1,80,8|0,0:1|0:0,0:0:0:0:
200,280,56906,2,0,L|192:192,1,80,10|0,0:0|0:0,0:0:0:0:
400,184,57192,2,0,L|408:288,1,80,8|8,0:1|0:1,0:0:0:0:
352,272,57406,1,8,0:1:0:0:
184,336,57477,5,14,0:0:0:0:
88,280,57620,1,2,0:0:0:0:
184,224,57763,1,8,0:1:0:0:
88,168,57906,1,2,0:0:0:0:
320,160,58049,2,0,L|328:64,1,80,10|0,0:1|0:1,0:0:0:0:
88,168,58335,2,0,L|80:88,1,80,10|2,0:1|0:0,0:0:0:0:
320,264,58620,6,0,L|432:264,1,80,10|0,0:1|0:0,0:0:0:0:
176,320,58906,2,0,L|80:320,1,80,10|0,0:1|0:0,0:0:0:0:
320,264,59192,1,10,0:1:0:0:
432,264,59335,2,0,P|464:224|416:128,1,160,2|8,0:0|0:0,0:0:0:0:
368,136,59692,1,8,0:0:0:0:
200,136,59763,5,8,0:1:0:0:
200,136,59906,1,10,0:0:0:0:
312,136,60049,2,0,L|376:136,1,40,8|8,0:0|0:0,0:0:0:0:
200,272,60192,1,8,0:1:0:0:
200,272,60335,1,10,0:0:0:0:
320,272,60477,2,0,L|384:272,1,40,8|8,0:0|0:0,0:0:0:0:
200,272,60620,1,8,0:1:0:0:
96,272,60763,1,10,0:0:0:0:
192,336,60906,6,0,L|248:336,1,40,8|8,0:0|0:0,0:0:0:0:
376,272,61049,1,8,0:1:0:0:
472,240,61192,1,8,0:1:0:0:
376,232,61335,2,0,L|320:232,1,40,8|8,0:0|0:0,0:0:0:0:
144,232,61477,1,8,0:1:0:0:
112,208,61548,1,8,0:1:0:0:
113,164,61619,1,8,0:3:0:0:
144,136,61691,1,8,0:3:0:0:
184,128,61763,1,8,0:0:0:0:
208,112,61835,1,8,0:0:0:0:
208,64,61906,1,4,0:3:0:0:
184,40,61977,1,4,0:3:0:0:
120,40,62049,6,0,P|48:240|144:360,3,335.999989746094,10|2|2|2,0:0|0:0|0:0|0:0,0:0:0:0:
360,336,63763,2,0,P|400:256|344:104,1,240,2|0,0:0|0:0,0:0:0:0:
120,264,64335,6,0,L|112:160,1,80,8|0,0:1|0:0,0:0:0:0:
312,176,64763,1,8,0:0:0:0:
192,128,64906,2,0,L|272:80,2,80,8|0|10,0:1|0:0|0:0,0:0:0:0:
432,312,65335,6,0,L|440:128,1,160,6|10,0:0|0:0,0:0:0:0:
152,128,65763,1,8,0:1:0:0:
48,120,65906,1,8,0:1:0:0:
264,240,66192,1,10,0:0:0:0:
48,120,66335,2,0,L|40:24,1,80,10|0,0:0|0:0,0:0:0:0:
264,240,66620,6,0,L|368:240,1,80,14|0,0:0|0:0,0:0:0:0:
232,336,66906,2,0,L|144:336,1,80,8|0,0:1|0:0,0:0:0:0:
400,336,67192,1,10,0:0:0:0:
488,248,67335,2,0,L|496:136,1,80,10|8,0:0|0:1,0:0:0:0:
232,232,67620,6,0,P|200:152|248:112,1,160,10|8,0:0|0:0,0:0:0:0:
368,104,68049,2,0,L|256:104,1,80,8|0,0:1|0:0,0:0:0:0:
64,104,68335,1,10,0:0:0:0:
168,144,68477,1,2,0:0:0:0:
280,184,68620,1,8,0:1:0:0:
56,296,68763,6,0,L|48:192,1,80,2|8,0:0|0:0,0:0:0:0:
288,200,69049,2,0,L|296:96,1,80,2|8,0:0|0:1,0:0:0:0:
176,104,69335,1,2,0:0:0:0:
296,72,69477,1,10,0:0:0:0:
80,240,69620,2,0,L|90:336,1,80,2|8,0:0|0:1,0:0:0:0:
360,312,69906,6,0,P|392:216|352:176,1,160,2|0,0:0|0:0,0:0:0:0:
232,168,70335,2,0,L|408:136,1,160,8|8,0:1|0:0,0:0:0:0:
272,256,70763,1,2,0:0:0:0:
392,320,70906,2,0,L|392:224,1,80,8|2,0:1|0:0,0:0:0:0:
168,240,71192,5,14,0:0:0:0:
296,224,71406,2,0,L|304:48,1,143.999995605469,2|2,0:0|0:0,0:0:0:0:
72,40,71763,1,10,0:0:0:0:
176,128,71977,2,0,L|56:240,1,143.999995605469,2|2,0:0|0:0,0:0:0:0:
304,128,72335,5,10,0:0:0:0:
176,128,72549,2,0,L|168:288,1,143.999995605469,2|2,0:0|0:0,0:0:0:0:
376,336,72906,2,0,L|232:248,2,143.999995605469,10|2|2,0:0|0:0|0:0,0:0:0:0:
120,344,73477,5,14,0:1:0:0:
32,288,73620,1,0,0:0:0:0:
120,240,73763,1,8,0:0:0:0:
376,232,73906,1,14,0:1:0:0:
472,176,74049,1,0,0:0:0:0:
376,128,74192,1,8,0:0:0:0:
120,152,74335,1,14,0:1:0:0:
112,72,74477,1,0,0:0:0:0:
200,48,74620,1,10,0:0:0:0:
448,48,74763,5,14,0:1:0:0:
448,144,74906,1,0,0:0:0:0:
360,152,75049,1,8,0:0:0:0:
120,168,75192,1,10,0:1:0:0:
376,216,75477,1,10,0:1:0:0:
120,336,75763,6,0,L|8:336,1,80,14|0,0:0|0:0,0:0:0:0:
144,248,76049,2,0,L|240:248,1,80,8|0,0:1|0:0,0:0:0:0:
328,248,76335,1,10,0:0:0:0:
96,184,76477,2,0,L|88:72,1,80,2|8,0:0|0:1,0:0:0:0:
352,72,76763,6,0,P|400:136|328:192,1,160,10|0,0:0|0:0,0:0:0:0:
240,248,77192,2,0,L|416:248,1,160,8|10,0:1|0:0,0:0:0:0:
336,248,77620,1,2,0:0:0:0:
88,256,77763,1,8,0:1:0:0:
195,248,77906,6,0,P|259:216|275:120,1,160,2|2,0:0|0:0,0:0:0:0:
152,144,78335,2,0,L|144:40,1,80,10|2,0:1|0:0,0:0:0:0:
280,136,78620,2,0,L|376:136,1,80,10|2,0:0|0:0,0:0:0:0:
280,64,78906,1,8,0:1:0:0:
40,344,79049,6,0,P|80:248|144:224,1,160,2|0,0:0|0:0,0:0:0:0:
240,232,79477,2,0,L|64:160,1,160,8|8,0:1|0:0,0:0:0:0:
232,104,79906,1,2,0:0:0:0:
304,56,80049,1,8,0:1:0:0:
232,24,80192,1,2,0:0:0:0:
440,344,80335,6,0,L|296:224,2,143.999995605469,14|2|2,0:0|0:0|0:0,0:0:0:0:
200,168,80906,2,0,L|336:280,2,143.999995605469,10|2|2,0:0|0:0|0:0,0:0:0:0:
424,344,81477,5,14,0:1:0:0:
440,248,81620,1,8,0:0:0:0:
216,240,81763,1,10,0:1:0:0:
112,208,81906,1,8,0:0:0:0:
352,184,82049,1,10,0:1:0:0:
448,128,82192,1,8,0:0:0:0:
352,88,82335,1,10,0:1:0:0:
94,343,82477,6,0,P|38:279|110:207,1,191.999994140625,14|0,0:0|0:0,0:0:0:0:
224,208,82906,2,0,L|232:104,1,95.9999970703126,8|2,0:1|0:0,0:0:0:0:
96,208,83192,2,0,L|88:96,1,80,8|2,0:0|0:0,0:0:0:0:
224,112,83477,1,8,0:1:0:0:
280,56,83620,1,2,0:0:0:0:
152,40,83763,5,8,0:0:0:0:
90,128,83906,1,2,0:0:0:0:
112,248,84049,1,8,0:1:0:0:
216,320,84192,2,0,L|32:304,1,160,2|2,0:0|0:0,0:0:0:0:
288,232,84620,2,0,L|400:224,1,80,8|2,0:1|0:0,0:0:0:0:
144,184,84906,6,0,L|136:72,1,80,8|8,0:3|0:3,0:0:0:0:
200,96,85120,2,0,L|200:48,1,40,10|8,0:0|0:0,0:0:0:0:
104,56,85335,1,10,0:0:0:0:
224,192,85477,2,0,L|104:288,2,120,10|10|10,0:0|0:0|0:0,0:0:0:0:
440,272,86049,5,10,0:1:0:0:
336,232,86192,1,8,0:1:0:0:
136,192,86335,1,2,0:0:0:0:
240,160,86477,1,0,0:0:0:0:
464,144,86620,1,2,0:1:0:0:
352,112,86763,1,0,0:0:0:0:
464,88,86906,1,2,0:1:0:0:
208,240,87049,6,0,P|168:184|232:112,1,160,6|2,0:0|0:0,0:0:0:0:
464,88,87477,2,0,L|360:88,1,80,8|2,0:1|0:0,0:0:0:0:
160,168,87763,2,0,L|152:56,1,80,8|2,0:0|0:0,0:0:0:0:
232,88,88049,1,8,0:1:0:0:
432,304,88192,6,0,P|416:216|328:184,1,160,2|2,0:0|0:0,0:0:0:0:
112,184,88620,2,0,L|216:184,1,80,8|2,0:1|0:0,0:0:0:0:
400,112,88906,2,0,L|288:112,1,80,10|10,0:0|0:0,0:0:0:0:
232,112,89192,1,8,0:1:0:0:
456,336,89334,6,0,P|496:288|432:208,1,160,14|2,0:0|0:0,0:0:0:0:
328,184,89763,1,8,0:1:0:0:
272,128,89906,1,2,0:0:0:0:
328,88,90049,1,10,0:0:0:0:
456,160,90192,2,0,L|464:56,1,80,2|8,0:0|0:1,0:0:0:0:
224,352,90477,6,0,P|136:320|112:232,1,160,6|2,0:0|0:0,0:0:0:0:
336,224,90906,1,8,0:1:0:0:
240,168,91049,1,2,0:0:0:0:
336,144,91192,1,10,0:0:0:0:
112,96,91334,2,0,L|64:96,2,40,2|2|8,0:0|0:0|0:1,0:0:0:0:
224,96,91620,1,2,0:0:0:0:
456,304,91763,6,0,L|344:304,1,80,14|0,0:0|0:0,0:0:0:0:
112,208,92049,2,0,L|224:208,1,80,8|0,0:1|0:0,0:0:0:0:
104,144,92334,2,0,L|96:56,1,80,10|2,0:0|0:0,0:0:0:0:
192,64,92620,1,8,0:1:0:0:
416,320,92763,6,0,P|456:272|392:192,1,160,2|2,0:0|0:0,0:0:0:0:
152,200,93192,2,0,L|144:120,1,80,8|0,0:1|0:0,0:0:0:0:
288,136,93477,2,0,L|296:40,1,80,8|2,0:0|0:0,0:0:0:0:
208,56,93763,1,8,0:1:0:0:
464,328,93906,6,0,P|440:224|368:208,1,160,6|2,0:0|0:0,0:0:0:0:
184,176,94334,2,0,L|80:168,1,80,8|10,0:1|0:0,0:0:0:0:
248,88,94620,2,0,L|352:80,1,80,10|10,0:1|0:1,0:0:0:0:
400,80,94906,1,8,0:0:0:0:
176,344,95049,6,0,P|136:256|192:216,1,160,6|8,0:0|0:3,0:0:0:0:
272,200,95477,1,2,3:2:0:0:
280,112,95620,1,8,3:2:0:0:
64,128,95763,1,8,3:1:0:0:
152,88,95906,1,8,3:1:0:0:
64,56,96049,1,8,3:1:0:0:
280,56,96192,1,2,0:0:0:0:
64,336,96477,5,2,0:0:0:0:
48,256,96620,1,2,0:0:0:0:
72,176,96763,1,2,0:0:0:0:
144,128,96906,1,2,0:0:0:0:
224,104,97049,1,2,0:0:0:0:
144,80,97192,1,8,0:0:0:0:
376,80,97335,1,8,0:1:0:0:
256,312,97620,5,8,0:1:0:0:
472,312,97763,2,0,L|472:120,1,192,10|0,0:1|0:0,0:0:0:0:
