osu file format v14

[General]
AudioFilename: audio.mp3
AudioLeadIn: 0
PreviewTime: 66178
Countdown: 0
SampleSet: Soft
StackLeniency: 0.7
Mode: 2
LetterboxInBreaks: 0
WidescreenStoryboard: 1

[Editor]
DistanceSpacing: 1.4
BeatDivisor: 4
GridSize: 8
TimelineZoom: 2.699999

[Metadata]
Title:Sacrifice (Short Ver.)
TitleUnicode:Sacrifice (Short Ver.)
Artist:Ouse Akira
ArtistUnicode:逢瀬アキラ
Creator:-Luminate
Version:Platter
Source:ふゆから​、くるる。
Tags:ふゆくる シルキーズプラス silky's plus galgame eroge visual novel opening rock japanese Fuyukara Kururu Fuyukuru video game rustyy -Rustyy bighzonda bigh
BeatmapID:3347092
BeatmapSetID:1639425

[Difficulty]
HPDrainRate:5
CircleSize:3.5
OverallDifficulty:8
ApproachRate:8
SliderMultiplier:1.5
SliderTickRate:2

[Events]
//Background and Video events
0,0,"bg.jpg",0,0
//Break Periods
//Storyboard Layer 0 (Background)
//Storyboard Layer 1 (Fail)
//Storyboard Layer 2 (Pass)
//Storyboard Layer 3 (Foreground)
//Storyboard Layer 4 (Overlay)
//Storyboard Sound Samples

[TimingPoints]
335,285.714285714286,4,2,1,10,1,0
906,-100,4,2,1,20,0,0
1477,-100,4,2,1,30,0,0
2620,-100,4,2,1,40,0,0
3763,-100,4,2,1,50,0,0
4906,-100,4,2,1,65,0,0
11763,-125,4,2,1,50,0,0
11835,-125,4,2,1,25,0,0
14049,-125,4,2,1,50,0,0
14121,-125,4,2,1,25,0,0
15192,-125,4,2,1,65,0,0
16192,-100,4,2,1,75,0,0
25477,-100,4,2,1,40,0,0
33620,-100,4,2,1,48,0,0
34620,-100,4,2,1,60,0,0
57477,-100,4,2,1,65,0,0
59763,-100,4,2,1,75,0,0
62049,-100,4,2,1,30,0,0
62906,-100,4,2,1,30,0,0
63763,-100,4,2,1,30,0,0
64239,-100,4,2,1,55,0,0
65335,-100,4,2,1,70,0,0
66620,-100,4,2,1,85,0,1
71192,-83.3333333333333,4,2,1,85,0,1
75192,-100,4,2,1,85,0,1
80335,-83.3333333333333,4,2,1,85,0,1
83049,-100,4,2,1,85,0,1
86049,-100,4,2,1,77,0,0
87049,-100,4,2,1,75,0,0
96477,-100,4,2,1,65,0,0
97763,-125,4,2,1,50,0,0
97811,-125,4,2,1,25,0,0

[Colours]
Combo1 : 230,0,230
Combo2 : 192,192,192
Combo3 : 81,81,255
Combo4 : 181,126,113

[HitObjects]
256,192,335,12,0,4049,0:0:0:0:
152,304,4335,5,2,0:0:0:0:
80,272,4478,1,2,0:0:0:0:
80,192,4621,1,2,0:0:0:0:
152,160,4763,1,2,0:0:0:0:
368,344,4906,6,0,P|464:272|344:72,1,375,4|0,0:0|0:0,0:0:0:0:
88,344,5906,6,0,P|24:256|112:192,1,225,4|0,0:0|0:0,0:0:0:0:
304,192,6620,1,2,0:0:0:0:
352,120,6763,1,2,0:0:0:0:
304,48,6906,1,8,0:1:0:0:
160,320,7049,6,0,P|120:264|176:208,1,150,14|2,0:0|0:0,0:0:0:0:
248,208,7477,1,2,0:0:0:0:
440,208,7763,1,8,0:1:0:0:
440,120,7906,1,8,0:3:0:0:
384,88,8049,1,8,0:0:0:0:
176,168,8192,6,0,P|136:120|184:56,1,150,14|8,0:0|0:1,0:0:0:0:
280,56,8620,1,8,0:0:0:0:
280,56,8763,1,8,0:0:0:0:
144,328,9049,1,8,0:0:0:0:
80,272,9192,1,10,0:1:0:0:
144,224,9335,1,2,0:0:0:0:
352,224,9477,6,0,P|384:184|344:96,1,150,14|8,0:2|3:2,0:0:0:0:
280,96,9906,1,2,3:2:0:0:
144,224,10049,2,0,P|112:160|160:88,1,150,10|8,3:2|3:2,0:0:0:0:
216,96,10477,1,2,3:2:0:0:
424,336,10620,6,0,P|464:264|416:208,1,150,10|10,3:2|3:2,0:0:0:0:
288,208,11049,1,2,3:2:0:0:
224,160,11192,1,10,3:2:0:0:
224,80,11335,1,2,3:2:0:0:
352,64,11477,1,10,3:2:0:0:
352,144,11620,1,2,3:2:0:0:
144,248,11763,5,14,0:0:0:0:
256,192,11906,12,0,13763,0:0:0:0:
256,192,14049,12,0,14906,0:0:0:0:
208,312,15192,5,8,0:1:0:0:
185,292,15263,1,8,0:1:0:0:
171,266,15334,1,8,0:0:0:0:
168,236,15406,1,8,0:0:0:0:
176,207,15477,1,8,0:0:0:0:
220,169,15620,1,8,0:0:0:0:
360,168,15763,1,8,3:1:0:0:
360,88,15906,1,8,3:1:0:0:
288,72,16049,1,8,3:1:0:0:
72,304,16192,6,0,P|40:232|88:176,1,150,14|2,0:0|0:0,0:0:0:0:
152,160,16620,1,8,0:1:0:0:
176,96,16763,1,2,0:0:0:0:
152,32,16906,1,8,0:0:0:0:
80,24,17049,1,2,0:0:0:0:
448,344,17335,6,0,L|456:184,1,150,2|2,0:0|0:0,0:0:0:0:
376,216,17763,1,8,0:1:0:0:
360,160,17906,1,2,0:0:0:0:
376,104,18049,1,10,0:0:0:0:
456,80,18192,1,8,0:0:0:0:
64,336,18477,6,0,L|56:176,1,150,4|2,0:0|0:0,0:0:0:0:
128,184,18906,1,8,0:1:0:0:
280,176,19049,1,2,0:0:0:0:
344,136,19192,1,8,0:0:0:0:
344,56,19335,1,2,0:0:0:0:
280,32,19477,1,8,0:1:0:0:
64,336,19620,6,0,P|72:256|144:208,1,150,6|2,0:0|0:0,0:0:0:0:
200,208,20049,2,0,L|72:112,2,150,8|10|8,0:1|0:0|0:1,0:0:0:0:
272,208,20763,1,2,0:0:0:0:
480,336,20906,6,0,L|472:160,1,150,14|8,0:0|0:1,0:0:0:0:
392,168,21335,1,2,0:0:0:0:
392,88,21477,1,8,0:0:0:0:
464,48,21620,1,2,0:0:0:0:
88,336,21906,6,0,P|72:256|152:208,1,150,2|2,0:0|0:0,0:0:0:0:
200,192,22335,1,8,0:1:0:0:
120,184,22477,1,2,0:0:0:0:
88,112,22620,1,8,0:0:0:0:
120,32,22763,1,2,0:0:0:0:
472,320,23049,6,0,P|440:224|376:208,1,150,6|2,0:0|0:0,0:0:0:0:
248,264,23477,2,0,L|240:160,1,75,8|2,0:1|0:0,0:0:0:0:
328,192,23763,2,0,L|336:112,1,75,8|2,0:0|0:0,0:0:0:0:
256,104,24049,1,8,0:1:0:0:
48,320,24192,6,0,L|40:152,1,150,6|8,0:0|0:1,0:0:0:0:
120,160,24620,1,8,0:1:0:0:
264,144,24763,1,2,0:0:0:0:
120,160,25049,2,0,P|80:112|144:40,1,150,10|0,0:1|0:0,0:0:0:0:
264,48,25477,6,0,L|384:152,2,150,10|10|10,0:0|0:0|0:0,0:0:0:0:
88,304,26477,6,0,P|64:200|96:152,1,150,2|2,0:0|0:0,0:0:0:0:
160,160,26906,1,10,0:0:0:0:
184,96,27049,1,2,0:0:0:0:
160,32,27192,1,10,0:0:0:0:
96,32,27335,1,2,0:0:0:0:
160,32,27477,1,10,0:0:0:0:
376,344,27763,6,0,P|408:272|368:200,1,150,8|10,0:0|0:0,0:0:0:0:
240,232,28335,2,0,P|208:168|256:88,1,150,10|8,0:0|0:0,0:0:0:0:
320,96,28763,6,0,P|384:112|416:208,1,150,2|2,0:0|0:0,0:0:0:0:
352,320,29192,1,10,0:0:0:0:
424,304,29335,1,2,0:0:0:0:
440,240,29477,1,10,0:0:0:0:
416,168,29620,1,2,0:0:0:0:
360,152,29763,1,10,0:0:0:0:
104,344,30049,6,0,P|72:272|112:200,1,150,10|10,0:0|0:0,0:0:0:0:
240,232,30621,2,0,P|272:168|224:88,1,150,8|8,0:0|0:0,0:0:0:0:
160,96,31049,6,0,P|96:112|64:208,1,150,2|2,0:0|0:0,0:0:0:0:
136,200,31477,2,0,L|264:304,2,150,10|10|10,0:0|0:0|0:0,0:0:0:0:
64,192,32192,1,2,0:0:0:0:
224,192,32335,6,0,L|376:96,1,150,10|8,0:0|0:0,0:0:0:0:
432,104,32763,2,0,L|280:16,1,150,2|0,0:0|0:0,0:0:0:0:
240,320,33192,2,0,L|232:152,1,150,10|8,0:0|0:0,0:0:0:0:
384,160,33620,5,8,0:1:0:0:
456,192,33763,1,8,0:1:0:0:
384,224,33906,1,8,0:0:0:0:
312,248,34049,1,8,0:1:0:0:
384,288,34192,1,10,0:0:0:0:
384,288,34477,1,8,0:1:0:0:
136,288,34620,6,0,L|128:112,1,150,14|8,0:0|0:1,0:0:0:0:
344,280,35192,2,0,L|352:112,1,150,10|8,0:0|0:1,0:0:0:0:
264,136,35620,6,0,P|224:80|288:24,1,150,2|2,0:0|0:0,0:0:0:0:
352,24,36049,1,8,0:1:0:0:
368,88,36192,1,2,0:0:0:0:
344,160,36335,1,10,0:0:0:0:
280,192,36477,1,2,0:0:0:0:
208,192,36620,1,8,0:1:0:0:
456,344,36906,6,0,L|464:168,1,150,8|10,0:0|0:1,0:0:0:0:
240,304,37477,2,0,L|232:128,1,150,10|8,0:0|0:1,0:0:0:0:
144,312,37906,6,0,P|112:280|168:192,1,150,2|2,0:0|0:0,0:0:0:0:
232,176,38335,1,8,0:1:0:0:
288,136,38477,1,2,0:0:0:0:
288,56,38620,1,10,0:0:0:0:
224,16,38763,1,2,0:0:0:0:
64,224,38906,6,0,L|72:40,1,150,8|8,0:1|0:0,0:0:0:0:
312,272,39477,1,10,0:1:0:0:
128,248,39763,1,10,0:0:0:0:
64,240,39906,1,2,0:0:0:0:
312,240,40192,6,0,P|376:216|408:128,1,150,2|0,0:0|0:0,0:0:0:0:
320,136,40620,2,0,L|192:40,2,150,10|10|10,0:1|0:0|0:1,0:0:0:0:
56,328,41477,6,0,P|40:224|88:176,1,150,10|8,0:0|0:1,0:0:0:0:
208,192,41906,2,0,P|280:184|352:128,1,150,2|0,0:0|0:0,0:0:0:0:
200,336,42335,2,0,P|112:320|64:272,1,150,10|10,0:1|0:0,0:0:0:0:
224,272,42763,5,10,0:1:0:0:
232,192,42906,1,8,0:1:0:0:
112,184,43192,1,10,0:1:0:0:
360,112,43477,2,0,L|360:208,1,75,10|8,0:0|0:0,0:0:0:0:
144,344,43763,6,0,P|104:280|160:216,1,150,10|8,0:0|0:1,0:0:0:0:
208,208,44192,1,0,0:0:0:0:
240,136,44335,1,8,0:0:0:0:
208,72,44477,1,8,0:0:0:0:
64,136,44620,2,0,L|64:40,1,75,8|8,0:1|0:1,0:0:0:0:
272,64,44906,6,0,L|400:160,2,150,10|8|8,0:0|0:1|0:0,0:0:0:0:
192,64,45620,1,8,0:0:0:0:
272,64,45763,1,8,0:1:0:0:
56,328,46049,6,0,P|80:232|144:192,1,150,10|8,0:0|0:1,0:0:0:0:
200,192,46477,1,2,0:0:0:0:
116,202,46620,2,0,L|116:106,1,75,10|10,0:0|0:0,0:0:0:0:
352,344,47049,6,0,L|360:176,1,150,10|2,0:1|0:0,0:0:0:0:
136,232,47620,1,2,0:0:0:0:
56,208,47763,1,10,0:0:0:0:
56,128,47906,1,10,0:0:0:0:
56,56,48049,1,10,0:1:0:0:
464,320,48335,6,0,P|448:224|392:176,1,150,14|8,0:0|0:1,0:0:0:0:
336,184,48763,1,2,0:0:0:0:
256,144,48906,1,8,0:0:0:0:
256,64,49049,1,8,0:0:0:0:
392,104,49192,2,0,L|392:24,1,75,8|8,0:1|0:1,0:0:0:0:
184,32,49477,6,0,L|48:144,2,150,10|8|8,0:0|0:1|0:0,0:0:0:0:
256,32,50192,1,10,0:0:0:0:
184,107,50335,2,0,L|184:19,1,75,10|0,0:1|0:0,0:0:0:0:
400,336,50620,6,0,P|432:304|384:208,1,150,10|8,0:0|0:1,0:0:0:0:
160,192,51192,2,0,L|344:192,1,150,10|8,0:0|0:1,0:0:0:0:
80,336,51620,6,0,P|40:272|96:208,1,150,6|2,0:0|0:0,0:0:0:0:
144,184,52049,1,8,0:1:0:0:
168,112,52192,1,2,0:0:0:0:
144,32,52335,1,10,0:0:0:0:
72,24,52477,1,8,0:0:0:0:
232,24,52620,1,8,0:1:0:0:
424,344,52906,6,0,L|432:160,1,150,14|8,0:0|0:1,0:0:0:0:
256,240,53477,2,0,L|248:152,1,75,8|8,0:0|0:0,0:0:0:0:
328,168,53763,2,0,L|336:88,1,75,10|0,0:1|0:0,0:0:0:0:
176,200,54049,6,0,P|112:184|64:96,1,150,10|8,0:0|0:1,0:0:0:0:
200,80,54620,1,8,0:0:0:0:
200,80,54763,1,8,0:0:0:0:
128,168,54906,2,0,L|208:200,1,75,8|0,0:1|0:0,0:0:0:0:
352,232,55192,6,0,P|344:296|248:328,1,150,10|8,0:0|0:1,0:0:0:0:
192,328,55620,2,0,P|160:288|208:208,1,150,2|8,0:0|0:0,0:0:0:0:
288,208,56049,2,0,P|320:160|264:88,1,150,10|8,0:1|0:0,0:0:0:0:
112,104,56477,6,0,L|104:16,1,75,2|8,0:0|0:1,0:0:0:0:
328,32,56906,1,10,0:0:0:0:
200,144,57192,2,0,L|192:64,1,75,8|8,0:1|0:1,0:0:0:0:
440,328,57477,6,0,L|448:232,1,75,14|2,0:0|0:0,0:0:0:0:
304,256,57763,2,0,L|304:176,1,75,8|2,0:1|0:0,0:0:0:0:
448,160,58049,2,0,P|424:80|344:48,1,150,10|10,0:1|0:1,0:0:0:0:
288,48,58477,1,2,0:0:0:0:
80,304,58620,6,0,L|192:176,2,150,10|10|10,0:1|0:1|0:1,0:0:0:0:
224,336,59335,2,0,L|360:232,1,150,2|8,0:0|0:0,0:0:0:0:
120,208,59763,5,8,0:1:0:0:
56,184,59906,1,10,0:0:0:0:
464,136,60192,1,8,0:1:0:0:
464,136,60335,1,10,0:0:0:0:
112,88,60620,1,8,0:1:0:0:
112,88,60763,1,10,0:0:0:0:
464,64,61049,5,8,0:1:0:0:
464,64,61192,1,8,0:1:0:0:
256,320,61477,1,8,0:1:0:0:
208,306,61549,1,8,0:1:0:0:
177,256,61620,1,8,0:3:0:0:
176,195,61692,1,8,0:3:0:0:
197,154,61763,2,0,L|281:138,1,75,8|4,0:0|0:3,0:0:0:0:
424,304,62049,6,0,L|440:48,1,225,10|2,0:0|0:0,0:0:0:0:
272,312,62906,2,0,L|264:88,1,225,2|2,0:0|0:0,0:0:0:0:
64,328,63763,2,0,P|56:192|128:112,1,225,2|0,0:0|0:0,0:0:0:0:
312,128,64335,5,8,0:1:0:0:
328,184,64477,1,0,0:0:0:0:
128,288,64763,1,8,0:0:0:0:
72,240,64906,1,8,0:1:0:0:
72,160,65049,1,0,0:0:0:0:
128,120,65192,1,10,0:0:0:0:
336,120,65335,6,0,P|368:176|328:248,1,150,6|10,0:0|0:0,0:0:0:0:
256,248,65763,1,8,0:1:0:0:
40,248,65906,1,8,0:1:0:0:
128,184,66192,1,10,0:0:0:0:
128,184,66335,1,10,0:0:0:0:
480,296,66620,6,0,L|368:176,2,150,14|8|10,0:0|0:1|0:0,0:0:0:0:
480,200,67335,2,0,L|392:224,1,75,10|8,0:0|0:1,0:0:0:0:
200,336,67620,6,0,P|176:240|216:208,1,150,10|8,0:0|0:0,0:0:0:0:
360,216,68049,2,0,P|384:160|336:80,1,150,8|10,0:1|0:0,0:0:0:0:
272,80,68477,1,2,0:0:0:0:
344,72,68620,1,8,0:1:0:0:
112,264,68763,6,0,L|96:80,1,150,2|2,0:0|0:0,0:0:0:0:
192,144,69192,2,0,L|200:64,1,75,8|2,0:1|0:0,0:0:0:0:
48,128,69477,2,0,L|40:40,1,75,10|2,0:0|0:0,0:0:0:0:
128,56,69763,1,8,0:1:0:0:
336,352,69906,6,0,P|368:272|320:216,1,150,2|0,0:0|0:0,0:0:0:0:
248,224,70335,2,0,L|376:136,1,150,8|8,0:1|0:0,0:0:0:0:
304,120,70763,1,2,0:0:0:0:
304,56,70906,1,8,0:1:0:0:
368,32,71049,1,2,0:0:0:0:
160,344,71192,5,14,0:0:0:0:
56,264,71406,1,2,0:0:0:0:
160,192,71620,1,2,0:0:0:0:
368,192,71763,1,10,0:0:0:0:
432,120,71977,1,2,0:0:0:0:
368,64,72192,1,2,0:0:0:0:
144,304,72335,5,10,0:0:0:0:
48,256,72549,1,2,0:0:0:0:
48,144,72763,1,2,0:0:0:0:
256,200,72906,1,10,0:0:0:0:
344,144,73120,1,2,0:0:0:0:
256,96,73335,1,2,0:0:0:0:
472,320,73477,6,0,L|480:136,1,179.999994506836,14|8,0:1|0:0,0:0:0:0:
224,320,73906,2,0,P|152:288|144:184,1,179.999994506836,14|8,0:1|0:0,0:0:0:0:
280,224,74335,2,0,P|344:192|360:80,1,179.999994506836,14|10,0:1|0:0,0:0:0:0:
136,112,74763,6,0,L|136:16,1,89.9999972534181,14|0,0:1|0:0,0:0:0:0:
240,144,75192,1,10,0:1:0:0:
40,216,75477,1,10,0:1:0:0:
416,344,75763,6,0,L|424:160,1,150,14|8,0:0|0:1,0:0:0:0:
208,192,76335,1,10,0:0:0:0:
288,192,76477,2,0,L|288:104,1,75,2|8,0:0|0:1,0:0:0:0:
80,336,76763,6,0,P|48:280|96:208,1,150,10|0,0:0|0:0,0:0:0:0:
232,216,77192,2,0,P|264:176|208:88,1,150,8|10,0:1|0:0,0:0:0:0:
144,96,77620,1,2,0:0:0:0:
144,176,77763,1,8,0:1:0:0:
376,344,77906,6,0,P|424:328|464:240,1,150,2|2,0:0|0:0,0:0:0:0:
320,232,78335,2,0,L|312:144,1,75,10|2,0:1|0:0,0:0:0:0:
464,176,78620,2,0,L|472:88,1,75,10|2,0:0|0:0,0:0:0:0:
392,104,78906,1,8,0:1:0:0:
168,336,79049,6,0,P|88:304|80:224,1,150,2|0,0:0|0:0,0:0:0:0:
208,248,79477,2,0,P|248:208|192:128,1,150,8|8,0:1|0:0,0:0:0:0:
72,128,79906,1,2,0:0:0:0:
16,72,80049,1,8,0:1:0:0:
72,16,80192,1,2,0:0:0:0:
280,16,80335,5,14,0:0:0:0:
384,96,80549,1,2,0:0:0:0:
280,184,80763,1,2,0:0:0:0:
56,184,80906,1,10,0:0:0:0:
40,240,81120,1,2,0:0:0:0:
56,296,81335,1,2,0:0:0:0:
296,336,81477,6,0,L|304:216,1,89.9999972534181,14|8,0:1|0:0,0:0:0:0:
160,240,81763,2,0,L|152:120,1,89.9999972534181,10|8,0:1|0:0,0:0:0:0:
384,136,82049,2,0,L|464:80,2,89.9999972534181,10|8|10,0:1|0:0|0:1,0:0:0:0:
160,240,82477,6,0,P|112:176|192:88,1,179.999994506836,14|0,0:0|0:0,0:0:0:0:
232,96,82906,2,0,L|368:240,2,179.999994506836,8|8|8,0:1|0:0|0:1,0:0:0:0:
384,344,83763,5,8,0:0:0:0:
448,304,83906,1,2,0:0:0:0:
448,224,84049,1,8,0:1:0:0:
384,192,84192,1,2,0:0:0:0:
240,280,84477,1,2,0:0:0:0:
176,224,84620,1,8,0:1:0:0:
240,176,84763,1,2,0:0:0:0:
448,168,84906,6,0,L|456:40,1,112.5,8|10,0:3|0:0,0:0:0:0:
360,48,85335,1,10,0:0:0:0:
152,192,85477,2,0,L|144:56,1,112.5,10|10,0:0|0:0,0:0:0:0:
224,72,85906,1,10,0:0:0:0:
432,288,86049,5,10,0:1:0:0:
424,336,86192,1,8,0:1:0:0:
272,288,86335,2,0,L|160:184,2,150,2|2|2,0:0|0:1|0:1,0:0:0:0:
480,304,87049,6,0,P|480:224|424:176,1,150,6|2,0:0|0:0,0:0:0:0:
360,160,87477,1,8,0:1:0:0:
336,96,87620,1,2,0:0:0:0:
360,32,87763,1,8,0:0:0:0:
432,24,87906,1,2,0:0:0:0:
64,344,88192,6,0,L|56:184,1,150,2|2,0:0|0:0,0:0:0:0:
136,216,88620,1,8,0:1:0:0:
152,160,88763,1,2,0:0:0:0:
136,104,88906,1,10,0:0:0:0:
56,80,89049,1,10,0:0:0:0:
448,336,89334,6,0,L|456:176,1,150,14|2,0:0|0:0,0:0:0:0:
384,184,89763,1,8,0:1:0:0:
240,176,89906,1,2,0:0:0:0:
176,136,90049,1,10,0:0:0:0:
176,56,90192,1,2,0:0:0:0:
240,32,90334,1,8,0:1:0:0:
448,336,90477,6,0,P|440:256|368:208,1,150,6|2,0:0|0:0,0:0:0:0:
320,208,90906,2,0,L|448:104,2,150,8|10|8,0:1|0:0|0:1,0:0:0:0:
248,208,91620,1,2,0:0:0:0:
40,336,91763,6,0,L|40:160,1,150,14|8,0:0|0:1,0:0:0:0:
112,184,92192,1,0,0:0:0:0:
112,104,92334,1,10,0:0:0:0:
48,56,92477,1,2,0:0:0:0:
400,336,92763,6,0,P|416:256|352:208,1,150,2|2,0:0|0:0,0:0:0:0:
312,192,93192,1,8,0:1:0:0:
392,184,93334,1,0,0:0:0:0:
424,112,93477,1,8,0:0:0:0:
392,32,93620,1,2,0:0:0:0:
40,320,93906,6,0,P|72:224|136:208,1,150,6|2,0:0|0:0,0:0:0:0:
256,264,94334,2,0,L|264:160,1,75,8|10,0:1|0:0,0:0:0:0:
128,192,94620,2,0,L|136:96,1,75,10|10,0:1|0:1,0:0:0:0:
208,104,94906,1,8,0:0:0:0:
424,336,95049,6,0,L|432:168,1,150,6|8,0:0|0:3,0:0:0:0:
288,328,95477,1,2,3:2:0:0:
208,296,95620,1,8,3:2:0:0:
208,216,95763,1,8,3:1:0:0:
432,200,95906,1,8,3:1:0:0:
432,128,96049,1,8,3:1:0:0:
208,120,96192,1,2,0:0:0:0:
312,120,96477,5,2,0:0:0:0:
368,176,96620,1,2,0:0:0:0:
368,256,96763,1,2,0:0:0:0:
312,304,96906,2,0,L|144:280,1,150,2|8,0:0|0:0,0:0:0:0:
168,216,97335,1,8,0:1:0:0:
264,176,97620,5,8,0:1:0:0:
56,64,97763,2,0,L|56:256,1,180,10|0,0:1|0:0,0:0:0:0:
