osu file format v14

[General]
AudioFilename: audio.mp3
AudioLeadIn: 0
PreviewTime: 66178
Countdown: 0
SampleSet: Soft
StackLeniency: 0.7
Mode: 2
LetterboxInBreaks: 0
WidescreenStoryboard: 1

[Editor]
DistanceSpacing: 1.4
BeatDivisor: 4
GridSize: 8
TimelineZoom: 2.699999

[Metadata]
Title:Sacrifice (Short Ver.)
TitleUnicode:Sacrifice (Short Ver.)
Artist:Ouse Akira
ArtistUnicode:逢瀬アキラ
Creator:-Luminate
Version:Deception
Source:ふゆから​、くるる。
Tags:ふゆくる シルキーズプラス silky's plus galgame eroge visual novel opening rock japanese Fuyukara Kururu Fuyukuru video game rustyy -Rustyy bighzonda bigh
BeatmapID:3346134
BeatmapSetID:1639425

[Difficulty]
HPDrainRate:6
CircleSize:4.2
OverallDifficulty:9.4
ApproachRate:9.4
SliderMultiplier:1.8
SliderTickRate:2

[Events]
//Background and Video events
0,0,"bg.jpg",0,0
//Break Periods
//Storyboard Layer 0 (Background)
//Storyboard Layer 1 (Fail)
//Storyboard Layer 2 (Pass)
//Storyboard Layer 3 (Foreground)
//Storyboard Layer 4 (Overlay)
//Storyboard Sound Samples

[TimingPoints]
335,285.714285714286,4,2,1,10,1,0
906,-100,4,2,1,20,0,0
1477,-100,4,2,1,30,0,0
2620,-100,4,2,1,40,0,0
3763,-100,4,2,1,50,0,0
4906,-100,4,2,1,65,0,0
11763,-125,4,2,1,50,0,0
11835,-125,4,2,1,25,0,0
14049,-125,4,2,1,50,0,0
14121,-125,4,2,1,25,0,0
15192,-125,4,2,1,65,0,0
16192,-100,4,2,1,75,0,0
25477,-100,4,2,1,40,0,0
33620,-100,4,2,1,48,0,0
34620,-100,4,2,1,60,0,0
57477,-100,4,2,1,65,0,0
59763,-100,4,2,1,75,0,0
62049,-71.4285714285714,4,2,1,30,0,0
62906,-83.3333333333333,4,2,1,30,0,0
63763,-100,4,2,1,30,0,0
64239,-100,4,2,1,55,0,0
65335,-100,4,2,1,70,0,0
66620,-100,4,2,1,85,0,1
71192,-83.3333333333333,4,2,1,85,0,1
75192,-100,4,2,1,85,0,1
80335,-83.3333333333333,4,2,1,85,0,1
83049,-100,4,2,1,85,0,1
86049,-100,4,2,1,77,0,0
87049,-100,4,2,1,75,0,0
96477,-100,4,2,1,65,0,0
97763,-125,4,2,1,50,0,0
97811,-125,4,2,1,25,0,0

[Colours]
Combo1 : 230,0,230
Combo2 : 192,192,192
Combo3 : 81,81,255
Combo4 : 181,126,113

[HitObjects]
256,192,335,12,0,4192,0:0:0:0:
240,256,4335,5,2,0:0:0:0:
368,216,4477,1,2,0:0:0:0:
240,152,4620,1,2,0:0:0:0:
368,128,4763,1,2,0:0:0:0:
144,336,4906,6,0,B|-16:352|-16:72|160:288|248:152|232:0|56:8,1,540,4|0,0:0|0:0,0:0:0:0:
360,344,5906,6,0,P|456:240|344:72,1,360,4|0,0:0|0:0,0:0:0:0:
224,72,6620,1,2,0:0:0:0:
357,75,6763,2,0,P|368:120|344:184,1,90,2|8,0:0|0:1,0:0:0:0:
96,328,7049,6,0,P|32:256|48:160,1,180,14|2,0:0|0:0,0:0:0:0:
96,128,7477,1,2,0:0:0:0:
352,256,7763,1,8,0:1:0:0:
240,208,7906,1,8,0:3:0:0:
120,168,8049,1,8,0:0:0:0:
392,344,8192,6,0,P|440:264|384:200,1,180,14|8,0:0|0:1,0:0:0:0:
272,200,8620,2,8,L|272:128,1,45
336,152,8763,1,8,0:0:0:0:
384,128,8835,1,8,0:0:0:0:
400,72,8906,1,8,0:0:0:0:
384,32,8977,1,8,0:0:0:0:
336,16,9049,1,8,0:0:0:0:
192,48,9192,1,10,0:1:0:0:
336,152,9335,1,2,0:0:0:0:
72,344,9477,5,14,0:2:0:0:
42,311,9548,1,0,3:0:0:0:
42,267,9619,1,0,3:0:0:0:
72,235,9691,1,0,3:0:0:0:
240,224,9763,2,0,L|248:160,1,45,8|0,3:2|3:2,3:2:0:0:
104,168,9906,2,0,L|96:88,1,45,2|0,3:2|3:0,3:0:0:0:
288,344,10049,1,10,3:2:0:0:
317,311,10120,1,0,3:0:0:0:
317,267,10191,1,0,3:0:0:0:
287,235,10263,1,0,3:0:0:0:
224,224,10335,2,0,L|312:224,1,45,8|0,3:2|3:0,3:0:0:0:
440,160,10477,2,0,L|360:160,1,45,2|0,3:2|3:0,3:0:0:0:
224,224,10620,5,10,3:2:0:0:
176,208,10691,1,0,3:0:0:0:
160,168,10762,1,0,3:0:0:0:
176,120,10834,1,0,3:0:0:0:
336,80,10906,2,0,L|400:80,1,45,10|0,3:2|3:0,3:0:0:0:
216,72,11049,2,0,L|160:72,1,45,2|0,3:2|3:0,3:0:0:0:
384,184,11192,2,0,L|392:256,1,45,10|0,3:2|3:0,3:0:0:0:
120,192,11335,2,0,L|112:264,1,45,2|0,3:2|3:0,3:0:0:0:
360,312,11477,2,4,L|288:312,1,45,10|0,3:2|3:0,3:0:0:0:
112,312,11620,2,8,L|192:312,1,45,2|0,3:2|3:0,3:0:0:0:
392,368,11763,6,0,P|472:176|112:376,1,1116,14|0,0:0|0:0,0:0:0:0:
304,360,14049,6,0,B|408:352|448:224|312:208|312:208|192:200|192:64|304:56|376:88,1,540,2|0,0:0|0:0,0:0:0:0:
304,312,15192,5,8,0:1:0:0:
256,288,15263,1,8,0:1:0:0:
240,240,15335,1,8,0:0:0:0:
256,184,15406,1,8,0:0:0:0:
304,160,15477,1,8,0:0:0:0:
360,144,15549,1,8,0:0:0:0:
376,88,15620,1,8,0:0:0:0:
360,40,15692,1,8,0:0:0:0:
184,40,15763,1,8,3:1:0:0:
136,40,15835,1,0,3:2:0:0:
368,232,15906,1,8,3:1:0:0:
416,232,15978,1,0,3:2:0:0:
184,224,16049,1,8,3:1:0:0:
136,224,16121,1,0,3:2:0:0:
368,232,16192,6,0,P|416:184|352:96,1,180,14|2,0:0|0:0,0:0:0:0:
136,120,16620,1,8,0:1:0:0:
240,72,16763,1,2,0:0:0:0:
136,32,16906,1,8,0:0:0:0:
368,328,17049,2,0,L|472:328,1,90,2|8,0:0|0:1,0:0:0:0:
240,264,17335,6,0,P|192:224|264:136,1,180,2|2,0:0|0:0,0:0:0:0:
456,136,17763,1,8,0:1:0:0:
344,72,17906,1,2,0:0:0:0:
456,48,18049,1,10,0:0:0:0:
240,48,18192,1,8,0:0:0:0:
344,32,18335,1,8,0:1:0:0:
104,336,18477,6,0,P|56:280|136:200,1,180,4|2,0:0|0:0,0:0:0:0:
344,192,18906,1,8,0:1:0:0:
228,145,19049,1,2,0:0:0:0:
112,104,19192,1,8,0:0:0:0:
344,192,19335,2,0,L|352:64,1,90,2|8,0:0|0:1,0:0:0:0:
112,304,19620,6,0,L|320:304,1,180,6|2,0:0|0:0,0:0:0:0:
48,200,20049,1,8,0:1:0:0:
288,128,20192,1,2,0:0:0:0:
168,96,20335,1,10,0:0:0:0:
376,216,20477,2,2,L|448:216,1,45
208,328,20620,2,0,L|88:328,1,90,8|2,0:1|0:0,0:0:0:0:
440,336,20906,6,0,L|448:224,1,90,14|0,0:0|0:0,0:0:0:0:
208,320,21192,2,0,L|200:208,1,90,8|2,0:1|0:0,0:0:0:0:
328,224,21477,1,8,0:0:0:0:
64,224,21620,2,0,L|168:224,1,90,2|8,0:0|0:1,0:0:0:0:
448,144,21906,6,0,L|248:144,1,180,2|2,0:0|0:0,0:0:0:0:
128,208,22335,2,0,L|240:208,1,90,8|2,0:1|0:0,0:0:0:0:
472,272,22620,2,0,L|368:272,1,90,8|2,0:0|0:0,0:0:0:0:
128,272,22906,1,8,0:1:0:0:
384,272,23049,6,0,P|432:224|360:136,1,180,6|2,0:0|0:0,0:0:0:0:
128,144,23477,1,8,0:1:0:0:
256,80,23620,1,2,0:0:0:0:
128,48,23763,1,8,0:0:0:0:
384,40,23906,2,0,L|392:168,1,90,2|8,0:0|0:1,0:0:0:0:
136,336,24192,6,0,P|88:304|160:208,1,180,6|8,0:0|0:1,0:0:0:0:
184,208,24549,1,8,0:0:0:0:
368,208,24620,1,8,0:1:0:0:
152,136,24763,1,2,0:0:0:0:
328,200,25049,2,0,P|376:144|312:72,1,180,10|0,0:1|0:0,0:0:0:0:
208,296,25477,6,0,L|360:176,2,180,10|10|10,0:0|0:0|0:0,0:0:0:0:
64,296,26335,1,8,0:0:0:0:
184,288,26477,6,0,P|224:216|160:112,1,180,2|2,0:0|0:0,0:0:0:0:
64,296,26906,1,10,0:0:0:0:
184,288,27049,1,2,0:0:0:0:
232,248,27192,1,10,0:0:0:0:
184,216,27335,1,2,0:0:0:0:
312,168,27477,1,10,0:0:0:0:
64,104,27763,6,0,P|40:192|64:288,1,180,8|10,0:0|0:0,0:0:0:0:
264,328,28335,2,0,L|64:312,1,180,10|8,0:0|0:0,0:0:0:0:
208,304,28763,6,0,P|304:272|344:184,1,180,2|2,0:0|0:0,0:0:0:0:
216,184,29192,1,10,0:0:0:0:
208,88,29335,1,2,0:0:0:0:
304,128,29477,1,10,0:0:0:0:
312,32,29620,1,2,0:0:0:0:
464,32,29763,1,10,0:0:0:0:
240,184,30049,6,0,L|392:320,2,180,10|10|8,0:0|0:0|0:0,0:0:0:0:
416,336,30906,1,8,0:0:0:0:
304,336,31049,6,0,P|288:272|312:144,1,180,2|2,0:0|0:0,0:0:0:0:
392,160,31477,1,10,0:0:0:0:
432,216,31620,1,2,0:0:0:0:
432,280,31763,1,10,0:0:0:0:
392,336,31906,1,2,0:0:0:0:
320,352,32049,1,10,0:0:0:0:
464,352,32192,1,2,0:0:0:0:
200,352,32335,6,0,P|96:312|72:232,1,180,10|8,0:0|0:0,0:0:0:0:
192,240,32763,2,0,P|264:208|312:96,1,180,2|0,0:0|0:0,0:0:0:0:
160,176,33192,2,0,P|112:120|176:32,1,180,10|8,0:0|0:0,0:0:0:0:
400,40,33620,5,8,0:1:0:0:
200,176,33763,1,8,0:1:0:0:
309,216,33906,1,8,0:0:0:0:
88,288,34049,1,8,0:1:0:0:
320,344,34192,2,0,P|408:312|448:208,1,180,10|8,0:0|0:1,0:0:0:0:
384,240,34549,1,8,0:1:0:0:
192,240,34620,6,0,L|184:112,1,90,14|0,0:0|0:0,0:0:0:0:
448,168,34906,2,0,L|456:64,1,90,8|0,0:1|0:0,0:0:0:0:
312,328,35192,1,10,0:0:0:0:
248,272,35335,1,0,0:0:0:0:
312,216,35477,1,8,0:1:0:0:
88,216,35620,6,0,P|48:160|104:56,1,180,2|2,0:0|0:0,0:0:0:0:
224,64,36049,1,8,0:1:0:0:
88,112,36192,1,2,0:0:0:0:
224,168,36335,1,10,0:0:0:0:
152,208,36477,1,2,0:0:0:0:
288,232,36620,2,0,P|312:288|264:360,1,135,8|0,0:1|0:0,0:0:0:0:
96,344,36906,6,0,P|102:282|187:231,1,135,8|0,0:0|0:0,0:0:0:0:
232,240,37192,2,0,L|241:136,1,90,10|0,0:1|0:0,0:0:0:0:
32,104,37477,2,0,P|96:88|240:112,1,180,10|8,0:0|0:1,0:0:0:0:
344,312,37906,6,0,P|384:256|320:160,1,180,2|2,0:0|0:0,0:0:0:0:
192,160,38335,1,8,0:1:0:0:
312,112,38477,1,2,0:0:0:0:
240,96,38620,1,10,0:0:0:0:
360,64,38763,1,2,0:0:0:0:
216,40,38906,2,0,P|184:88|232:160,1,135,8|0,0:1|0:0,0:0:0:0:
392,344,39192,6,0,P|312:312|224:312,1,135,8|0,0:0|0:0,0:0:0:0:
192,312,39477,2,0,L|184:192,1,90,10|0,0:1|0:0,0:0:0:0:
320,208,39763,1,10,0:0:0:0:
56,136,39906,2,0,L|168:128,1,90,2|8,0:0|0:1,0:0:0:0:
296,104,40192,6,0,L|88:88,1,180,2|0,0:0|0:0,0:0:0:0:
224,240,40620,2,0,L|328:232,1,90,10|0,0:1|0:0,0:0:0:0:
160,320,40906,2,0,L|56:312,1,90,10|0,0:0|0:0,0:0:0:0:
352,328,41192,2,0,L|456:320,1,90,10|0,0:1|0:0,0:0:0:0:
168,248,41477,6,0,L|72:240,2,90,10|0|8,0:0|0:0|0:1,0:0:0:0:
288,248,41906,2,0,L|408:232,2,90,2|8|0,0:0|0:0|0:0,0:0:0:0:
440,224,42335,2,0,L|448:128,1,90,10|0,0:1|0:0,0:0:0:0:
352,128,42620,1,10,0:0:0:0:
112,128,42763,5,10,0:1:0:0:
352,128,42906,2,0,L|472:128,1,90,8|0,0:1|0:0,0:0:0:0:
184,264,43192,2,0,L|56:264,1,90,10|0,0:1|0:0,0:0:0:0:
328,328,43477,1,10,0:0:0:0:
224,320,43620,2,8,L|216:248,1,45
416,272,43763,6,0,P|464:224|400:136,1,180,10|8,0:0|0:1,0:0:0:0:
320,232,44192,1,0,0:0:0:0:
224,184,44335,1,8,0:0:0:0:
224,88,44477,1,8,0:0:0:0:
456,352,44620,2,0,L|464:240,1,90,8|8,0:1|0:1,0:0:0:0:
96,344,44906,6,0,L|80:144,1,180,10|8,0:0|0:1,0:0:0:0:
192,176,45335,1,2,0:0:0:0:
280,128,45477,1,8,0:0:0:0:
296,32,45620,1,8,0:0:0:0:
144,32,45763,2,0,L|136:152,1,90,8|0,0:1|0:0,0:0:0:0:
392,160,46049,5,10,0:0:0:0:
272,328,46192,1,2,0:0:0:0:
176,280,46335,1,8,0:1:0:0:
152,192,46477,1,2,0:0:0:0:
176,112,46620,1,10,0:0:0:0:
288,96,46763,2,0,L|144:24,1,135,10|0,0:0|0:0,0:0:0:0:
232,32,47049,2,0,L|352:24,1,90,10|8,0:1|0:0,0:0:0:0:
56,328,47335,6,0,L|48:224,1,90,2|8,0:0|0:1,0:0:0:0:
192,232,47620,1,2,0:0:0:0:
272,176,47763,1,10,0:0:0:0:
192,128,47906,1,10,0:0:0:0:
440,128,48049,1,10,0:1:0:0:
240,344,48335,6,0,P|288:248|368:216,1,180,14|8,0:0|0:1,0:0:0:0:
248,176,48763,1,2,0:0:0:0:
192,104,48906,1,8,0:0:0:0:
248,32,49049,1,8,0:0:0:0:
376,160,49192,2,0,L|496:152,1,90,8|8,0:1|0:1,0:0:0:0:
224,336,49477,6,0,L|16:312,1,180,10|8,0:0|0:1,0:0:0:0:
24,272,49906,1,8,0:0:0:0:
24,200,50049,1,8,0:0:0:0:
80,128,50192,1,10,0:0:0:0:
352,120,50335,2,0,L|464:112,1,90,10|0,0:1|0:0,0:0:0:0:
192,312,50620,5,10,0:0:0:0:
184,200,50763,1,2,0:0:0:0:
80,128,50906,2,0,P|136:88|224:88,1,135,8|0,0:1|0:0,0:0:0:0:
264,56,51192,2,0,L|160:48,1,90,10|8,0:0|0:0,0:0:0:0:
424,160,51477,1,8,0:1:0:0:
176,352,51620,6,0,P|128:304|192:224,1,180,6|2,0:0|0:0,0:0:0:0:
312,224,52049,1,8,0:1:0:0:
56,176,52192,1,2,0:0:0:0:
152,120,52335,1,10,0:0:0:0:
56,80,52477,1,8,0:0:0:0:
320,56,52620,1,8,0:1:0:0:
144,344,52906,6,0,P|72:304|64:200,1,180,14|8,0:0|0:1,0:0:0:0:
144,184,53335,1,2,0:0:0:0:
152,88,53477,1,8,0:0:0:0:
64,64,53620,1,8,0:0:0:0:
312,288,53763,2,0,L|416:272,1,90,10|0,0:1|0:0,0:0:0:0:
160,344,54049,6,0,P|184:224|240:200,1,180,10|8,0:0|0:1,0:0:0:0:
336,192,54477,1,2,0:0:0:0:
376,112,54620,1,8,0:0:0:0:
336,32,54763,1,8,0:0:0:0:
224,320,54906,2,0,L|104:304,1,90,8|0,0:1|0:0,0:0:0:0:
368,344,55192,6,0,L|472:336,2,90,10|0|8,0:0|0:0|0:1,0:0:0:0:
232,280,55620,2,0,L|128:264,2,90,2|8|8,0:0|0:0|0:0,0:0:0:0:
352,248,56049,2,0,L|296:176,2,90,10|0|8,0:1|0:0|0:0,0:0:0:0:
200,176,56477,6,0,L|72:152,2,90,2|8|0,0:0|0:1|0:0,0:0:0:0:
440,168,56906,2,0,L|456:56,1,90,10|0,0:0|0:0,0:0:0:0:
200,56,57192,1,8,0:1:0:0:
312,56,57335,2,8,L|312:112,1,45,8|8,0:1|0:1,0:1:0:0:
80,144,57477,5,14,0:0:0:0:
192,184,57620,1,2,0:0:0:0:
80,232,57763,1,8,0:1:0:0:
320,232,57906,1,2,0:0:0:0:
80,344,58049,2,0,L|72:224,1,90,10|0,0:1|0:1,0:0:0:0:
320,232,58335,1,10,0:1:0:0:
72,224,58477,1,2,0:0:0:0:
352,160,58620,6,0,L|456:112,1,90,10|0,0:1|0:0,0:0:0:0:
216,96,58906,2,0,L|112:48,1,90,10|0,0:1|0:0,0:0:0:0:
352,160,59192,1,10,0:1:0:0:
152,168,59335,2,0,L|48:168,1,90,2|8,0:0|0:1,0:0:0:0:
296,296,59620,2,8,L|232:296,1,45
64,240,59763,5,8,0:1:0:0:
352,232,59906,1,10,0:0:0:0:
232,144,60049,2,8,L|296:144,1,45
456,80,60192,1,8,0:1:0:0:
232,64,60335,1,10,0:0:0:0:
352,232,60477,2,8,L|280:232,1,45
64,288,60620,1,8,0:1:0:0:
304,288,60763,1,10,0:0:0:0:
200,320,60906,6,8,L|192:256,1,45
376,280,61049,2,0,L|384:192,1,45,8|8,0:1|0:0,0:0:0:0:
192,224,61192,2,0,L|176:152,1,45,8|8,0:1|0:0,0:0:0:0:
248,168,61335,2,8,L|256:104,1,45
72,168,61477,1,8,0:1:0:0:
42,135,61548,1,8,0:1:0:0:
41,91,61619,1,8,0:3:0:0:
68,56,61691,1,8,0:3:0:0:
248,56,61763,2,8,L|320:56,1,45
136,224,61906,2,4,L|72:224,1,45,4|4,0:3|0:3,0:3:0:0:
336,336,62049,6,0,B|408:304|400:208|344:200|216:272|240:80|312:96,1,314.999990386963,10|0,0:0|0:0,0:0:0:0:
336,96,62477,2,0,B|408:128|400:224|344:232|216:160|240:352|312:336,1,314.999990386963,2|0,0:0|0:0,0:0:0:0:
336,336,62906,2,0,B|360:200|168:240|192:112,1,269.999991760254,2|0,0:0|0:0,0:0:0:0:
224,136,63335,2,0,P|308:175|195:251,1,269.999991760254,2|0,0:0|0:0,0:0:0:0:
176,136,63763,2,0,P|91:175|176:304,1,270,2|0,0:0|0:0,0:0:0:0:
208,304,64263,1,8,0:0:0:0:
400,336,64335,6,0,P|448:280|376:192,1,180,8|0,0:1|0:0,0:0:0:0:
272,192,64763,1,8,0:0:0:0:
400,192,64906,2,0,L|416:64,1,90,8|0,0:1|0:0,0:0:0:0:
136,88,65192,1,10,0:0:0:0:
408,96,65335,6,0,P|360:72|216:56,1,180,6|10,0:0|0:0,0:0:0:0:
368,40,65763,1,8,0:1:0:0:
136,32,65906,1,8,0:1:0:0:
296,208,66192,1,10,0:0:0:0:
80,200,66335,2,0,L|72:88,1,90,10|0,0:0|0:0,0:0:0:0:
344,344,66620,6,0,L|464:344,1,90,14|0,0:0|0:0,0:0:0:0:
216,280,66906,2,0,L|208:176,1,90,8|0,0:1|0:0,0:0:0:0:
328,160,67192,1,10,0:0:0:0:
80,128,67335,2,0,P|80:72|120:16,1,90,10|8,0:0|0:1,0:0:0:0:
328,64,67620,6,0,P|272:136|168:128,1,180,10|8,0:0|0:0,0:0:0:0:
408,24,68049,2,0,P|464:48|488:112,1,90,8|0,0:1|0:0,0:0:0:0:
344,288,68335,1,10,0:0:0:0:
480,208,68477,1,2,0:0:0:0:
188,139,68620,1,8,0:1:0:0:
480,264,68763,6,0,L|376:264,1,90,2|8,0:0|0:0,0:0:0:0:
188,139,69049,2,0,B|240:152|240:152|304:136,1,90,2|8,0:0|0:1,0:0:0:0:
408,120,69335,1,2,0:0:0:0:
144,312,69477,1,10,0:0:0:0:
415,316,69620,2,0,L|304:312,1,90,2|8,0:0|0:1,0:0:0:0:
64,328,69906,6,0,P|88:216|224:168,1,270,2|8,0:0|0:1,0:0:0:0:
104,112,70477,1,2,0:0:0:0:
224,166,70620,2,0,P|231:87|215:39,1,90,8|2,0:0|0:0,0:0:0:0:
104,240,70906,1,8,0:1:0:0:
376,112,71049,1,2,0:0:0:0:
152,336,71192,6,0,B|104:320|104:320|64:256,1,107.999996704102,14|0,0:0|0:0,0:0:0:0:
248,208,71406,2,0,L|400:208,1,107.999996704102,2|0,0:0|0:0,0:0:0:0:
432,160,71620,2,0,L|368:160,1,53.9999983520508,2|0,0:0|0:0,0:0:0:0:
152,88,71763,2,0,L|268:160,1,107.999996704102,10|0,0:0|0:0,0:0:0:0:
422,301,71977,2,0,L|318:253,1,107.999996704102,2|0,0:0|0:0,0:0:0:0:
128,320,72192,2,0,L|56:360,1,53.9999983520508,2|0,0:0|0:0,0:0:0:0:
280,352,72335,6,0,B|400:288,1,107.999996704102,10|0,0:0|0:0,0:0:0:0:
192,264,72549,2,0,B|96:200,1,107.999996704102,2|0,0:0|0:0,0:0:0:0:
280,232,72763,2,0,L|336:272,1,53.9999983520508,2|0,0:0|0:0,0:0:0:0:
400,296,72906,2,0,L|289:355,1,107.999996704102,10|0,0:0|0:0,0:0:0:0:
107,311,73120,2,0,L|99:151,1,107.999996704102,2|0,0:0|0:0,0:0:0:0:
187,199,73335,2,0,L|243:199,1,53.9999983520508,2|0,0:0|0:0,0:0:0:0:
448,200,73477,5,14,0:1:0:0:
336,136,73620,1,0,0:0:0:0:
448,96,73763,1,8,0:0:0:0:
56,304,73906,1,14,0:1:0:0:
184,248,74049,1,0,0:0:0:0:
56,208,74192,1,8,0:0:0:0:
320,336,74335,1,14,0:1:0:0:
208,288,74477,1,0,0:0:0:0:
320,248,74620,1,10,0:0:0:0:
56,208,74763,5,14,0:1:0:0:
152,144,74906,1,0,0:0:0:0:
56,104,75049,1,8,0:0:0:0:
288,320,75192,2,0,P|351:298|381:240,1,135,10|0,0:1|0:0,0:0:0:0:
169,327,75477,2,0,P|106:305|76:247,1,135,10|0,0:1|0:0,0:0:0:0:
336,224,75763,6,0,L|336:104,1,90,14|0,0:0|0:0,0:0:0:0:
104,72,76049,2,0,P|176:88|232:72,1,90,8|0,0:1|0:0,0:0:0:0:
336,64,76335,1,10,0:0:0:0:
104,72,76477,2,0,L|96:192,1,90,2|8,0:0|0:1,0:0:0:0:
320,352,76763,6,0,P|408:320|424:168,1,225,10|0,0:0|0:0,0:0:0:0:
224,264,77192,2,0,L|216:168,1,90,8|0,0:1|0:0,0:0:0:0:
328,160,77477,1,10,0:0:0:0:
216,136,77620,1,2,0:0:0:0:
464,80,77763,1,8,0:1:0:0:
192,136,77906,6,0,P|184:72|200:16,1,90,2|8,0:0|0:0,0:0:0:0:
312,48,78192,1,2,0:0:0:0:
56,248,78335,1,10,0:1:0:0:
320,312,78477,1,2,0:0:0:0:
192,336,78620,1,10,0:0:0:0:
448,320,78763,2,0,P|456:272|448:216,1,90,2|8,0:0|0:1,0:0:0:0:
192,224,79049,6,0,P|144:136|264:40,1,270,2|8,0:0|0:1,0:0:0:0:
360,40,79620,1,2,0:0:0:0:
240,304,79763,2,0,L|232:176,1,90,8|2,0:0|0:0,0:0:0:0:
112,208,80049,1,8,0:1:0:0:
360,136,80192,1,2,0:0:0:0:
117,100,80335,6,0,L|0:136,1,107.999996704102,14|0,0:0|0:0,0:0:0:0:
184,304,80549,2,0,L|312:264,1,107.999996704102,2|0,0:0|0:0,0:0:0:0:
232,208,80763,2,0,L|288:208,1,53.9999983520508,2|0,0:0|0:0,0:0:0:0:
456,320,80906,2,0,L|304:320,1,107.999996704102,10|0,0:0|0:0,0:0:0:0:
200,192,81120,2,0,L|336:192,1,107.999996704102,2|0,0:0|0:0,0:0:0:0:
448,96,81335,1,2,0:0:0:0:
208,104,81477,5,14,0:1:0:0:
448,208,81620,1,8,0:0:0:0:
208,272,81763,1,10,0:1:0:0:
448,336,81906,1,8,0:0:0:0:
208,344,82049,1,10,0:1:0:0:
328,304,82192,1,8,0:0:0:0:
80,272,82335,1,10,0:1:0:0:
328,304,82477,6,0,P|408:200|304:48,1,323.999990112305,14|8,0:0|0:1,0:0:0:0:
200,288,83049,1,2,0:0:0:0:
88,240,83192,2,0,L|80:144,1,90,8|2,0:0|0:0,0:0:0:0:
184,176,83477,2,0,L|192:64,1,90,8|2,0:1|0:0,0:0:0:0:
72,72,83763,5,8,0:0:0:0:
152,128,83906,1,2,0:0:0:0:
72,176,84049,1,8,0:1:0:0:
192,296,84192,2,0,L|384:280,1,180,2|2,0:0|0:0,0:0:0:0:
264,208,84620,1,8,0:1:0:0:
376,160,84763,1,2,0:0:0:0:
136,328,84906,5,8,0:3:0:0:
256,320,85049,2,8,L|264:264,1,45,8|10,0:3|0:0,0:3:0:0:
208,256,85192,1,8,0:0:0:0:
312,168,85335,2,8,L|256:160,1,45,10|8,0:0|0:0,0:0:0:0:
80,72,85477,2,0,L|72:192,1,90,10|0,0:0|0:0,0:0:0:0:
240,112,85692,2,0,L|351:117,1,90,10|0,0:0|0:0,0:0:0:0:
400,144,85906,2,0,L|400:208,1,45,10|8,0:0|0:0,0:0:0:0:
208,336,86049,5,10,0:1:0:0:
312,296,86192,1,8,0:1:0:0:
96,224,86335,1,2,0:0:0:0:
200,176,86477,1,0,0:0:0:0:
448,152,86620,1,2,0:1:0:0:
328,96,86763,1,0,0:0:0:0:
448,64,86906,1,2,0:1:0:0:
144,232,87049,6,0,P|96:184|160:96,1,180,6|2,0:0|0:0,0:0:0:0:
376,120,87477,1,8,0:1:0:0:
272,72,87620,1,2,0:0:0:0:
376,32,87763,1,8,0:0:0:0:
144,328,87906,2,0,L|40:328,1,90,2|8,0:0|0:1,0:0:0:0:
272,264,88192,6,0,P|320:224|248:136,1,180,2|2,0:0|0:0,0:0:0:0:
56,136,88620,1,8,0:1:0:0:
168,72,88763,1,2,0:0:0:0:
56,48,88906,1,10,0:0:0:0:
272,48,89049,1,10,0:0:0:0:
168,32,89192,1,8,0:1:0:0:
408,336,89334,6,0,P|456:280|376:200,1,180,14|2,0:0|0:0,0:0:0:0:
168,192,89763,1,8,0:1:0:0:
285,146,89906,1,2,0:0:0:0:
400,104,90049,1,10,0:0:0:0:
168,192,90192,2,0,L|160:64,1,90,2|8,0:0|0:1,0:0:0:0:
400,304,90477,6,0,L|192:304,1,180,6|2,0:0|0:0,0:0:0:0:
464,200,90906,1,8,0:1:0:0:
224,128,91049,1,2,0:0:0:0:
344,96,91192,1,10,0:0:0:0:
136,216,91334,2,2,L|64:216,1,45
304,328,91477,2,0,L|424:328,1,90,8|2,0:1|0:0,0:0:0:0:
96,336,91763,6,0,L|88:224,1,90,14|0,0:0|0:0,0:0:0:0:
304,328,92049,2,0,L|312:216,1,90,8|0,0:1|0:0,0:0:0:0:
200,232,92334,1,10,0:0:0:0:
416,224,92477,2,0,L|312:224,1,90,2|8,0:0|0:1,0:0:0:0:
64,144,92763,6,0,L|264:144,1,180,2|2,0:0|0:0,0:0:0:0:
448,208,93192,2,0,L|336:208,1,90,8|0,0:1|0:0,0:0:0:0:
208,264,93477,2,0,L|312:264,1,90,8|2,0:0|0:0,0:0:0:0:
416,264,93763,1,8,0:1:0:0:
128,272,93906,6,0,P|80:224|152:136,1,180,6|2,0:0|0:0,0:0:0:0:
384,144,94334,1,8,0:1:0:0:
256,80,94477,1,10,0:0:0:0:
384,48,94620,1,10,0:1:0:0:
184,48,94763,2,0,L|64:48,1,90,10|8,0:1|0:0,0:0:0:0:
376,336,95049,6,0,P|424:304|352:208,1,180,6|8,0:0|0:3,0:0:0:0:
328,208,95406,1,8,0:3:0:0:
120,208,95477,2,0,L|192:208,1,45,2|0,3:2|3:0,3:0:0:0:
320,152,95620,2,0,L|328:80,1,45,8|0,3:2|3:0,3:0:0:0:
160,88,95763,2,0,L|152:32,1,45,8|0,3:1|3:0,3:0:0:0:
320,232,95906,2,0,L|400:232,1,45,8|0,3:1|3:0,3:0:0:0:
144,336,96049,2,0,L|96:336,1,45,8|0,3:1|3:0,3:0:0:0:
324,107,96192,1,2,0:0:0:0:
144,336,96477,5,2,0:0:0:0:
72,280,96620,1,2,0:0:0:0:
40,192,96763,1,2,0:0:0:0:
64,96,96906,1,2,0:0:0:0:
152,40,97049,1,2,0:0:0:0:
432,80,97192,2,8,L|352:80,1,45
200,80,97335,1,8,0:1:0:0:
384,176,97620,5,8,0:1:0:0:
104,344,97763,2,0,L|104:120,1,216,10|0,0:1|0:0,0:0:0:0:
