osu file format v14

[General]
AudioFilename: audio.mp3
AudioLeadIn: 0
PreviewTime: 118504
Countdown: 0
SampleSet: Soft
StackLeniency: 0.7
Mode: 0
LetterboxInBreaks: 0
WidescreenStoryboard: 1

[Editor]
Bookmarks: 213730,215016,218016
DistanceSpacing: 0.5
BeatDivisor: 4
GridSize: 8
TimelineZoom: 3.799998

[Metadata]
Title:Sacrifice
TitleUnicode:Sacrifice
Artist:Ouse Akira
ArtistUnicode:逢瀬アキラ
Creator:Poyoyo
Version:bongo's Milking Extra
Source:ふゆから​、くるる。
Tags:ふゆくる fuyu kara kururu fuyukuru シルキーズプラス silky's plus galgame eroge visual novel opening rock japanese -yua cclemon LeeGod bongo GfMRT wei_0921
BeatmapID:3977159
BeatmapSetID:1877093

[Difficulty]
HPDrainRate:5
CircleSize:4
OverallDifficulty:9
ApproachRate:9.7
SliderMultiplier:1.7
SliderTickRate:1

[Events]
//Background and Video events
0,0,"bongo.jpg",0,0
//Break Periods
2,25489,33289
//Storyboard Layer 0 (Background)
//Storyboard Layer 1 (Fail)
//Storyboard Layer 2 (Pass)
//Storyboard Layer 3 (Foreground)
//Storyboard Layer 4 (Overlay)
//Storyboard Sound Samples

[TimingPoints]
147,285.714285714286,4,2,1,70,1,0
6861,-100,4,2,2,70,0,0
7147,-100,4,2,1,70,0,0
8004,-100,4,2,3,70,0,0
8289,-100,4,2,1,70,0,0
11575,-1000,4,2,1,70,0,0
13718,-1000,4,2,1,5,0,0
13861,-1000,4,2,1,70,0,0
14861,-1000,4,2,1,5,0,0
15004,-100,4,2,1,70,0,0
15147,-100,4,2,2,70,0,0
15289,-100,4,2,1,70,0,0
15575,-100,4,2,1,70,0,0
16004,-83.3333333333333,4,2,1,80,0,0
25289,-83.3333333333333,4,2,1,60,0,0
34432,-111.111111111111,4,2,1,70,0,0
57289,-90.9090909090908,4,2,1,70,0,0
61575,-90.9090909090908,4,2,2,70,0,0
61718,-90.9090909090908,4,2,1,70,0,0
61861,-500,4,2,1,70,0,0
64004,-500,4,2,1,80,0,0
64147,-133.333333333333,4,2,1,80,0,0
65147,-83.3333333333333,4,2,1,80,0,0
66147,-250,4,2,1,80,0,0
66432,-76.9230769230769,4,2,1,90,0,0
75075,-76.9230769230769,4,2,1,5,0,0
75289,-76.9230769230769,4,2,1,90,0,0
75361,-76.9230769230769,4,2,1,5,0,0
75575,-76.9230769230769,4,2,1,90,0,0
85147,-76.9230769230769,4,2,2,90,0,0
85432,-76.9230769230769,4,2,1,90,0,0
85861,-76.9230769230769,4,2,1,90,0,0
86718,-90.9090909090909,4,2,1,90,0,0
86861,-90.9090909090909,4,2,1,80,0,0
90147,-90.9090909090909,4,2,2,80,0,0
90432,-90.9090909090909,4,2,1,70,0,0
90789,-90.9090909090909,4,2,1,5,0,0
90861,-90.9090909090909,4,2,1,70,0,0
91075,-90.9090909090909,4,2,1,5,0,0
91147,-500,4,2,1,70,0,0
91504,-500,4,2,1,5,0,0
91575,-500,4,2,1,60,0,0
98432,-100,4,2,1,70,0,0
100432,-100,4,2,1,70,0,0
100575,-100,4,2,2,70,0,0
100718,-125,4,2,1,70,0,0
108575,-100,4,2,1,70,0,0
114432,-100,4,2,1,80,0,0
119004,-76.9230769230769,4,2,1,80,0,0
127647,-76.9230769230769,4,2,1,5,0,0
127861,-76.9230769230769,4,2,1,80,0,0
127932,-76.9230769230769,4,2,1,5,0,0
128147,-76.9230769230769,4,2,1,80,0,0
137718,-76.9230769230769,4,2,2,80,0,0
138004,-76.9230769230769,4,2,1,90,0,0
138432,-76.9230769230769,4,2,1,90,0,0
139575,-90.9090909090909,4,2,1,75,0,0
157718,-90.9090909090909,4,2,1,85,0,0
164575,-76.9230769230769,4,2,1,85,0,0
166432,-76.9230769230769,4,2,2,85,0,0
166718,-76.9230769230769,4,2,1,85,0,0
167004,-76.9230769230769,4,2,1,85,0,0
176147,-76.9230769230769,4,2,1,90,0,0
183004,-333.333333333333,4,2,1,70,0,0
185147,-333.333333333333,4,2,1,80,0,0
185718,-333.333333333333,4,2,2,80,0,0
186004,-333.333333333333,4,2,1,80,0,0
187575,-76.9230769230769,4,2,1,80,0,0
187647,-76.9230769230769,4,2,1,5,0,0
188575,-76.9230769230769,4,2,1,80,0,0
188647,-76.9230769230769,4,2,1,5,0,0
188861,-76.9230769230769,4,2,1,80,0,0
188932,-76.9230769230769,4,2,1,5,0,0
189147,-76.9230769230769,4,2,1,80,0,0
189720,-76.9230769230769,4,2,1,90,0,0
195861,-76.9230769230769,4,2,2,90,0,0
196147,-76.9230769230769,4,2,1,90,0,0
196718,-76.9230769230769,4,2,1,90,0,0
207004,-66.6666666666667,4,2,1,90,0,0
209149,-166.666666666667,4,2,1,80,0,0
218861,-166.666666666667,4,2,2,80,0,0

[Colours]
Combo1 : 159,159,223
Combo2 : 219,149,149
Combo3 : 223,159,223
Combo4 : 159,223,159

[HitObjects]
256,192,147,12,6,4718,1:2:0:0:
338,293,5718,5,6,1:2:0:0:
274,168,6718,5,8,0:0:0:0:
348,302,6861,2,0,L|374:134,1,170,2|0,1:2|0:0,0:0:0:0:
465,179,7289,5,2,0:0:0:0:
262,280,7432,1,2,0:0:0:0:
262,280,7504,1,2,0:0:0:0:
262,279,7575,2,0,P|222:269|192:239,1,85,10|8,0:0|0:3,0:0:0:0:
372,213,7861,5,6,0:3:0:0:
43,282,8004,2,0,P|123:306|171:374,1,170,2|8,1:2|0:0,0:0:0:0:
298,111,8432,5,0,0:0:0:0:
247,43,8575,2,0,B|214:71|214:71|211:113,1,85,0|0,1:0|0:0,0:0:0:0:
257,190,8861,5,2,1:2:0:0:
348,28,9004,1,2,1:2:0:0:
139,50,9147,1,2,1:2:0:0:
359,192,9289,6,0,L|398:176,5,42.5,10|0|0|0|0|0,0:0|1:2|1:2|1:2|1:2|1:2,0:0:0:0:
471,284,9718,2,0,L|431:268,1,42.5,2|0,1:2|1:2,0:0:0:0:
332,375,9861,5,10,0:0:0:0:
334,343,9932,1,0,1:2:0:0:
327,312,10003,1,0,1:2:0:0:
310,285,10075,1,0,1:2:0:0:
286,264,10146,1,0,1:2:0:0:
257,251,10218,1,0,1:2:0:0:
226,248,10289,2,0,L|212:300,5,42.5,2|2|8|0|0|0,0:2|1:2|0:0|1:2|1:2|1:2,0:0:0:0:
344,197,10718,5,2,1:2:0:0:
375,190,10789,1,0,1:2:0:0:
406,182,10860,1,2,1:2:0:0:
437,174,10932,1,0,1:2:0:0:
467,166,11004,5,10,0:0:0:0:
425,156,11075,1,8,0:0:0:0:
384,146,11146,1,10,0:0:0:0:
342,137,11218,1,8,0:0:0:0:
301,127,11289,5,2,1:2:0:0:
352,113,11361,1,0,1:2:0:0:
403,100,11432,1,2,1:2:0:0:
455,86,11504,1,0,1:2:0:0:
506,73,11575,6,0,B|492:133|492:133|497:150|497:150|479:204,1,136,6|2,1:2|0:0,0:0:0:0:
256,192,13932,12,0,14932,0:0:0:0:
181,286,15004,5,8,0:0:0:0:
149,289,15075,1,8,0:3:0:0:
119,300,15146,1,8,0:3:0:0:
93,318,15218,1,8,0:3:0:0:
71,341,15289,5,8,0:3:0:0:
68,309,15361,1,8,0:3:0:0:
57,279,15432,1,4,0:3:0:0:
39,253,15504,1,4,0:3:0:0:
16,231,15575,5,10,0:0:0:0:
48,228,15647,1,2,0:0:0:0:
78,217,15718,1,10,0:0:0:0:
104,199,15790,1,2,0:0:0:0:
126,176,15861,1,10,0:0:0:0:
499,126,16004,6,0,B|420:110|420:110|418:107|418:107|350:93,1,152.999995330811,6|0,1:2|0:0,0:0:0:0:
333,100,16289,1,2,1:2:0:0:
239,157,16432,5,10,0:0:0:0:
432,65,16575,1,2,0:0:0:0:
241,20,16718,5,2,1:2:0:0:
362,178,16861,1,2,1:2:0:0:
241,20,17004,1,8,0:0:0:0:
107,163,17147,6,0,L|130:314,1,152.999995330811,2|0,1:2|0:0,0:0:0:0:
150,331,17432,1,2,1:2:0:0:
39,233,17575,1,10,0:0:0:0:
217,225,17718,5,2,0:0:0:0:
228,219,17789,1,2,0:0:0:0:
239,214,17861,1,2,1:2:0:0:
38,361,18004,2,0,P|4:335|44:321,1,101.999996887207,2|8,1:2|0:0,0:0:0:0:
302,347,18289,6,0,P|401:357|488:306,1,203.999993774414,6|2,1:2|1:2,0:0:0:0:
354,149,18718,1,10,0:0:0:0:
447,180,18861,1,2,0:0:0:0:
326,229,19004,5,2,1:2:0:0:
468,100,19147,1,2,1:2:0:0:
411,261,19289,5,8,0:0:0:0:
332,53,19432,2,0,P|239:77|236:172,1,203.999993774414,6|2,1:2|1:2,0:0:0:0:
373,157,19861,1,10,0:0:0:0:
437,286,20004,1,2,0:0:0:0:
344,381,20147,1,2,1:2:0:0:
223,326,20289,1,2,1:2:0:0:
214,315,20361,1,2,0:0:0:0:
206,305,20432,1,10,0:0:0:0:
237,173,20575,2,0,P|257:187|280:199,1,50.9999984436036,2|0,0:0|0:0,0:0:0:0:
462,157,20718,6,0,P|411:156|365:177,1,101.999996887207,6|2,1:2|0:0,0:0:0:0:
299,338,21004,1,10,0:0:0:0:
155,253,21147,1,2,0:0:0:0:
286,155,21289,5,2,1:2:0:0:
82,301,21432,2,0,B|56:228|56:228|109:175,1,152.999995330811,2|0,1:2|0:0,0:0:0:0:
155,253,21718,6,0,B|229:275|229:275|241:285|241:285|299:301,1,152.999995330811,2|0,1:2|0:0,0:0:0:0:
370,258,22004,1,2,1:2:0:0:
211,383,22147,1,10,0:0:0:0:
370,258,22289,1,2,0:0:0:0:
281,100,22432,5,2,1:2:0:0:
281,100,22575,2,0,L|295:200,1,101.999996887207,2|8,1:2|0:0,0:0:0:0:
83,321,22861,6,0,P|132:234|104:139,1,203.999993774414,6|2,1:2|1:2,0:0:0:0:
188,114,23289,2,0,P|163:70|115:53,1,101.999996887207,10|2,0:0|0:0,0:0:0:0:
22,164,23575,2,0,P|46:207|94:224,2,101.999996887207,2|2|8,1:2|1:2|0:0,0:0:0:0:
271,51,24004,6,0,P|288:147|219:217,1,203.999993774414,6|10,1:2|0:0,0:0:0:0:
66,365,24432,1,10,0:0:0:0:
263,315,24575,1,10,0:0:0:0:
83,106,24718,5,0,1:0:0:0:
125,172,24861,2,0,L|324:213,1,203.999993774414,10|0,0:0|1:0,0:0:0:0:
324,213,25218,1,0,1:0:0:0:
324,213,25289,1,0,1:0:0:0:
294,151,34289,5,8,0:0:0:0:
294,151,34361,1,8,0:0:0:0:
294,151,34432,1,2,1:2:0:0:
234,88,34575,1,0,0:0:0:0:
165,126,34718,2,0,L|91:106,1,76.4999976654053,10|0,0:0|0:0,0:0:0:0:
213,197,35004,6,0,L|175:345,1,152.999995330811,2|8,1:2|0:0,0:0:0:0:
28,236,35432,2,0,L|103:222,1,76.4999976654053,2|0,0:0|1:0,0:0:0:0:
274,281,35718,1,2,0:0:0:0:
343,245,35861,1,10,0:0:0:0:
274,281,36004,5,2,0:0:0:0:
383,378,36147,2,0,L|399:303,1,76.4999976654053,2|2,1:2|0:0,0:0:0:0:
271,106,36432,2,0,P|294:178|304:254,1,152.999995330811,10|0,0:0|1:0,0:0:0:0:
304,254,36861,1,0,0:0:0:0:
48,335,37004,6,0,P|85:342|119:360,1,76.4999976654053,10|0,0:0|0:0,0:0:0:0:
304,254,37289,2,0,P|229:269|153:277,1,152.999995330811,2|8,1:2|0:0,0:0:0:0:
75,216,37718,2,0,B|84:118|44:156|50:67,1,152.999995330811,2|2,0:0|0:0,0:0:0:0:
228,64,38147,1,10,0:0:0:0:
147,103,38289,1,2,0:0:0:0:
154,22,38432,5,2,1:2:0:0:
219,145,38575,1,2,0:0:0:0:
400,25,38718,2,0,B|340:34|340:34|328:42|328:42|250:50,1,152.999995330811,10|0,0:0|1:0,0:0:0:0:
479,89,39147,5,0,0:0:0:0:
410,30,39289,2,0,P|398:66|388:103,1,76.4999976654053,10|0,0:0|0:0,0:0:0:0:
296,128,39575,1,2,1:2:0:0:
468,164,39718,2,0,P|395:154|346:209,1,152.999995330811,2|2,0:0|0:0,0:0:0:0:
424,288,40147,5,0,1:0:0:0:
323,359,40289,2,0,L|305:284,1,76.4999976654053,0|10,0:0|0:0,0:0:0:0:
215,106,40575,1,0,0:0:0:0:
215,106,40718,2,0,L|287:130,1,76.4999976654053,2|0,1:2|0:0,0:0:0:0:
110,236,41004,2,0,P|60:257|53:311,1,114.749996498108,10|0,0:0|0:0,0:0:0:0:
71,326,41289,5,2,1:2:0:0:
157,359,41432,1,0,0:0:0:0:
209,291,41575,1,8,0:0:0:0:
463,264,41718,5,2,0:0:0:0:
383,288,41861,1,0,1:0:0:0:
326,226,42004,1,0,0:0:0:0:
127,201,42147,5,10,0:0:0:0:
245,22,42289,2,0,L|260:174,1,152.999995330811,0|10,0:0|0:2,0:0:0:0:
343,51,42718,5,0,1:0:0:0:
176,127,42861,1,0,0:0:0:0:
343,203,43004,1,2,1:2:0:0:
201,270,43147,5,8,0:2:0:0:
306,302,43289,1,2,1:2:0:0:
243,359,43432,1,8,0:0:0:0:
16,136,43575,6,0,B|114:125|89:155|170:147,1,152.999995330811,6|8,1:2|0:0,0:0:0:0:
229,91,44004,1,0,0:0:0:0:
306,114,44147,1,0,1:0:0:0:
322,190,44289,1,0,1:0:0:0:
262,241,44432,1,2,0:0:0:0:
185,221,44575,1,8,0:0:0:0:
501,36,44718,6,0,P|432:61|414:132,1,152.999995330811,2|8,1:2|0:0,0:0:0:0:
359,199,45147,1,0,0:0:0:0:
337,107,45290,1,0,1:0:0:0:
420,55,45433,1,0,1:0:0:0:
495,111,45576,1,10,0:0:0:0:
466,203,45718,1,0,1:0:0:0:
271,358,45861,6,0,L|284:282,1,76.4999976654053,2|2,1:2|0:0,0:0:0:0:
367,333,46147,1,8,0:0:0:0:
195,299,46289,5,2,0:0:0:0:
195,299,46361,1,2,0:0:0:0:
195,299,46432,1,2,1:2:0:0:
378,344,46575,2,0,B|426:324|426:324|431:316|431:316|480:296,1,114.749996498108,2|0,1:2|0:0,0:0:0:0:
498,284,46861,2,0,L|422:271,1,76.4999976654053,10|0,0:0|0:0,0:0:0:0:
236,132,47147,5,2,0:0:0:0:
285,193,47289,1,10,0:0:0:0:
315,121,47432,1,2,0:0:0:0:
207,208,47576,5,2,1:2:0:0:
268,59,47718,1,0,1:0:0:0:
363,182,47861,2,0,L|437:166,1,76.4999976654053,10|0,0:0|0:0,0:0:0:0:
173,82,48147,6,0,L|22:54,1,152.999995330811,6|8,1:2|0:0,0:0:0:0:
197,174,48575,1,0,0:0:0:0:
114,158,48718,1,0,1:0:0:0:
31,140,48861,1,0,1:0:0:0:
142,239,49004,1,2,0:0:0:0:
58,221,49147,1,8,0:0:0:0:
294,363,49289,6,0,P|287:287|280:211,1,152.999995330811,2|8,1:2|0:0,0:0:0:0:
333,149,49718,1,0,0:0:0:0:
205,270,49861,1,0,1:0:0:0:
228,151,50004,1,2,1:2:0:0:
367,268,50147,2,0,P|404:276|441:286,1,76.4999976654053,10|0,0:0|0:0,0:0:0:0:
141,345,50432,6,0,P|70:324|53:253,1,152.999995330811,2|10,1:2|0:0,0:0:0:0:
266,225,50861,1,0,0:0:0:0:
104,56,51004,5,2,1:2:0:0:
161,165,51147,1,0,1:2:0:0:
104,56,51289,1,2,0:0:0:0:
3,144,51432,6,0,P|78:158|152:175,1,152.999995330811,10|2,0:0|1:2,0:0:0:0:
416,53,51861,2,0,P|378:61|340:66,1,76.4999976654053,10|2,0:0|0:0,0:0:0:0:
234,30,52147,5,2,1:2:0:0:
242,273,52289,2,0,P|253:197|266:121,1,152.999995330811,0|0,1:0|0:0,0:0:0:0:
511,185,52718,6,0,B|420:181|446:212|360:204,1,152.999995330811,6|8,1:2|0:0,0:0:0:0:
446,277,53147,1,0,0:0:0:0:
468,357,53289,1,0,1:0:0:0:
361,285,53432,1,0,1:0:0:0:
383,365,53575,2,0,L|395:274,1,76.4999976654053,10|2,0:0|0:0,0:0:0:0:
78,264,53861,6,0,P|150:239|215:200,1,152.999995330811,2|8,1:2|0:0,0:0:0:0:
217,107,54289,1,0,0:0:0:0:
117,156,54432,1,0,1:0:0:0:
54,81,54575,1,0,1:0:0:0:
142,62,54718,2,0,L|129:137,1,76.4999976654053,10|0,0:0|0:0,0:0:0:0:
58,325,55004,6,0,L|133:312,1,76.4999976654053,2|0,1:2|0:0,0:0:0:0:
266,192,55289,1,8,0:0:0:0:
448,301,55432,6,0,L|372:286,1,76.4999976654053,2|0,0:0|1:0,0:0:0:0:
245,113,55718,1,0,1:0:0:0:
44,233,55861,6,0,L|119:220,1,76.4999976654053,10|0,0:0|0:0,0:0:0:0:
291,46,56147,1,0,1:0:0:0:
499,229,56289,6,0,L|349:195,1,152.999995330811,2|0,0:0|0:0,0:0:0:0:
222,372,56718,6,0,B|231:269|202:302|211:220,1,152.999995330811,2|8,1:2|0:0,0:0:0:0:
430,82,57147,5,8,0:0:0:0:
431,93,57218,1,8,0:0:0:0:
433,106,57289,1,14,0:0:0:0:
109,202,57432,1,2,0:0:0:0:
343,62,57575,5,10,0:0:0:0:
156,282,57718,1,2,0:0:0:0:
248,80,57861,5,10,0:0:0:0:
257,277,58004,1,0,1:0:0:0:
222,159,58147,5,10,0:0:0:0:
299,193,58289,1,2,1:2:0:0:
178,233,58432,5,8,0:0:0:0:
322,110,58575,1,0,1:0:0:0:
249,303,58718,5,10,0:0:0:0:
248,67,58861,1,0,1:0:0:0:
360,287,59004,5,10,0:0:0:0:
155,86,59147,1,2,1:2:0:0:
359,183,59289,5,8,0:0:0:0:
309,193,59360,1,0,1:0:0:0:
260,204,59432,1,2,1:2:0:0:
211,214,59504,1,0,1:0:0:0:
162,225,59575,5,14,0:0:0:0:
372,298,59718,2,0,L|413:319,2,46.7500014266968,10|8|0,0:0|0:0|1:0,0:0:0:0:
93,274,60004,5,10,0:0:0:0:
326,134,60147,2,0,L|369:118,2,46.7500014266968,10|8|0,0:0|0:0|1:0,0:0:0:0:
51,200,60432,5,10,0:0:0:0:
417,294,60575,2,0,L|461:308,2,46.7500014266968,10|8|0,0:0|0:0|1:0,0:0:0:0:
0,263,60861,5,10,0:0:0:0:
375,98,61004,2,0,L|432:78,2,46.7500014266968,10|8|0,0:0|0:0|1:0,0:0:0:0:
166,377,61289,5,8,0:3:0:0:
168,366,61360,1,8,0:3:0:0:
170,355,61431,1,4,0:3:0:0:
173,343,61503,1,4,0:3:0:0:
175,332,61574,1,8,0:3:0:0:
177,320,61646,1,8,0:3:0:0:
180,309,61717,1,0,1:0:0:0:
182,297,61789,1,0,1:0:0:0:
184,287,61861,6,0,P|181:261|177:236,4,51,10|2|2|2|2,0:0|0:0|0:0|0:0|0:0,0:0:0:0:
90,160,64004,5,0,1:0:0:0:
90,160,64075,1,0,1:0:0:0:
90,160,64147,2,0,L|48:170,2,42.5000016212464,10|0|0,0:0|0:0|0:0,0:0:0:0:
187,179,64432,2,0,L|216:209,2,42.5000016212464,2|0|0,0:0|0:0|1:0,0:0:0:0:
158,82,64718,1,10,0:0:0:0:
159,75,64789,1,2,0:0:0:0:
161,68,64860,1,2,0:0:0:0:
163,61,64932,1,2,0:0:0:0:
165,54,65004,2,0,L|173:23,1,31.8750012159348,2|2,0:0|0:0,0:0:0:0:
37,260,65147,6,0,P|112:271|183:299,1,152.999995330811,14|0,0:0|0:0,0:0:0:0:
192,312,65432,2,0,L|181:362,1,50.9999984436036,10|0,0:0|0:0,0:0:0:0:
313,141,65575,2,0,L|302:90,1,50.9999984436036,10|0,0:0|0:0,0:0:0:0:
510,172,65718,6,0,B|434:194|434:194|418:218|418:218|326:247,1,203.999993774414,10|10,0:0|0:0,0:0:0:0:
326,246,66147,2,0,L|336:296,1,51,2|0,1:2|1:0,0:0:0:0:
420,331,66432,6,0,B|449:224|397:260|416:170,1,165.749992412568,6|0,1:2|0:0,0:0:0:0:
379,91,66718,2,0,B|432:77|432:77|479:106,1,110.499994941712,10|0,0:0|0:0,0:0:0:0:
501,209,67004,5,2,1:2:0:0:
293,56,67146,1,2,1:2:0:0:
501,209,67289,1,8,0:0:0:0:
328,347,67432,2,0,P|250:348|222:275,1,165.749992412568,2|0,1:2|0:0,0:0:0:0:
290,234,67718,1,0,1:0:0:0:
377,36,67861,5,10,0:0:0:0:
478,168,68004,1,0,0:0:0:0:
323,119,68147,1,2,1:2:0:0:
480,72,68289,5,2,1:2:0:0:
305,127,68432,2,0,L|250:118,1,55.2499974708558,10|2,0:0|0:0,0:0:0:0:
45,301,68575,5,6,1:2:0:0:
45,301,68861,5,2,1:2:0:0:
177,208,69004,1,8,0:0:0:0:
185,376,69147,2,0,L|166:323,1,55.2499974708558,2|0,0:0|0:0,0:0:0:0:
72,204,69289,5,2,1:2:0:0:
266,292,69432,2,0,P|348:308|426:336,1,165.749992412568,2|0,1:2|0:0,0:0:0:0:
507,152,69718,6,0,B|369:127|425:203|280:157,1,220.999989883423,2|0,1:2|1:0,0:0:0:0:
54,117,70147,2,0,P|163:114|253:54,1,220.999989883423,8|0,0:0|1:0,0:0:0:0:
338,84,70575,5,2,1:2:0:0:
205,197,70718,1,10,0:0:0:0:
158,26,70861,1,2,0:0:0:0:
347,208,71004,6,0,P|401:215|454:231,1,110.499994941712,4|2,1:2|0:0,0:0:0:0:
454,231,71218,1,2,0:0:0:0:
454,231,71289,1,10,0:0:0:0:
379,297,71432,1,2,0:0:0:0:
275,135,71575,6,0,P|316:98|352:56,1,110.499994941712,0|0,1:2|1:0,0:0:0:0:
352,56,71789,1,2,0:0:0:0:
352,56,71861,1,10,0:0:0:0:
249,52,72004,1,2,0:0:0:0:
166,271,72146,6,0,P|197:316|216:368,1,110.499994941712,0|2,1:2|0:0,0:0:0:0:
216,368,72361,1,2,0:0:0:0:
216,368,72432,1,10,0:0:0:0:
114,349,72575,1,2,0:0:0:0:
85,110,72718,6,0,P|102:58|117:5,1,110.499994941712,0|2,1:2|1:2,0:0:0:0:
117,5,72932,1,2,0:0:0:0:
117,5,73004,1,10,0:0:0:0:
8,24,73147,1,2,1:2:0:0:
261,149,73289,5,14,0:0:0:0:
14,238,73432,1,0,1:0:0:0:
261,149,73575,1,0,1:0:0:0:
327,290,73718,5,10,0:0:0:0:
181,172,73861,1,0,1:0:0:0:
327,290,74004,1,0,1:0:0:0:
239,372,74147,5,10,0:0:0:0:
264,225,74289,1,0,1:0:0:0:
239,372,74432,1,0,1:0:0:0:
116,329,74575,5,10,0:0:0:0:
186,292,74718,1,0,1:0:0:0:
116,329,74861,1,0,1:0:0:0:
442,148,75004,6,0,L|493:167,1,55.2499974708558,10|0,0:0|0:0,0:0:0:0:
70,236,75289,6,0,L|18:216,1,55.2499974708558,10|0,0:0|0:0,0:0:0:0:
242,15,75575,6,0,P|254:96|258:179,1,165.749992412568,6|0,1:2|0:0,0:0:0:0:
201,238,75861,2,0,P|203:293|211:347,1,110.499994941712,10|0,0:0|0:0,0:0:0:0:
307,284,76147,5,2,1:2:0:0:
159,139,76289,1,2,1:2:0:0:
109,315,76432,1,8,0:0:0:0:
280,100,76575,6,0,B|416:88|356:143|495:129,1,220.999989883423,2|0,1:2|1:0,0:0:0:0:
344,243,77004,2,0,P|341:215|334:188,1,55.2499974708558,10|0,0:0|0:0,0:0:0:0:
443,50,77147,1,0,1:0:0:0:
318,8,77289,5,2,1:2:0:0:
450,219,77432,2,0,P|429:270|417:323,1,110.499994941712,2|10,1:2|0:0,0:0:0:0:
129,351,77718,6,0,P|195:307|197:227,1,165.749992412568,6|0,1:2|0:0,0:0:0:0:
114,208,78004,1,2,1:2:0:0:
293,275,78147,1,10,0:0:0:0:
45,372,78289,1,2,0:0:0:0:
222,371,78432,6,0,P|210:345|203:319,1,55.2499974708558,2|0,1:2|0:0,0:0:0:0:
203,213,78575,2,0,P|205:157|216:103,1,110.499994941712,2|8,1:2|0:0,0:0:0:0:
508,188,78861,6,0,B|429:196|429:196|409:226|409:226|305:244,1,220.999989883423,2|0,1:2|1:0,0:0:0:0:
120,45,79289,2,0,B|167:71|167:71|232:56|331:90,1,220.999989883423,8|0,0:0|1:0,0:0:0:0:
422,52,79718,5,2,1:2:0:0:
255,161,79861,1,10,0:0:0:0:
422,52,80004,1,2,0:0:0:0:
480,127,80147,6,0,L|462:179,1,55.2499974708558,6|0,1:2|0:0,0:0:0:0:
194,218,80289,1,2,0:0:0:0:
177,219,80361,1,2,0:0:0:0:
160,221,80432,1,10,0:0:0:0:
336,375,80575,5,2,0:0:0:0:
350,286,80718,2,0,B|355:193|310:223|319:125,1,165.749992412568,2|2,1:2|1:2,0:0:0:0:
336,114,81004,1,8,0:0:0:0:
263,275,81147,1,2,1:2:0:0:
487,263,81289,5,10,0:0:0:0:
487,263,81432,1,0,1:0:0:0:
207,157,81575,1,10,0:0:0:0:
207,157,81718,1,0,1:0:0:0:
25,263,81861,5,10,0:0:0:0:
25,263,82004,1,0,1:0:0:0:
305,157,82147,1,10,0:0:0:0:
278,381,82289,6,0,B|306:249|228:296|258:141,1,220.999989883423,6|0,1:2|1:0,0:0:0:0:
497,271,82718,2,0,P|445:210|366:222,1,165.749992412568,8|0,0:0|0:0,0:0:0:0:
361,239,83004,1,0,1:0:0:0:
185,329,83147,2,0,P|130:336|75:342,1,110.499994941712,0|8,1:0|0:0,0:0:0:0:
299,362,83432,5,0,1:0:0:0:
273,101,83575,2,0,P|268:156|267:211,1,110.499994941712,0|0,1:0|1:0,0:0:0:0:
37,202,83861,1,8,0:0:0:0:
37,202,84004,2,0,P|113:179|140:104,1,165.749992412568,0|0,1:0|0:0,0:0:0:0:
129,90,84289,1,2,1:2:0:0:
19,2,84432,2,0,P|27:57|39:111,1,110.499994941712,10|2,0:0|0:0,0:0:0:0:
295,24,84718,5,6,1:2:0:0:
348,17,84789,1,0,1:0:0:0:
396,43,84860,1,8,0:3:0:0:
419,93,84932,1,10,0:3:0:0:
409,146,85004,2,0,L|353:149,1,55.2499974708558,8|0,0:3|0:0,0:0:0:0:
93,239,85147,5,10,0:3:0:0:
108,245,85218,1,8,0:3:0:0:
123,251,85289,2,0,L|177:239,1,55.2499974708558,10|0,0:3|0:0,0:0:0:0:
394,311,85432,5,4,0:3:0:0:
391,294,85504,1,6,0:3:0:0:
377,285,85575,1,0,1:2:0:0:
361,291,85646,1,0,1:2:0:0:
356,307,85718,1,2,1:2:0:0:
365,320,85789,1,0,1:2:0:0:
382,323,85861,5,10,0:0:0:0:
115,162,86004,1,8,0:0:0:0:
427,120,86718,6,0,B|418:140|418:140|417:164,1,46.7500014266968,2|0,0:0|0:0,0:0:0:0:
511,155,86861,2,0,B|434:149|434:149|405:131|405:131|329:123,1,187.000005706787,2|2,1:2|0:0,0:0:0:0:
268,197,87289,1,10,0:0:0:0:
405,51,87432,2,0,B|432:137|432:137|387:223,1,187.000005706787,2|2,0:0|1:2,0:0:0:0:
314,119,87789,1,2,0:0:0:0:
314,119,87861,2,0,L|220:113,1,93.5000028533936,10|2,0:0|1:2,0:0:0:0:
148,53,88147,5,2,0:0:0:0:
263,190,88289,1,2,1:2:0:0:
161,245,88432,1,10,0:0:0:0:
3,149,88575,6,0,B|59:133|59:133|120:159|120:159|180:143,1,187.000005706787,2|0,0:0|1:0,0:0:0:0:
130,71,89004,1,8,0:0:0:0:
48,230,89147,6,0,L|82:366,1,140.25000428009,6|0,1:2|0:0,0:0:0:0:
170,338,89432,1,2,1:2:0:0:
170,338,89504,1,2,1:2:0:0:
170,338,89575,2,0,L|145:247,1,93.5000028533936,10|2,0:0|1:2,0:0:0:0:
221,194,89789,1,2,1:2:0:0:
228,216,89860,2,0,L|252:306,1,93.5000028533936,10|2,0:3|1:2,0:0:0:0:
343,294,90075,1,2,1:2:0:0:
334,274,90146,2,0,L|309:183,1,93.5000028533936,10|0,0:3|1:3,0:0:0:0:
405,211,90361,1,0,1:3:0:0:
450,227,90432,5,6,0:3:0:0:
512,179,90575,5,2,1:2:0:0:
478,109,90861,5,2,1:2:0:0:
402,119,91147,6,0,L|388:168,1,51,2|2,1:2|1:2,0:0:0:0:
387,168,91718,1,0,1:0:0:0:
99,283,92575,6,0,L|132:291,1,34,2|2,1:2|1:2,0:0:0:0:
182,351,93004,1,10,0:0:0:0:
105,366,93575,5,10,0:0:0:0:
306,247,93861,2,0,L|302:230,1,17,0|0,1:0|1:0,0:0:0:0:
246,182,94718,5,8,0:0:0:0:
246,182,94861,2,0,L|256:150,1,34,2|2,1:2|1:2,0:0:0:0:
330,137,95289,1,10,0:0:0:0:
373,204,95861,5,10,0:0:0:0:
172,66,96147,1,0,1:0:0:0:
172,66,96289,2,0,L|89:87,1,85,0|8,1:0|0:0,0:0:0:0:
89,88,97147,1,2,1:2:0:0:
165,159,97432,5,0,1:0:0:0:
165,159,97575,2,0,L|173:193,2,34,10|2|10,0:0|0:0|0:0,0:0:0:0:
76,233,98289,5,2,0:0:0:0:
76,233,98361,1,2,0:0:0:0:
76,233,98432,2,0,P|176:232|213:325,1,212.5,6|0,1:2|0:0,0:0:0:0:
220,171,98861,6,0,P|127:208|128:308,1,212.5,6|0,1:2|0:0,0:0:0:0:
195,253,99289,6,0,P|96:253|59:160,1,212.5,6|0,1:2|0:0,0:0:0:0:
54,323,99718,6,0,P|147:286|147:187,1,212.5,14|8,0:2|0:0,0:0:0:0:
56,187,100147,5,10,0:0:0:0:
190,111,100289,1,8,0:3:0:0:
273,197,100432,1,6,0:3:0:0:
342,164,100575,1,8,0:3:0:0:
405,217,100718,6,0,L|390:352,1,136,2|0,1:2|0:0,0:0:0:0:
390,352,101147,1,0,1:0:0:0:
499,141,101289,2,0,P|436:125|408:65,1,136,8|2,0:0|1:2,0:0:0:0:
482,43,101718,1,0,1:0:0:0:
338,164,101861,5,2,0:0:0:0:
338,164,102004,2,0,B|262:156|288:181|203:177,1,136,2|0,0:0|1:0,0:0:0:0:
22,336,102432,2,0,P|76:295|142:282,1,136,10|2,0:0|0:0,0:0:0:0:
304,308,102861,5,0,0:0:0:0:
215,356,103004,2,0,L|227:274,1,68,2|2,1:2|0:0,0:0:0:0:
280,228,103289,1,2,0:0:0:0:
359,243,103432,1,2,1:2:0:0:
386,324,103575,1,10,0:0:0:0:
468,332,103718,1,0,0:0:0:0:
495,254,103861,1,2,0:0:0:0:
441,194,104004,2,0,P|451:161|461:129,1,68,2|0,1:2|0:0,0:0:0:0:
367,23,104289,1,10,0:0:0:0:
391,98,104432,1,0,1:0:0:0:
317,132,104575,1,0,1:0:0:0:
291,56,104718,2,0,P|258:44|227:30,1,68,10|2,0:0|1:2,0:0:0:0:
398,103,105004,2,0,P|429:116|461:128,1,68,2|0,0:0|0:0,0:0:0:0:
309,149,105289,6,0,P|274:207|248:270,1,136,2|0,1:2|0:0,0:0:0:0:
248,270,105718,1,0,1:0:0:0:
493,285,105861,2,0,P|426:288|362:311,1,136,8|2,0:0|0:0,0:0:0:0:
362,311,106289,1,0,1:0:0:0:
176,197,106432,5,2,0:0:0:0:
175,197,106575,2,0,P|111:194|83:135,1,136,2|0,0:0|1:0,0:0:0:0:
269,2,107004,2,0,P|255:68|247:136,1,136,8|2,0:0|0:0,0:0:0:0:
175,47,107432,5,0,0:0:0:0:
321,184,107575,2,0,P|332:216|340:248,1,68,2|0,1:2|1:0,0:0:0:0:
264,328,107861,5,2,0:0:0:0:
417,196,108004,1,0,0:0:0:0:
427,325,108147,5,10,0:0:0:0:
243,217,108289,2,0,L|142:197,1,102,2|0,0:0|0:0,0:0:0:0:
108,228,108575,6,0,B|198:217|174:186|270:181,1,170,2|10,1:2|0:3,0:0:0:0:
350,134,109004,5,6,0:3:0:0:
227,361,109147,1,2,1:2:0:0:
112,136,109289,1,10,0:0:0:0:
227,360,109432,2,0,P|237:318|241:276,1,85,2|0,1:2|0:0,0:0:0:0:
191,85,109718,5,8,0:0:0:0:
10,212,109861,2,0,P|91:233|157:286,1,170,6|8,1:2|0:0,0:0:0:0:
269,161,110289,1,0,0:0:0:0:
269,161,110432,2,0,P|227:170|191:193,1,85,0|0,1:0|1:0,0:0:0:0:
70,67,110718,2,0,P|94:101|112:140,1,85,10|2,0:0|0:0,0:0:0:0:
405,356,111004,6,0,L|386:187,1,170,2|8,1:2|0:0,0:0:0:0:
481,211,111432,1,0,1:0:0:0:
481,211,111575,2,0,L|492:295,1,85,0|0,1:0|1:0,0:0:0:0:
320,323,111861,2,0,L|308:238,1,85,10|0,0:0|0:0,0:0:0:0:
489,73,112147,6,0,P|451:91|409:101,1,85,2|0,1:2|0:0,0:0:0:0:
350,53,112432,1,8,0:0:0:0:
397,288,112575,6,0,P|359:269|317:259,1,85,2|0,0:0|1:0,0:0:0:0:
258,308,112860,1,0,1:0:0:0:
255,86,113004,6,0,P|217:104|175:114,1,85,10|0,0:0|0:0,0:0:0:0:
116,66,113289,1,0,1:0:0:0:
163,301,113432,6,0,P|125:282|83:272,1,85,2|8,1:2|0:0,0:0:0:0:
24,321,113717,1,0,1:0:0:0:
256,191,113861,6,0,B|346:177|316:215|423:203,1,170,2|8,0:0|0:0,0:0:0:0:
423,203,114289,1,8,0:0:0:0:
425,30,114432,5,14,0:0:0:0:
369,287,114575,1,2,0:0:0:0:
288,23,114718,5,10,0:0:0:0:
322,211,114861,1,2,0:0:0:0:
162,56,115004,5,10,0:0:0:0:
254,145,115147,1,0,1:0:0:0:
82,159,115289,5,10,0:0:0:0:
164,144,115432,1,2,1:2:0:0:
70,319,115575,5,8,0:0:0:0:
139,217,115718,1,0,0:0:0:0:
270,384,115861,5,10,0:0:0:0:
155,301,116004,1,0,1:0:0:0:
418,243,116147,5,10,0:0:0:0:
252,298,116289,1,2,1:2:0:0:
416,50,116432,5,8,0:0:0:0:
322,208,116575,1,2,1:2:0:0:
196,32,116718,5,14,0:0:0:0:
385,136,116861,2,0,L|423:154,2,42.5,10|8|0,0:0|0:0|1:0,0:0:0:0:
285,4,117147,5,10,0:0:0:0:
314,237,117289,2,0,L|324:278,2,42.5,10|8|0,0:0|0:0|1:0,0:0:0:0:
393,37,117575,5,10,0:0:0:0:
179,252,117718,2,0,L|148:287,2,42.5,10|8|0,0:0|0:0|1:0,0:0:0:0:
483,102,118004,5,10,0:0:0:0:
116,124,118147,2,0,L|60:133,2,42.5,10|8|0,0:0|0:0|1:0,0:0:0:0:
379,332,118432,5,8,0:3:0:0:
388,307,118503,1,8,0:3:0:0:
395,281,118574,1,4,0:3:0:0:
396,255,118646,1,4,0:3:0:0:
387,230,118717,1,2,1:2:0:0:
374,207,118789,1,0,1:0:0:0:
370,181,118860,1,0,1:0:0:0:
374,154,118931,1,0,1:0:0:0:
380,128,119004,6,0,P|407:134|434:142,1,55.2499974708558,6|0,1:2|0:0,0:0:0:0:
302,273,119147,1,0,0:0:0:0:
129,134,119289,2,0,L|288:177,1,165.749992412568,10|0,0:0|0:0,0:0:0:0:
374,207,119575,5,2,1:2:0:0:
207,356,119718,2,0,P|209:301|187:251,1,110.499994941712,2|8,1:2|0:0,0:0:0:0:
449,126,120004,2,0,P|421:203|423:286,1,165.749992412568,2|0,1:2|0:0,0:0:0:0:
482,334,120289,1,0,1:0:0:0:
332,182,120432,6,0,L|279:197,1,55.2499974708558,10|0,0:0|0:0,0:0:0:0:
199,171,120575,1,0,1:0:0:0:
334,267,120718,5,2,1:2:0:0:
263,112,120861,2,0,L|277:58,2,55.2499974708558,2|0|10,1:2|0:0|0:0,0:0:0:0:
30,243,121147,6,0,B|172:219|106:281|244:270,1,220.999989883423,6|2,1:2|1:2,0:0:0:0:
435,174,121575,1,10,0:0:0:0:
352,357,121718,2,0,L|341:302,1,55.2499974708558,2|0,1:2|0:0,0:0:0:0:
433,314,121861,5,2,1:2:0:0:
222,176,122004,2,0,L|235:122,2,55.2499974708558,2|0|8,1:2|0:0|0:0,0:0:0:0:
477,27,122289,6,0,P|400:48|373:124,1,165.749992412568,2|0,1:2|0:0,0:0:0:0:
435,174,122575,1,0,1:0:0:0:
263,363,122718,2,0,B|289:218|226:271|243:147,1,220.999989883423,8|0,0:0|1:0,0:0:0:0:
474,289,123147,6,0,P|420:274|366:265,1,110.499994941712,2|10,1:2|0:0,0:0:0:0:
116,325,123432,2,0,P|143:319|169:310,1,55.2499974708558,2|0,0:0|0:0,0:0:0:0:
256,132,123575,6,0,P|256:75|260:21,1,110.499994941712,4|2,1:2|0:0,0:0:0:0:
259,21,123789,1,2,0:0:0:0:
259,21,123861,1,10,0:0:0:0:
347,86,124004,1,2,0:0:0:0:
157,186,124147,6,0,P|137:136|82:104,1,110.499994941712,0|2,1:2|1:2,0:0:0:0:
90,106,124361,1,2,0:0:0:0:
90,106,124432,1,10,0:0:0:0:
74,222,124575,1,2,0:0:0:0:
362,206,124718,6,0,P|399:164|448:139,1,110.499994941712,0|2,1:2|0:0,0:0:0:0:
446,139,124932,1,2,0:0:0:0:
446,139,125004,1,10,0:0:0:0:
463,233,125147,1,2,0:0:0:0:
163,317,125289,6,0,P|105:305|51:300,1,110.499994941712,0|2,1:2|1:2,0:0:0:0:
54,300,125504,1,2,0:0:0:0:
54,300,125575,1,10,0:0:0:0:
105,384,125718,1,2,1:2:0:0:
227,51,125861,5,14,0:0:0:0:
251,351,126004,1,0,1:0:0:0:
167,118,126147,1,0,1:0:0:0:
393,220,126289,5,10,0:0:0:0:
163,315,126432,1,0,1:0:0:0:
347,155,126575,1,0,1:0:0:0:
251,351,126718,5,10,0:0:0:0:
251,187,126861,1,0,1:0:0:0:
335,331,127004,1,0,1:0:0:0:
221,255,127147,5,10,0:0:0:0:
296,260,127289,1,0,1:0:0:0:
251,324,127432,1,0,1:0:0:0:
250,54,127575,6,0,L|256:0,1,55.2499974708558,10|0,0:0|0:0,0:0:0:0:
262,330,127861,6,0,L|255:384,1,55.2499974708558,10|0,0:0|0:0,0:0:0:0:
26,205,128147,6,0,P|82:147|160:163,1,165.749992412568,6|0,1:2|0:0,0:0:0:0:
197,234,128432,1,10,0:0:0:0:
71,340,128575,2,0,L|86:286,1,55.2499974708558,0|0,1:0|0:0,0:0:0:0:
348,198,128718,5,2,1:2:0:0:
202,249,128861,2,0,P|245:282|299:291,1,110.499994941712,2|8,1:2|0:0,0:0:0:0:
458,150,129147,2,0,P|401:208|387:289,1,165.749992412568,2|0,1:2|0:0,0:0:0:0:
451,333,129432,1,0,1:0:0:0:
352,105,129575,6,0,P|344:78|334:52,1,55.2499974708558,10|0,0:0|0:0,0:0:0:0:
434,60,129718,1,0,1:0:0:0:
277,171,129861,5,2,1:2:0:0:
298,260,130004,2,0,P|276:275|257:295,1,55.2499974708558,2|0,1:2|0:0,0:0:0:0:
149,53,130147,5,10,0:0:0:0:
9,126,130289,2,0,B|108:106|73:150|171:139,1,165.749992412568,6|0,1:2|0:0,0:0:0:0:
228,90,130575,1,2,1:2:0:0:
49,202,130718,6,0,L|34:255,1,55.2499974708558,10|0,0:0|0:0,0:0:0:0:
169,384,130861,2,0,L|183:330,1,55.2499974708558,2|0,0:0|0:0,0:0:0:0:
118,288,131004,5,2,1:2:0:0:
0,331,131147,2,0,L|14:384,2,55.2499974708558,2|0|8,1:2|0:0|0:0,0:0:0:0:
296,213,131432,6,0,B|373:196|373:196|384:182|384:182|450:165,1,165.749992412568,2|0,1:2|0:0,0:0:0:0:
468,177,131718,1,0,1:0:0:0:
225,83,131861,2,0,B|139:79|87:30|87:30|17:40,1,220.999989883423,8|0,0:0|1:0,0:0:0:0:
93,145,132289,5,2,1:2:0:0:
296,26,132432,2,0,B|322:77|322:77|304:127,1,110.499994941712,10|2,0:0|0:0,0:0:0:0:
36,262,132718,6,0,L|87:242,1,55.2499974708558,6|0,1:2|0:0,0:0:0:0:
223,165,132861,1,2,0:0:0:0:
218,192,132932,1,2,0:0:0:0:
213,219,133003,1,10,0:0:0:0:
356,312,133147,5,2,0:0:0:0:
467,223,133289,2,0,L|415:242,1,55.2499974708558,2|0,1:2|0:0,0:0:0:0:
262,372,133432,1,0,1:0:0:0:
257,345,133503,1,2,1:2:0:0:
252,318,133574,1,8,0:0:0:0:
166,304,133718,1,2,1:2:0:0:
324,234,133861,5,14,0:0:0:0:
324,234,134004,1,0,1:0:0:0:
90,130,134147,1,10,0:0:0:0:
90,130,134289,1,0,1:0:0:0:
272,40,134432,5,10,0:0:0:0:
272,40,134575,1,0,1:0:0:0:
149,297,134718,1,10,0:0:0:0:
512,146,134861,6,0,P|429:142|352:112,1,165.749992412568,6|0,1:2|0:0,0:0:0:0:
338,97,135147,1,0,1:0:0:0:
138,197,135289,2,0,P|162:185|188:175,1,55.2499974708558,8|0,0:0|0:0,0:0:0:0:
267,201,135432,1,0,1:0:0:0:
38,24,135575,5,0,1:0:0:0:
99,80,135718,1,0,1:0:0:0:
22,104,135861,1,8,0:0:0:0:
117,2,136004,1,0,1:0:0:0:
13,214,136147,6,0,P|119:225|171:318,1,220.999989883423,0|8,1:0|0:0,0:0:0:0:
416,77,136575,2,0,B|358:87|358:87|347:98|347:98|257:117,1,165.749992412568,0|0,1:0|0:0,0:0:0:0:
209,62,136861,1,2,1:2:0:0:
417,162,137004,6,0,L|427:216,1,55.2499974708558,10|0,0:0|0:0,0:0:0:0:
293,23,137147,1,2,0:0:0:0:
172,215,137289,5,6,1:2:0:0:
210,201,137361,1,0,1:0:0:0:
250,211,137431,1,8,0:3:0:0:
277,242,137503,1,10,0:3:0:0:
283,282,137575,2,0,L|219:295,1,55.2499974708558,8|0,0:3|0:0,0:0:0:0:
10,359,137718,5,10,0:3:0:0:
33,344,137789,1,8,0:3:0:0:
53,325,137860,1,10,0:3:0:0:
69,303,137932,1,8,0:3:0:0:
81,278,138003,1,4,0:3:0:0:
87,251,138075,1,6,0:3:0:0:
88,223,138146,1,0,1:2:0:0:
84,196,138218,1,0,1:2:0:0:
75,170,138289,1,2,1:2:0:0:
60,147,138360,1,0,1:2:0:0:
42,126,138432,5,14,0:0:0:0:
166,341,138575,1,8,0:0:0:0:
389,20,139575,5,6,1:2:0:0:
443,78,139718,1,2,0:0:0:0:
393,139,139861,1,2,0:0:0:0:
445,201,140004,5,2,1:2:0:0:
327,84,140147,2,0,B|261:58|261:58|203:96,1,140.25000428009,8|0,0:0|1:0,0:0:0:0:
272,148,140432,2,0,B|279:208|279:208|291:228|291:228|295:284,1,140.25000428009,2|0,0:0|0:0,0:0:0:0:
313,301,140718,5,0,1:0:0:0:
124,324,140861,2,0,L|213:352,1,93.5000028533936,2|0,1:2|1:0,0:0:0:0:
196,245,141147,5,2,1:2:0:0:
37,371,141289,2,0,B|12:257|63:310|36:186,1,187.000005706787,8|2,0:0|0:0,0:0:0:0:
169,161,141718,5,2,1:2:0:0:
7,66,141861,1,2,1:2:0:0:
7,66,142004,2,0,P|46:89|91:81,1,93.5000028533936,2|2,0:0|0:0,0:0:0:0:
272,125,142289,5,2,1:2:0:0:
172,45,142432,2,0,L|188:151,1,93.5000028533936,8|0,0:0|1:0,0:0:0:0:
119,195,142718,1,2,0:2:0:0:
265,213,142861,6,0,L|308:229,1,46.7500014266968,2|0,1:2|1:0,0:0:0:0:
432,22,143004,1,2,0:0:0:0:
505,166,143147,6,0,L|460:179,1,46.7500014266968,2|0,1:2|1:0,0:0:0:0:
428,37,143289,1,2,0:0:0:0:
307,71,143432,6,0,L|351:85,1,46.7500014266968,2|0,1:2|1:0,0:0:0:0:
424,52,143575,1,8,0:0:0:0:
378,163,143718,6,0,L|405:363,1,187.000005706787,2|0,1:2|1:2,0:0:0:0:
483,293,144147,5,6,1:2:0:0:
303,229,144289,2,0,P|257:237|225:270,1,93.5000028533936,0|2,0:0|0:0,0:0:0:0:
136,362,144575,2,0,P|68:354|36:295,1,140.25000428009,2|0,1:2|0:0,0:0:0:0:
51,280,144861,1,0,1:0:0:0:
201,168,145004,5,2,1:2:0:0:
105,151,145147,2,0,L|126:241,1,93.5000028533936,2|0,1:2|1:0,0:0:0:0:
303,357,145432,2,0,L|345:174,1,187.000005706787,2|2,1:2|1:2,0:0:0:0:
73,47,145861,6,0,B|87:118|87:118|80:147|80:147|98:229,1,187.000005706787,8|2,0:0|1:2,0:0:0:0:
176,159,146289,1,2,1:2:0:0:
107,334,146432,5,2,1:2:0:0:
107,334,146575,2,0,L|198:314,1,93.5000028533936,2|2,0:0|0:0,0:0:0:0:
417,207,146861,5,2,1:2:0:0:
494,262,147004,2,0,B|378:246|443:214|320:200,1,187.000005706787,10|2,0:0|1:2,0:0:0:0:
290,336,147432,6,0,L|273:292,1,46.7500014266968,2|0,1:2|1:0,0:0:0:0:
492,165,147575,1,0,1:0:0:0:
348,70,147718,6,0,L|334:114,1,46.7500014266968,2|0,1:2|1:0,0:0:0:0:
474,165,147861,1,0,1:0:0:0:
406,287,148004,6,0,L|392:242,1,46.7500014266968,2|0,1:2|1:0,0:0:0:0:
460,164,148147,1,8,0:0:0:0:
162,208,148289,5,10,0:0:0:0:
169,209,148361,1,8,0:0:0:0:
177,210,148431,1,0,1:0:0:0:
185,211,148503,1,0,1:0:0:0:
192,212,148574,1,0,1:0:0:0:
200,213,148646,1,0,1:0:0:0:
208,214,148717,5,6,1:2:0:0:
80,339,148861,2,0,B|60:291|60:291|76:252,1,93.5000028533936,0|2,1:0|0:0,0:0:0:0:
285,165,149147,2,0,B|311:125|311:125|302:79,1,93.5000028533936,2|10,1:2|0:0,0:0:0:0:
28,115,149432,5,0,0:0:0:0:
211,82,149575,1,2,0:0:0:0:
40,102,149718,2,0,L|154:130,1,93.5000028533936,2|0,1:2|1:0,0:0:0:0:
347,261,150004,2,0,L|163:294,1,187.000005706787,2|2,1:2|1:2,0:0:0:0:
292,354,150432,5,10,0:0:0:0:
263,202,150575,1,2,1:2:0:0:
423,309,150718,1,2,0:0:0:0:
409,209,150861,1,2,1:2:0:0:
175,296,151004,6,0,P|129:284|84:271,1,93.5000028533936,2|0,1:2|0:0,0:0:0:0:
13,316,151289,1,2,0:0:0:0:
225,368,151432,6,0,P|210:276|199:183,1,187.000005706787,2|0,1:2|0:0,0:0:0:0:
286,229,151861,1,2,0:0:0:0:
328,60,152004,2,0,P|336:105|341:152,1,93.5000028533936,2|0,1:2|1:0,0:0:0:0:
496,266,152289,6,0,B|429:277|429:277|421:283|421:283|360:292,1,140.25000428009,2|0,1:2|0:0,0:0:0:0:
345,305,152575,1,2,1:2:0:0:
104,285,152718,5,8,0:0:0:0:
238,336,152861,1,2,1:2:0:0:
156,357,153004,5,0,1:0:0:0:
186,276,153147,1,0,1:0:0:0:
75,165,153289,6,0,L|29:174,15,46.7500014266968,6|0|0|0|0|0|0|0|10|0|0|0|2|0|2|0,1:2|0:0|0:0|0:0|1:0|0:0|1:2|0:0|0:0|0:0|0:0|0:0|0:0|0:0|1:2|0:0,0:0:0:0:
181,113,154432,1,0,1:0:0:0:
179,107,154503,1,0,0:0:0:0:
178,101,154575,1,0,1:2:0:0:
177,95,154646,1,0,0:0:0:0:
176,90,154717,1,0,1:0:0:0:
175,84,154789,1,0,0:0:0:0:
174,78,154860,1,0,1:2:0:0:
172,72,154932,1,0,0:0:0:0:
171,67,155004,2,0,L|183:22,6,46.7500014266968,10|0|10|8|2|0|2,0:0|0:0|0:0|0:0|1:2|1:0|1:2,0:0:0:0:
349,161,155575,6,0,L|394:170,3,46.7500014266968,14|0|0|0,0:0|0:0|1:0|0:0,0:0:0:0:
159,242,155861,1,10,0:0:0:0:
132,251,155932,1,0,0:0:0:0:
105,260,156004,1,0,1:0:0:0:
78,269,156075,1,0,0:0:0:0:
51,278,156147,2,0,L|7:261,3,46.7500014266968,10|0|2|0,0:0|0:0|1:2|0:0,0:0:0:0:
332,310,156432,5,10,0:0:0:0:
359,319,156503,1,0,0:0:0:0:
386,328,156575,1,6,1:2:0:0:
413,337,156646,1,0,0:0:0:0:
440,346,156718,2,0,L|483:329,1,46.7500014266968,0|0,1:0|1:0,0:0:0:0:
271,229,156861,5,2,1:2:0:0:
282,203,156932,1,0,1:0:0:0:
293,177,157004,2,0,L|308:133,1,46.7500014266968,8|0,0:0|1:0,0:0:0:0:
107,177,157147,6,0,L|87:125,1,46.7500014266968,2|0,1:2|1:0,0:0:0:0:
119,60,157289,1,8,0:0:0:0:
69,299,157432,5,10,0:0:0:0:
112,284,157503,1,8,0:0:0:0:
158,291,157574,1,8,0:0:0:0:
195,318,157646,1,0,1:0:0:0:
215,360,157718,2,0,L|170:347,1,46.7500014266968,2|2,1:2|1:2,0:0:0:0:
315,197,157861,6,0,B|394:178|394:178|413:159|413:159|490:143,1,187.000005706787,6|8,1:2|0:0,0:0:0:0:
403,53,158218,1,2,0:0:0:0:
363,40,158289,1,2,0:0:0:0:
323,25,158361,1,2,0:0:0:0:
284,9,158432,2,0,P|199:37|185:125,1,187.000005706787,2|8,1:2|0:0,0:0:0:0:
467,252,158861,5,2,1:2:0:0:
478,282,158932,1,2,0:0:0:0:
460,308,159004,2,0,P|367:293|275:280,1,187.000005706787,2|8,0:0|0:0,0:0:0:0:
23,287,159432,1,2,0:0:0:0:
45,311,159504,1,2,0:0:0:0:
76,309,159575,2,0,P|126:237|70:171,1,187.000005706787,2|8,1:2|0:0,0:0:0:0:
247,33,160004,5,6,1:2:0:0:
247,33,160075,1,2,0:0:0:0:
247,33,160147,2,0,B|225:115|270:77|249:169,1,140.25000428009,2|0,0:0|0:0,0:0:0:0:
241,185,160432,1,10,0:0:0:0:
447,75,160575,6,0,L|357:49,1,93.5000028533936,2|0,0:0|1:0,0:0:0:0:
33,178,160861,6,0,L|123:153,1,93.5000028533936,2|8,1:2|0:0,0:0:0:0:
449,298,161147,6,0,L|312:264,1,140.25000428009,2|2,1:2|0:0,0:0:0:0:
289,287,161432,1,2,1:2:0:0:
256,282,161504,1,2,0:0:0:0:
232,304,161575,1,10,0:0:0:0:
199,301,161647,1,2,0:0:0:0:
176,325,161718,2,0,P|58:271|87:145,1,280.500008560181,2|8,0:0|0:0,0:0:0:0:
87,144,162432,5,14,0:0:0:0:
119,178,162503,1,0,0:0:0:0:
163,191,162574,1,0,1:2:0:0:
208,182,162646,1,0,0:0:0:0:
243,151,162717,1,10,0:0:0:0:
259,108,162789,1,0,0:0:0:0:
252,62,162861,2,0,L|185:44,1,46.7500014266968,0|0,1:2|0:0,0:0:0:0:
379,191,163004,5,10,0:0:0:0:
401,197,163075,1,2,0:0:0:0:
424,202,163146,1,2,1:2:0:0:
447,208,163218,1,2,0:0:0:0:
469,213,163289,2,0,L|455:257,1,46.7500014266968,2|0,1:2|0:0,0:0:0:0:
250,357,163432,5,12,0:0:0:0:
255,310,163503,1,0,0:0:0:0:
255,263,163574,1,2,1:2:0:0:
242,219,163646,1,0,0:0:0:0:
223,176,163717,1,0,1:2:0:0:
221,130,163789,1,0,0:0:0:0:
226,83,163861,2,0,L|297:93,1,46.7500014266968,10|0,0:0|0:0,0:0:0:0:
160,297,164004,5,0,1:2:0:0:
138,306,164075,1,0,0:0:0:0:
115,307,164146,1,10,0:0:0:0:
94,298,164218,1,2,0:0:0:0:
77,282,164289,1,2,1:2:0:0:
68,261,164361,1,2,0:0:0:0:
69,237,164432,2,0,L|139:252,1,46.7500014266968,2|0,1:2|0:0,0:0:0:0:
325,160,164575,6,0,L|488:135,1,165.749992412568,14|0,0:0|0:0,0:0:0:0:
258,74,164861,1,2,1:2:0:0:
258,74,164932,1,2,0:0:0:0:
258,74,165004,2,0,L|269:19,1,55.2499974708558,10|0,0:0|0:0,0:0:0:0:
420,255,165147,1,2,1:2:0:0:
420,255,165218,1,2,0:0:0:0:
420,255,165290,2,0,L|409:310,1,55.2499974708558,10|0,0:0|0:0,0:0:0:0:
212,191,165432,5,2,1:2:0:0:
212,191,165504,1,2,0:0:0:0:
212,191,165575,2,0,L|158:202,1,55.2499974708558,2|0,1:2|0:0,0:0:0:0:
366,53,165718,2,0,L|419:64,1,55.2499974708558,14|0,0:0|0:0,0:0:0:0:
309,267,165861,5,0,1:0:0:0:
89,30,166004,1,8,0:3:0:0:
93,66,166075,1,8,0:3:0:0:
98,102,166146,1,6,0:3:0:0:
103,138,166218,1,4,0:3:0:0:
82,165,166289,5,6,0:3:0:0:
79,190,166360,1,4,0:3:0:0:
75,216,166431,1,8,0:3:0:0:
71,242,166503,1,8,0:3:0:0:
103,265,166575,5,8,0:3:0:0:
104,280,166646,1,8,0:3:0:0:
107,297,166717,1,4,0:3:0:0:
109,313,166789,1,4,0:3:0:0:
86,342,166861,5,4,0:3:0:0:
84,352,166932,1,4,0:3:0:0:
82,361,167004,1,6,1:2:0:0:
198,191,167147,6,0,P|224:198|249:210,1,55.2499974708558,2|0,1:2|0:0,0:0:0:0:
350,213,167289,2,0,P|381:260|396:313,1,110.499994941712,10|0,0:0|1:0,0:0:0:0:
260,334,167575,6,0,P|277:312|288:287,1,55.2499974708558,2|0,1:2|0:0,0:0:0:0:
297,146,167718,2,0,P|282:92|248:49,1,110.499994941712,2|8,1:2|0:0,0:0:0:0:
29,192,168004,6,0,B|140:174|92:224|193:214,1,165.749992412568,2|0,1:2|0:0,0:0:0:0:
205,205,168289,1,2,1:2:0:0:
81,324,168432,2,0,L|66:270,1,55.2499974708558,8|0,0:0|0:0,0:0:0:0:
181,130,168575,1,2,1:2:0:0:
97,111,168718,5,2,1:2:0:0:
213,231,168861,1,2,1:2:0:0:
290,133,169004,2,0,P|292:78|274:26,1,110.499994941712,10|0,0:0|1:0,0:0:0:0:
274,26,169218,1,0,1:0:0:0:
274,26,169289,1,6,1:2:0:0:
457,53,169432,6,0,P|447:79|440:105,1,55.2499974708558,2|0,1:2|0:0,0:0:0:0:
484,220,169575,2,0,P|430:205|375:204,1,110.499994941712,10|0,0:0|1:0,0:0:0:0:
345,374,169861,6,0,L|332:320,1,55.2499974708558,2|0,1:2|0:0,0:0:0:0:
360,197,170004,2,0,P|306:211|251:212,1,110.499994941712,2|8,1:2|0:0,0:0:0:0:
142,379,170289,6,0,P|143:299|77:256,1,165.749992412568,2|0,1:2|0:0,0:0:0:0:
55,262,170575,1,2,1:2:0:0:
193,75,170718,2,0,L|184:129,1,55.2499974708558,8|0,0:0|0:0,0:0:0:0:
111,86,170861,1,2,1:2:0:0:
288,44,171004,5,2,1:2:0:0:
102,175,171147,1,0,1:0:0:0:
309,258,171289,2,0,P|299:203|292:148,1,110.499994941712,10|0,0:0|1:0,0:0:0:0:
292,148,171504,1,0,1:0:0:0:
292,148,171575,1,6,1:2:0:0:
42,349,171718,6,0,P|63:331|87:318,1,55.2499974708558,2|0,1:2|0:0,0:0:0:0:
135,257,171861,2,0,P|188:268|232:301,1,110.499994941712,10|0,0:0|1:0,0:0:0:0:
400,370,172147,5,2,1:2:0:0:
461,309,172289,2,0,L|443:199,1,110.499994941712,2|8,1:2|0:0,0:0:0:0:
332,25,172575,2,0,B|310:91|310:91|318:114|318:114|296:182,1,165.749992412568,2|0,1:2|0:0,0:0:0:0:
271,200,172861,1,2,1:2:0:0:
119,104,173004,2,0,B|176:91|176:91|223:113,1,110.499994941712,10|2,0:0|1:2,0:0:0:0:
251,284,173289,5,2,1:2:0:0:
168,184,173432,1,2,1:2:0:0:
109,243,173575,2,0,L|133:350,1,110.499994941712,10|0,0:0|0:0,0:0:0:0:
488,187,173861,6,0,P|406:181|345:127,1,165.749992412568,14|0,0:0|0:0,0:0:0:0:
344,106,174147,1,8,0:0:0:0:
47,212,174289,2,0,P|126:190|204:216,1,165.749992412568,2|0,1:2|0:0,0:0:0:0:
212,236,174575,1,0,1:0:0:0:
320,384,174718,2,0,P|306:302|319:220,1,165.749992412568,10|0,0:0|0:0,0:0:0:0:
335,209,175004,1,0,1:2:0:0:
191,0,175147,2,0,P|205:81|192:163,1,165.749992412568,2|0,1:2|0:0,0:0:0:0:
177,175,175433,1,0,1:0:0:0:
27,326,175575,5,2,1:2:0:0:
144,291,175718,1,8,0:0:0:0:
117,284,175789,1,0,1:0:0:0:
91,277,175860,1,8,0:3:0:0:
210,249,176004,1,4,0:3:0:0:
253,320,176147,6,0,P|279:314|306:305,1,55.2499974708558,6|0,1:2|0:0,0:0:0:0:
451,198,176289,1,2,1:2:0:0:
403,361,176432,2,0,L|379:252,1,110.499994941712,10|0,0:0|1:0,0:0:0:0:
246,85,176718,5,2,1:2:0:0:
338,43,176861,2,0,L|313:150,1,110.499994941712,2|8,1:2|0:0,0:0:0:0:
237,215,177147,6,0,B|105:186|165:264|24:240,1,220.999989883423,2|2,1:2|1:2,0:0:0:0:
141,384,177575,2,0,P|193:366|247:356,1,110.499994941712,10|2,0:0|1:2,0:0:0:0:
78,158,177861,5,2,1:2:0:0:
184,285,178004,1,2,1:2:0:0:
237,215,178147,2,0,P|246:160|253:105,1,110.499994941712,10|0,0:0|1:0,0:0:0:0:
253,105,178361,1,0,1:0:0:0:
253,105,178432,1,6,1:2:0:0:
398,236,178575,6,0,P|371:241|346:254,1,55.2499974708558,2|0,1:2|0:0,0:0:0:0:
366,351,178718,2,0,P|418:336|461:302,1,110.499994941712,10|0,0:0|1:0,0:0:0:0:
408,139,179004,2,0,P|327:158|261:206,1,165.749992412568,2|0,1:2|0:0,0:0:0:0:
254,227,179289,2,0,L|272:279,1,55.2499974708558,10|0,0:0|0:0,0:0:0:0:
64,349,179432,5,2,1:2:0:0:
64,349,179718,5,2,1:2:0:0:
131,196,179861,1,10,0:0:0:0:
171,366,180004,1,2,1:2:0:0:
4,229,180147,2,0,L|55:249,1,55.2499974708558,2|0,1:2|0:0,0:0:0:0:
217,158,180289,1,2,1:2:0:0:
147,288,180432,6,0,B|160:183|113:226|120:122,1,165.749992412568,10|0,0:0|1:0,0:0:0:0:
132,112,180718,1,14,0:0:0:0:
5,38,180861,6,0,P|27:55|52:67,1,55.2499974708558,2|0,1:2|0:0,0:0:0:0:
217,158,181004,2,0,P|265:131|298:87,1,110.499994941712,10|0,0:0|1:0,0:0:0:0:
447,96,181289,5,10,0:0:0:0:
206,62,181432,1,2,1:2:0:0:
447,96,181575,1,8,0:0:0:0:
283,269,181718,1,2,1:2:0:0:
283,269,181789,1,0,1:0:0:0:
283,269,181861,1,14,0:0:0:0:
327,0,182004,5,2,1:2:0:0:
433,237,182147,1,10,0:0:0:0:
165,216,182289,1,2,1:2:0:0:
473,112,182432,5,2,1:2:0:0:
198,40,182575,1,2,1:2:0:0:
295,171,182718,2,0,P|288:226|287:282,1,110.499994941712,10|8,0:0|0:0,0:0:0:0:
286,280,182932,1,8,0:0:0:0:
286,280,183004,6,0,L|361:293,4,76.4999976654053,2|2|2|2|2,1:2|0:0|0:0|0:0|0:0,0:0:0:0:
53,366,185147,5,0,1:0:0:0:
48,355,185218,1,0,1:0:0:0:
43,344,185289,1,10,0:3:0:0:
156,309,185432,1,10,0:3:0:0:
224,264,185575,5,6,0:3:0:0:
78,219,185718,1,10,0:3:0:0:
17,164,185861,5,10,0:3:0:0:
226,102,186004,1,6,0:3:0:0:
286,58,186147,5,10,0:0:0:0:
56,2,186289,1,10,0:3:0:0:
227,204,186432,5,0,1:0:0:0:
104,314,186575,1,10,0:0:0:0:
116,267,186646,1,8,0:0:0:0:
128,220,186718,1,10,0:0:0:0:
139,172,186789,1,8,0:0:0:0:
151,125,186861,1,2,1:2:0:0:
162,77,186932,1,0,1:0:0:0:
174,30,187003,1,10,0:0:0:0:
383,327,187575,6,0,L|437:316,1,55.2499974708558,6|0,1:2|0:0,0:0:0:0:
400,337,188575,6,0,L|454:326,1,55.2499974708558,2|0,1:2|0:0,0:0:0:0:
85,180,188861,2,0,L|30:169,1,55.2499974708558,2|0,1:2|0:0,0:0:0:0:
296,328,189147,2,0,L|458:297,1,165.749992412568,2|0,1:2|0:0,0:0:0:0:
502,226,189432,1,2,1:2:0:0:
502,226,189504,1,0,1:0:0:0:
502,226,189575,1,2,1:2:0:0:
245,21,189718,6,0,P|168:46|137:120,1,165.749992412568,6|0,1:2|0:0,0:0:0:0:
152,138,190004,1,2,1:2:0:0:
480,100,190147,2,0,P|455:87|432:71,1,55.2499974708558,10|0,0:0|0:0,0:0:0:0:
243,111,190289,1,2,0:0:0:0:
306,290,190432,5,2,1:2:0:0:
346,95,190575,2,0,L|332:41,2,55.2499974708558,2|0|8,1:2|0:0|0:0,0:0:0:0:
444,318,190861,2,0,B|301:286|373:348|213:322,1,220.999989883423,2|0,1:2|1:0,0:0:0:0:
37,145,191289,2,0,P|116:146|163:211,1,165.749992412568,8|0,0:0|0:0,0:0:0:0:
156,234,191575,1,0,1:0:0:0:
35,311,191718,2,0,L|52:363,2,55.2499974708558,2|2|10,1:2|0:0|0:0,0:0:0:0:
67,232,192004,1,2,0:0:0:0:
259,372,192147,6,0,P|236:321|234:267,1,110.499994941712,4|2,1:2|0:0,0:0:0:0:
234,267,192361,1,2,0:0:0:0:
234,267,192432,1,10,0:0:0:0:
455,325,192575,2,0,L|401:313,1,55.2499974708558,2|0,0:0|0:0,0:0:0:0:
250,283,192718,6,0,P|272:232|274:178,1,110.499994941712,0|2,1:2|1:2,0:0:0:0:
274,178,192932,1,2,0:0:0:0:
274,178,193003,1,10,0:0:0:0:
53,236,193146,2,0,L|106:224,1,55.2499974708558,2|0,0:0|0:0,0:0:0:0:
270,195,193289,6,0,P|247:144|245:90,1,110.499994941712,2|2,1:2|0:0,0:0:0:0:
246,90,193503,1,2,0:0:0:0:
246,90,193574,1,10,0:0:0:0:
467,148,193717,2,0,L|413:136,1,55.2499974708558,2|0,0:0|0:0,0:0:0:0:
259,108,193861,6,0,P|281:57|283:3,1,110.499994941712,0|2,1:2|1:2,0:0:0:0:
283,3,194075,1,2,0:0:0:0:
283,3,194146,1,10,0:0:0:0:
62,61,194289,2,0,L|115:49,1,55.2499974708558,2|0,1:2|0:0,0:0:0:0:
383,35,194432,5,14,0:0:0:0:
104,182,194575,1,0,1:0:0:0:
371,361,194718,1,0,1:0:0:0:
178,334,194861,5,10,0:0:0:0:
389,187,195004,1,0,1:0:0:0:
188,61,195147,1,0,1:0:0:0:
304,115,195289,5,10,0:0:0:0:
202,189,195432,1,0,1:0:0:0:
294,264,195575,1,8,0:3:0:0:
435,155,195718,5,10,0:3:0:0:
437,118,195789,1,8,0:3:0:0:
426,83,195860,1,8,0:3:0:0:
404,54,195932,1,8,0:3:0:0:
373,34,196003,1,8,0:3:0:0:
337,27,196075,1,8,0:3:0:0:
301,33,196147,6,0,L|320:104,1,55.2499974708558,6|4,0:3|0:3,0:0:0:0:
157,311,196289,2,0,L|171:257,1,55.2499974708558,4|4,0:3|0:3,0:0:0:0:
322,34,196432,6,0,L|341:105,1,55.2499974708558,2|0,1:3|0:0,0:0:0:0:
178,312,196574,2,0,L|192:258,1,55.2499974708558,0|0,1:0|1:0,0:0:0:0:
106,84,196718,6,0,L|89:31,3,55.2499974708558,2|0|0|0,1:2|1:0|1:0|1:0,0:0:0:0:
116,168,197004,6,0,P|139:153|164:142,1,55.2499974708558,6|0,1:2|0:0,0:0:0:0:
317,219,197147,2,0,P|295:202|278:180,1,55.2499974708558,2|2,0:0|0:0,0:0:0:0:
248,81,197289,5,2,1:2:0:0:
173,285,197432,1,2,1:2:0:0:
161,310,197504,1,0,1:0:0:0:
150,335,197575,1,8,0:0:0:0:
485,297,197718,6,0,B|416:275|416:275|404:257|404:257|336:232,1,165.749992412568,2|0,1:2|0:0,0:0:0:0:
267,272,198004,1,0,1:0:0:0:
480,204,198147,1,10,0:0:0:0:
336,332,198289,2,0,L|352:384,2,55.2499974708558,2|0|2,0:0|0:0|1:2,0:0:0:0:
274,154,198575,5,2,1:2:0:0:
485,297,198718,1,10,0:0:0:0:
222,364,198861,2,0,P|144:345|121:269,1,165.749992412568,6|0,1:2|0:0,0:0:0:0:
197,218,199147,2,0,L|249:235,1,55.2499974708558,2|0,1:2|0:0,0:0:0:0:
411,156,199289,1,10,0:0:0:0:
403,358,199432,5,2,0:0:0:0:
392,332,199504,1,2,0:0:0:0:
381,306,199575,1,2,1:2:0:0:
259,96,199718,2,0,L|247:149,1,55.2499974708558,2|0,1:2|0:0,0:0:0:0:
413,179,199861,5,8,0:0:0:0:
77,241,200004,2,0,B|216:217|152:281|292:259,1,220.999989883423,2|0,1:2|1:0,0:0:0:0:
507,139,200432,2,0,B|428:153|428:153|363:117|292:120,1,220.999989883423,8|0,0:0|1:0,0:0:0:0:
232,172,200861,1,2,1:2:0:0:
390,53,201004,1,10,0:0:0:0:
462,222,201147,1,2,0:0:0:0:
195,28,201289,6,0,L|214:192,1,165.749992412568,4|2,1:2|0:0,0:0:0:0:
268,248,201575,1,10,0:0:0:0:
116,126,201718,1,2,0:0:0:0:
21,296,201861,6,0,P|73:280|128:273,1,110.499994941712,0|2,1:2|1:2,0:0:0:0:
128,273,202075,1,2,0:0:0:0:
128,273,202147,1,10,0:0:0:0:
203,345,202289,1,2,1:2:0:0:
437,160,202432,5,10,0:0:0:0:
437,160,202575,1,0,1:0:0:0:
229,259,202718,1,10,0:0:0:0:
229,259,202861,1,0,1:0:0:0:
86,92,203004,5,10,0:0:0:0:
86,92,203147,1,0,1:0:0:0:
340,193,203289,1,10,0:0:0:0:
167,363,203432,6,0,B|210:217|138:266|173:147,1,220.999989883423,6|0,1:2|1:0,0:0:0:0:
239,93,203861,5,8,0:0:0:0:
324,106,204004,1,0,1:0:0:0:
143,153,204147,5,8,0:0:0:0:
388,189,204289,1,0,1:0:0:0:
72,199,204432,5,8,0:0:0:0:
443,254,204575,1,0,1:0:0:0:
59,187,204718,5,14,0:0:0:0:
430,132,204861,1,0,1:0:0:0:
114,122,205004,5,14,0:0:0:0:
359,86,205146,1,0,1:0:0:0:
178,39,205289,5,8,0:0:0:0:
263,26,205432,1,2,1:2:0:0:
242,175,205575,6,0,L|266:283,1,110.499994941712,14|2,0:0|1:2,0:0:0:0:
266,283,205789,1,0,1:0:0:0:
266,283,205861,5,14,0:0:0:0:
353,232,206004,1,0,1:0:0:0:
180,276,206147,5,8,0:0:0:0:
343,154,206289,1,2,1:2:0:0:
94,266,206432,5,10,0:0:0:0:
320,80,206575,1,0,1:0:0:0:
12,245,206718,5,8,0:0:0:0:
304,0,206861,1,2,1:2:0:0:
486,263,207004,1,14,0:0:0:0:
486,263,207861,5,10,0:0:0:0:
96,348,208004,1,10,0:0:0:0:
256,192,208075,12,6,210289,1:2:0:0:
