osu file format v14

[General]
AudioFilename: audio.mp3
AudioLeadIn: 0
PreviewTime: 118504
Countdown: 0
SampleSet: Soft
StackLeniency: 0.4
Mode: 0
LetterboxInBreaks: 0
WidescreenStoryboard: 1

[Editor]
DistanceSpacing: 1.4
BeatDivisor: 4
GridSize: 8
TimelineZoom: 3.799998

[Metadata]
Title:Sacrifice
TitleUnicode:Sacrifice
Artist:Ouse Akira
ArtistUnicode:逢瀬アキラ
Creator:Poyoyo
Version:Yua's Abnormally Insane
Source:ふゆから​、くるる。
Tags:ふゆくる fuyu kara kururu fuyukuru シルキーズプラス silky's plus galgame eroge visual novel opening rock japanese -yua cclemon LeeGod bongo GfMRT wei_0921
BeatmapID:3991720
BeatmapSetID:1877093

[Difficulty]
HPDrainRate:5
CircleSize:3.8
OverallDifficulty:8
ApproachRate:9
SliderMultiplier:1.4
SliderTickRate:1

[Events]
//Background and Video events
0,0,"yua.jpg",0,0
//Break Periods
//Storyboard Layer 0 (Background)
//Storyboard Layer 1 (Fail)
//Storyboard Layer 2 (Pass)
//Storyboard Layer 3 (Foreground)
//Storyboard Layer 4 (Overlay)
//Storyboard Sound Samples

[TimingPoints]
147,285.714285714286,4,2,1,50,1,0
147,-166.666666666667,4,2,1,40,0,0
1432,-166.666666666667,4,2,1,45,0,0
2861,-166.666666666667,4,2,1,50,0,0
4147,-166.666666666667,4,2,1,60,0,0
4718,-125,4,2,1,70,0,0
5718,-142.857142857143,4,2,1,70,0,0
6861,-166.666666666667,4,2,2,70,0,0
7147,-166.666666666667,4,2,1,70,0,0
8004,-125,4,2,3,70,0,0
8289,-125,4,2,1,70,0,0
9575,-100,4,2,1,70,0,0
13718,-100,4,2,1,5,0,0
13861,-250,4,2,1,70,0,0
14861,-250,4,2,1,5,0,0
15004,-100,4,2,1,70,0,0
15147,-100,4,2,2,70,0,0
15289,-100,4,2,1,70,0,0
16004,-83.3333333333333,4,2,1,80,0,0
24861,-125,4,2,1,80,0,0
25147,-125,4,2,1,5,0,0
25289,-166.666666666667,4,2,1,60,0,0
34004,-125,4,2,1,60,0,0
34432,-100,4,2,1,70,0,0
46004,-166.666666666667,4,2,1,70,0,0
48147,-100,4,2,1,70,0,0
50575,-166.666666666667,4,2,1,70,0,0
52718,-100,4,2,1,70,0,0
61289,-125,4,2,1,70,0,0
61575,-125,4,2,2,70,0,0
61718,-125,4,2,1,70,0,0
64004,-125,4,2,1,80,0,0
64147,-100,4,2,1,80,0,0
66432,-90.9090909090909,4,2,1,90,0,1
75004,-166.666666666667,4,2,1,90,0,1
75289,-90.9090909090909,4,2,1,90,0,1
75504,-90.9090909090909,4,2,1,90,0,1
75575,-90.9090909090909,4,2,1,90,0,1
85147,-90.9090909090909,4,2,2,90,0,1
85432,-90.9090909090909,4,2,1,90,0,1
86861,-100,4,2,1,80,0,0
90147,-100,4,2,2,80,0,0
90432,-100,4,2,1,70,0,0
90789,-100,4,2,1,5,0,0
90861,-100,4,2,1,70,0,0
91075,-100,4,2,1,5,0,0
91147,-100,4,2,1,70,0,0
91504,-100,4,2,1,5,0,0
91575,-125,4,2,1,60,0,0
98432,-125,4,2,1,70,0,0
100575,-125,4,2,2,70,0,0
100718,-166.666666666667,4,2,1,70,0,0
101289,-125,4,2,1,70,0,0
101861,-166.666666666667,4,2,1,70,0,0
102432,-125,4,2,1,70,0,0
103147,-166.666666666667,4,2,1,70,0,0
105861,-125,4,2,1,70,0,0
106432,-166.666666666667,4,2,1,70,0,0
107004,-125,4,2,1,70,0,0
107575,-166.666666666667,4,2,1,70,0,0
109861,-100,4,2,1,70,0,0
114432,-100,4,2,1,80,0,0
119004,-90.9090909090909,4,2,1,80,0,1
127575,-166.666666666667,4,2,1,80,0,1
127861,-90.9090909090909,4,2,1,80,0,1
128075,-90.9090909090909,4,2,1,80,0,1
128147,-90.9090909090909,4,2,1,80,0,1
137718,-90.9090909090909,4,2,2,80,0,1
138004,-90.9090909090909,4,2,1,90,0,1
139575,-90.9090909090909,4,2,1,75,0,0
140004,-166.666666666667,4,2,1,75,0,0
155861,-125,4,2,1,75,0,0
157718,-125,4,2,1,85,0,0
157861,-100,4,2,1,85,0,0
166432,-100,4,2,2,85,0,0
166718,-100,4,2,1,85,0,0
167289,-111.111111111111,4,2,1,85,0,0
176147,-111.111111111111,4,2,1,90,0,0
183004,-200,4,2,1,70,0,0
185147,-200,4,2,1,80,0,0
185289,-100,4,2,1,80,0,0
185718,-100,4,2,2,80,0,0
186004,-100,4,2,1,80,0,0
187611,-100,4,2,1,5,0,0
188575,-100,4,2,1,80,0,0
189147,-125,4,2,1,80,0,0
189575,-100,4,2,1,80,0,0
189718,-90.9090909090909,4,2,1,90,0,1
195861,-90.9090909090909,4,2,2,90,0,1
196147,-90.9090909090909,4,2,1,90,0,1
196718,-166.666666666667,4,2,1,90,0,1
197004,-90.9090909090909,4,2,1,90,0,1
207004,-125,4,2,1,90,0,1
208147,-125,4,2,1,90,0,0
209075,-125,4,2,1,5,0,0
209147,-125,4,2,1,80,0,0
210289,-83.3333333333333,4,2,1,80,0,0
218861,-83.3333333333333,4,2,2,80,0,0
219718,-125,4,2,2,80,0,0
221004,-250,4,2,2,80,0,0
221575,-250,4,2,2,80,0,0

[Colours]
Combo1 : 159,159,223
Combo2 : 219,149,149
Combo3 : 223,159,223
Combo4 : 159,223,159

[HitObjects]
49,108,147,6,0,L|103:99,1,41.9999987182618
171,142,432,1,0,0:0:0:0:
180,148,575,2,0,L|234:139,2,41.9999987182618
128,222,1004,2,0,L|86:228,1,41.9999987182618
31,298,1289,5,2,0:0:0:0:
31,298,1432,1,0,0:0:0:0:
94,367,1575,1,0,0:0:0:0:
94,367,1718,1,0,0:0:0:0:
144,294,1861,2,0,L|185:287,1,41.9999987182618,2|0,0:0|0:0,0:0:0:0:
254,343,2147,2,0,L|295:336,1,41.9999987182618
380,358,2432,5,2,0:0:0:0:
454,311,2575,1,0,0:0:0:0:
375,271,2718,2,0,L|381:312,1,41.9999987182618
436,198,3004,1,2,0:0:0:0:
442,189,3147,2,0,L|433:135,2,41.9999987182618
365,83,3575,2,0,L|356:29,1,41.9999987182618,2|0,0:0|0:0,0:0:0:0:
323,165,3861,2,0,L|281:171,1,41.9999987182618,2|0,0:0|0:0,0:0:0:0:
197,141,4147,5,2,0:0:0:0:
202,146,4289,5,2,0:0:0:0:
207,151,4432,5,2,0:0:0:0:
215,232,4574,5,2,0:0:0:0:
113,187,4718,6,0,P|45:249|143:281,1,224,6|0,1:2|0:0,0:0:0:0:
133,289,5432,1,2,0:0:0:0:
273,353,5718,6,0,B|309:341|333:340|333:340|386:359|386:359|414:359|478:343,1,195.999994018555,6|0,1:2|0:0,0:0:0:0:
462,346,6432,1,0,0:0:0:0:
426,264,6575,2,0,L|442:204,1,48.9999985046387,2|8,0:0|0:0,0:0:0:0:
497,86,6861,6,0,B|472:67|472:67|369:93,1,125.999996154785,2|0,1:2|0:0,0:0:0:0:
380,90,7432,1,0,0:0:0:0:
304,45,7575,5,10,0:0:0:0:
270,126,7718,1,8,0:3:0:0:
216,55,7861,1,6,0:3:0:0:
187,137,8004,6,0,L|205:194,1,56,2|0,1:2|0:0,0:0:0:0:
285,275,8289,2,0,L|303:218,1,56,8|0,0:0|0:0,0:0:0:0:
176,131,8575,2,0,L|194:188,1,56,0|0,1:0|0:0,0:0:0:0:
176,339,8861,1,2,1:2:0:0:
176,339,8932,1,0,1:0:0:0:
176,339,9004,2,0,L|112:322,1,56,2|0,1:2|0:0,0:0:0:0:
23,327,9289,5,10,0:0:0:0:
28,292,9360,1,0,1:2:0:0:
46,262,9431,1,0,1:2:0:0:
73,241,9503,1,0,1:2:0:0:
107,232,9575,2,0,L|167:248,3,35,0|0|2|0,1:2|1:2|1:2|1:2,0:0:0:0:
218,183,9861,2,0,L|227:149,3,35,10|0|0|0,0:0|1:2|1:2|1:2,0:0:0:0:
270,264,10147,2,0,L|279:297,3,35,0|0|2|2,1:2|1:2|0:2|1:2,0:0:0:0:
351,356,10432,5,8,0:0:0:0:
386,362,10503,1,0,1:2:0:0:
419,353,10574,1,0,1:2:0:0:
445,330,10646,1,0,1:2:0:0:
458,297,10718,2,0,P|448:273|426:254,3,35,2|0|2|0,1:2|1:2|1:2|1:2,0:0:0:0:
374,199,11004,5,10,0:0:0:0:
374,199,11075,1,8,0:0:0:0:
374,199,11147,2,0,L|389:147,1,35,10|8,0:0|0:0,0:0:0:0:
482,130,11289,5,2,1:2:0:0:
482,130,11360,1,0,1:2:0:0:
482,130,11432,2,0,L|497:182,1,35,2|0,1:2|1:2,0:0:0:0:
442,267,11575,5,6,1:2:0:0:
256,192,11647,12,0,13718,0:0:0:0:
218,92,13861,6,0,B|162:102|138:143|138:143|100:113|43:118,1,196,2|0,0:0|0:0,0:0:0:0:
15,216,15004,6,0,L|30:254,3,35,8|8|8|8,0:0|0:3|0:3|0:3,0:0:0:0:
96,326,15289,5,8,0:3:0:0:
96,326,15361,1,8,0:3:0:0:
96,326,15432,2,0,L|114:273,1,35,4|4,0:3|0:3,0:0:0:0:
187,238,15575,5,10,0:0:0:0:
291,315,15718,1,10,0:0:0:0:
162,371,15861,1,10,0:0:0:0:
277,216,16004,6,0,P|331:221|389:314,1,167.999994873047,6|2,1:2|1:2,0:0:0:0:
462,362,16432,2,0,P|477:310|517:280,1,83.9999974365235,10|2,0:0|0:0,0:0:0:0:
477,107,16718,1,2,1:2:0:0:
378,157,16861,2,0,P|311:139|259:141,1,83.9999974365235,2|8,1:2|0:0,0:0:0:0:
177,35,17147,6,0,B|191:102|191:102|208:116|208:116|226:203,1,167.999994873047,2|2,1:2|1:2,0:0:0:0:
165,270,17575,1,10,0:0:0:0:
312,224,17718,1,2,0:0:0:0:
122,169,17861,1,2,1:2:0:0:
85,297,18004,2,0,P|137:283|189:283,1,83.9999974365235,2|8,1:2|0:0,0:0:0:0:
28,368,18289,6,0,B|0:333|0:333|26:194,1,167.999994873047,6|2,1:2|1:2,0:0:0:0:
4,115,18718,1,10,0:0:0:0:
85,297,18861,1,2,0:0:0:0:
191,246,19004,2,0,P|179:197|146:172,2,83.9999974365235,2|2|8,1:2|1:2|0:0,0:0:0:0:
127,86,19432,6,0,B|245:54|245:54|262:74|311:86,1,167.999994873047,6|2,1:2|1:2,0:0:0:0:
365,87,19861,2,0,P|405:112|411:171,1,83.9999974365235,10|2,0:0|0:0,0:0:0:0:
252,218,20147,1,2,1:2:0:0:
282,111,20289,1,2,1:2:0:0:
282,111,20361,1,2,0:0:0:0:
282,111,20432,1,10,0:0:0:0:
175,21,20575,6,0,L|136:189,1,167.999994873047,2|2,0:0|0:0,0:0:0:0:
84,268,21004,2,0,P|106:298|112:347,1,83.9999974365235,10|2,0:0|0:0,0:0:0:0:
46,127,21289,1,2,1:2:0:0:
137,184,21432,2,0,L|226:166,1,83.9999974365235,2|8,1:2|0:0,0:0:0:0:
398,151,21718,6,0,P|324:150|343:62,1,167.999994873047,2|2,1:2|1:2,0:0:0:0:
409,18,22147,1,10,0:0:0:0:
233,81,22289,1,2,0:0:0:0:
398,151,22432,1,2,1:2:0:0:
304,229,22575,2,0,L|214:211,1,83.9999974365235,2|8,1:2|0:0,0:0:0:0:
468,283,22861,6,0,B|395:293|395:293|374:311|374:311|299:322,1,167.999994873047,6|2,1:2|1:2,0:0:0:0:
220,365,23289,1,10,0:0:0:0:
133,210,23432,1,2,0:0:0:0:
247,146,23575,2,0,L|231:233,2,83.9999974365235,2|2|8,1:2|1:2|0:0,0:0:0:0:
118,295,24004,6,0,P|61:260|67:156,1,167.999994873047,6|10,1:2|0:0,0:0:0:0:
11,91,24432,1,10,0:0:0:0:
174,49,24575,2,0,P|150:99|106:107,1,83.9999974365235,10|0,0:0|1:0,0:0:0:0:
0,240,24861,2,0,P|86:212|127:203,1,112,10|0,0:0|0:0,0:0:0:0:
106,207,25289,5,0,1:0:0:0:
233,341,25575,2,0,P|263:333|289:331,1,41.9999987182618,2|0,1:2|0:0,0:0:0:0:
212,261,25861,2,0,P|232:257|252:251,1,41.9999987182618,2|0,1:2|0:0,0:0:0:0:
323,190,26147,1,0,1:0:0:0:
278,109,26289,2,0,P|310:71|355:69,1,83.9999974365235,2|2,0:0|0:0,0:0:0:0:
426,27,26718,2,0,L|422:81,1,41.9999987182618,2|2,1:2|0:0,0:0:0:0:
489,133,27004,1,2,1:2:0:0:
489,133,27147,1,2,0:0:0:0:
493,224,27289,2,0,L|411:205,1,83.9999974365235,2|0,1:2|1:0,0:0:0:0:
411,205,27861,6,0,P|403:235|401:261,1,41.9999987182618,2|0,1:2|0:0,0:0:0:0:
325,300,28147,2,0,P|321:279|315:259,1,41.9999987182618,2|0,1:2|0:0,0:0:0:0:
250,193,28432,1,0,1:0:0:0:
186,259,28575,2,0,L|103:241,1,83.9999974365235,2|2,0:0|0:0,0:0:0:0:
26,189,29004,1,2,1:2:0:0:
26,189,29147,1,2,0:0:0:0:
90,123,29289,1,2,1:2:0:0:
55,37,29432,1,2,0:0:0:0:
144,54,29575,2,0,P|192:48|232:12,1,83.9999974365235,2|0,1:2|1:0,0:0:0:0:
220,27,30147,6,0,L|231:86,1,41.9999987182618,2|0,1:2|0:0,0:0:0:0:
278,145,30432,2,0,L|267:204,1,41.9999987182618,2|0,1:2|0:0,0:0:0:0:
214,261,30718,1,0,1:0:0:0:
289,314,30861,2,0,B|340:304|340:304|376:320,1,83.9999974365235,2|2,0:0|0:0,0:0:0:0:
453,354,31289,1,2,1:2:0:0:
453,354,31432,1,2,0:0:0:0:
486,270,31575,1,2,1:2:0:0:
486,270,31718,1,2,0:0:0:0:
425,200,31861,2,0,P|396:189|372:189,1,41.9999987182618,2|2,1:2|0:0,0:0:0:0:
340,199,32075,1,2,0:0:0:0:
340,199,32147,6,0,L|325:104,1,83.9999974365235,2|0,1:2|1:0,0:0:0:0:
205,233,32575,2,0,L|294:267,1,83.9999974365235,2|0,0:0|0:0,0:0:0:0:
243,99,33004,2,0,L|168:159,1,83.9999974365235,2|0,1:2|1:0,0:0:0:0:
8,101,33432,5,10,0:0:0:0:
136,18,33575,1,10,0:0:0:0:
92,155,33718,1,2,1:2:0:0:
87,168,33861,1,2,1:2:0:0:
143,6,34004,2,0,P|197:-1|262:37,1,112,10|8,0:0|0:0,0:0:0:0:
266,43,34361,1,8,0:0:0:0:
266,43,34432,6,0,L|255:127,1,70,2|0,1:2|0:0,0:0:0:0:
415,74,34718,2,0,L|406:4,1,70,10|0,0:0|0:0,0:0:0:0:
481,164,35004,2,0,P|406:186|338:139,1,140,2|8,1:2|0:0,0:0:0:0:
281,249,35432,2,0,P|337:302|330:385,1,140,2|2,0:0|0:0,0:0:0:0:
177,327,35861,1,10,0:0:0:0:
221,193,36004,1,2,0:0:0:0:
172,338,36147,2,0,L|152:267,1,70,2|2,1:2|0:0,0:0:0:0:
69,140,36432,2,0,L|49:211,1,70,10|0,0:0|0:0,0:0:0:0:
124,313,36718,5,0,1:0:0:0:
124,313,36861,1,0,0:0:0:0:
221,193,37004,2,0,P|270:204|287:231,1,70,10|0,0:0|0:0,0:0:0:0:
157,113,37289,2,0,P|205:54|297:53,1,140,2|8,1:2|0:0,0:0:0:0:
430,147,37718,6,0,L|397:0,1,140,2|2,0:0|0:0,0:0:0:0:
450,140,38147,2,0,L|434:234,1,70,10|2,0:0|0:0,0:0:0:0:
372,358,38432,1,2,1:2:0:0:
500,276,38575,1,2,0:0:0:0:
362,368,38718,2,0,L|201:335,1,140,10|0,0:0|1:0,0:0:0:0:
213,351,39289,6,0,L|197:263,1,70,10|0,0:0|0:0,0:0:0:0:
179,157,39575,1,2,1:2:0:0:
284,224,39718,2,0,P|320:219|349:176,1,70,2|8,0:0|0:0,0:0:0:0:
357,48,40004,2,0,P|276:68|258:134,1,140,2|0,0:0|0:0,0:0:0:0:
424,170,40432,2,0,L|439:83,1,70,10|0,0:0|0:0,0:0:0:0:
284,224,40718,2,0,L|299:311,1,70,2|0,1:2|0:0,0:0:0:0:
459,355,41004,1,10,0:0:0:0:
459,355,41147,1,0,0:0:0:0:
495,253,41289,6,0,P|420:259|384:316,1,140,2|8,1:2|0:0,0:0:0:0:
276,366,41718,2,0,P|308:298|276:238,1,140,2|0,0:0|0:0,0:0:0:0:
287,119,42147,2,0,P|329:180|397:183,1,140,10|0,0:0|1:0,0:0:0:0:
389,186,42575,1,10,0:2:0:0:
481,94,42718,2,0,P|445:90|386:81,1,70,0|0,1:0|0:0,0:0:0:0:
273,27,43004,2,0,P|309:23|368:14,1,70,2|8,1:2|0:2,0:0:0:0:
411,85,43289,1,2,1:2:0:0:
493,248,43432,1,8,0:0:0:0:
493,248,43504,1,8,0:0:0:0:
493,248,43575,6,0,L|342:268,1,140,6|8,1:2|0:0,0:0:0:0:
107,294,44147,1,0,1:0:0:0:
107,294,44289,1,0,1:0:0:0:
170,357,44432,2,0,P|192:318|188:266,1,70,2|8,0:0|0:0,0:0:0:0:
152,200,44718,6,0,P|184:239|269:233,1,140,2|8,1:2|0:0,0:0:0:0:
50,37,45289,1,0,1:0:0:0:
50,37,45432,1,0,1:0:0:0:
5,164,45575,2,0,P|52:148|84:138,1,70,10|0,0:0|1:0,0:0:0:0:
152,200,45861,1,2,1:2:0:0:
195,83,46004,5,2,0:0:0:0:
195,83,46147,2,0,L|202:141,1,41.9999987182618,8|2,0:0|0:0,0:0:0:0:
283,119,46432,1,2,1:2:0:0:
283,119,46575,2,0,L|277:77,1,41.9999987182618,2|0,1:2|0:0,0:0:0:0:
345,181,46861,2,0,B|329:202|329:202|335:267,1,83.9999974365235,10|2,0:0|0:0,0:0:0:0:
281,327,47289,2,0,L|221:321,1,41.9999987182618,10|2,0:0|0:0,0:0:0:0:
158,319,47575,1,2,1:2:0:0:
158,319,47718,1,0,1:0:0:0:
102,251,47861,2,0,L|108:203,1,41.9999987182618,10|0,0:0|0:0,0:0:0:0:
98,90,48147,6,0,B|119:66|124:25|124:25|120:66|140:106,1,140,6|8,1:2|0:0,0:0:0:0:
8,287,48718,1,0,1:0:0:0:
8,287,48861,1,0,1:0:0:0:
62,360,49004,2,0,P|98:359|128:326,1,70,2|8,0:0|0:0,0:0:0:0:
197,258,49289,6,0,B|247:262|247:262|267:280|267:280|340:286,1,140,2|8,1:2|0:0,0:0:0:0:
501,108,49861,1,0,1:0:0:0:
420,76,50004,1,2,1:2:0:0:
420,76,50075,1,2,0:0:0:0:
420,76,50147,2,0,L|430:163,1,70,10|0,0:0|0:0,0:0:0:0:
329,285,50432,1,2,1:2:0:0:
249,183,50575,5,2,0:0:0:0:
249,183,50718,2,0,L|192:179,1,41.9999987182618,10|0,0:0|0:0,0:0:0:0:
144,118,51004,1,2,1:2:0:0:
144,118,51147,2,0,L|87:114,1,41.9999987182618,0|0,1:2|0:0,0:0:0:0:
204,51,51432,2,0,P|241:26|293:35,1,83.9999974365235,10|2,0:0|1:2,0:0:0:0:
369,21,51861,2,0,L|359:71,1,41.9999987182618,10|2,0:0|0:0,0:0:0:0:
396,145,52147,1,2,1:2:0:0:
396,145,52289,1,0,1:0:0:0:
363,225,52432,2,0,L|373:275,1,41.9999987182618,10|0,0:0|0:0,0:0:0:0:
476,357,52718,6,0,B|449:340|443:332|443:332|342:348,1,140,6|8,1:2|0:0,0:0:0:0:
143,169,53289,1,0,1:0:0:0:
143,169,53432,1,0,1:0:0:0:
88,98,53575,2,0,L|103:28,1,70,10|2,0:0|0:0,0:0:0:0:
143,169,53861,6,0,B|191:178|214:156|205:147|230:126|294:139,1,140,2|8,1:2|0:0,0:0:0:0:
28,290,54432,1,0,1:0:0:0:
28,290,54575,1,0,1:0:0:0:
91,233,54718,2,0,P|108:264|110:315,1,70,10|0,0:0|0:0,0:0:0:0:
218,368,55004,5,2,1:2:0:0:
289,314,55147,2,0,L|373:323,1,70,0|8,0:0|0:0,0:0:0:0:
484,262,55432,1,2,0:0:0:0:
413,208,55575,2,0,L|329:217,1,70,0|0,1:0|1:0,0:0:0:0:
218,260,55861,5,10,0:0:0:0:
289,314,56004,2,0,L|373:305,1,70,0|0,0:0|1:0,0:0:0:0:
484,154,56289,1,2,0:0:0:0:
413,208,56432,2,0,L|329:199,1,70,8|0,0:0|0:0,0:0:0:0:
288,82,56718,2,0,P|340:30|407:43,1,140,2|8,1:2|0:0,0:0:0:0:
274,105,57147,1,8,0:0:0:0:
274,105,57218,1,8,0:0:0:0:
274,105,57289,6,0,L|192:92,1,70,14|2,0:0|0:0,0:0:0:0:
38,5,57575,1,10,0:0:0:0:
140,144,57718,1,2,0:0:0:0:
12,184,57861,2,0,L|27:101,1,70,10|0,0:0|1:0,0:0:0:0:
106,287,58147,2,0,L|121:370,1,70,10|2,0:0|1:2,0:0:0:0:
268,179,58432,5,8,0:0:0:0:
188,317,58575,1,0,1:0:0:0:
277,167,58718,2,0,P|270:117|268:76,1,70,10|0,0:0|1:0,0:0:0:0:
427,58,59004,1,10,0:0:0:0:
427,58,59147,1,2,1:2:0:0:
267,1,59289,1,8,0:0:0:0:
393,159,59432,1,2,1:2:0:0:
393,159,59504,1,0,1:0:0:0:
393,159,59575,5,14,0:0:0:0:
501,123,59718,2,0,L|486:202,1,70,10|0,0:0|1:0,0:0:0:0:
467,308,60004,5,10,0:0:0:0:
359,272,60147,2,0,L|374:351,1,70,10|0,0:0|1:0,0:0:0:0:
281,211,60432,5,10,0:0:0:0:
174,278,60575,2,0,P|137:261|115:220,1,70,10|0,0:0|1:0,0:0:0:0:
177,85,60861,5,10,0:0:0:0:
288,144,61004,2,0,P|291:184|267:224,1,70,10|0,0:0|1:0,0:0:0:0:
174,278,61289,6,0,B|108:284|94:254|103:239|73:219|22:226,1,168,8|0,0:3|1:0,0:0:0:0:
23,225,61861,1,10,0:0:0:0:
449,28,64004,1,0,1:0:0:0:
449,28,64075,1,0,1:0:0:0:
449,28,64147,6,0,L|460:110,1,70,10|2,0:0|0:0,0:0:0:0:
350,72,64432,1,2,0:0:0:0:
373,196,64575,1,2,1:2:0:0:
373,196,64646,1,0,1:0:0:0:
373,196,64718,6,0,L|384:278,2,70,10|2|2,0:0|0:0|0:0,0:0:0:0:
350,72,65147,2,0,B|280:55|280:55|201:100,1,140,14|10,0:0|0:0,0:0:0:0:
83,161,65575,1,10,0:0:0:0:
81,15,65718,2,0,P|113:23|148:61,1,70,10|0,0:0|0:0,0:0:0:0:
238,182,66004,1,10,0:0:0:0:
238,182,66075,1,2,0:0:0:0:
238,182,66147,6,0,L|152:196,1,70,2|0,1:2|1:0,0:0:0:0:
323,288,66432,6,0,L|358:125,1,154.000004699707,6|10,1:2|0:0,0:0:0:0:
308,51,66861,1,0,0:0:0:0:
433,180,67004,2,0,P|484:165|496:125,2,77.0000023498536,2|2|8,1:2|1:2|0:0,0:0:0:0:
342,243,67432,6,0,P|286:221|170:205,1,154.000004699707,2|0,1:2|1:0,0:0:0:0:
136,284,67861,2,0,P|156:319|168:356,1,77.0000023498536,10|0,0:0|0:0,0:0:0:0:
12,359,68147,1,2,1:2:0:0:
12,359,68289,1,2,1:2:0:0:
92,205,68432,1,10,0:0:0:0:
28,128,68575,6,0,L|63:307,1,154.000004699707,6|2,1:2|1:2,0:0:0:0:
119,83,69004,2,0,L|144:-20,1,77.0000023498536,8|2,0:0|0:0,0:0:0:0:
259,59,69289,1,2,1:2:0:0:
208,197,69432,1,2,1:2:0:0:
119,83,69575,1,8,0:0:0:0:
293,157,69718,2,0,B|384:132|384:132|447:156,1,154.000004699707,2|0,1:2|1:0,0:0:0:0:
489,308,70147,2,0,L|471:213,1,77.0000023498536,8|0,0:0|1:0,0:0:0:0:
497,84,70432,1,0,1:0:0:0:
497,84,70575,1,2,1:2:0:0:
392,53,70718,1,10,0:0:0:0:
439,153,70861,1,2,0:0:0:0:
325,138,71004,6,0,P|267:99|278:28,2,115.50000352478,4|2|2,1:2|0:0|0:0,0:0:0:0:
398,193,71575,6,0,P|460:162|516:207,2,115.50000352478,0|2|2,1:2|0:0|0:0,0:0:0:0:
313,228,72147,6,0,P|308:297|241:323,2,115.50000352478,0|2|2,1:2|0:0|0:0,0:0:0:0:
219,188,72718,6,0,L|115:209,1,77.0000023498536,0|2,1:2|1:2,0:0:0:0:
37,261,72932,1,2,0:0:0:0:
37,261,73004,2,0,P|65:291|128:279,1,77.0000023498536,10|2,0:0|1:2,0:0:0:0:
143,203,73289,5,14,0:0:0:0:
154,111,73432,2,0,L|169:25,1,77.0000023498536,0|0,1:0|1:0,0:0:0:0:
264,85,73718,5,10,0:0:0:0:
281,165,73861,2,0,L|296:251,1,77.0000023498536,0|0,1:0|1:0,0:0:0:0:
379,164,74147,5,10,0:0:0:0:
384,137,74290,2,0,L|399:51,1,77.0000023498536,0|0,1:0|1:0,0:0:0:0:
498,97,74576,5,10,0:0:0:0:
498,97,74719,2,0,L|513:183,1,77.0000023498536,0|0,1:0|1:0,0:0:0:0:
490,272,75004,6,0,L|440:261,1,41.9999987182618,10|0,0:0|0:0,0:0:0:0:
512,278,75289,2,0,L|372:310,1,115.50000352478,10|0,0:0|1:0,0:0:0:0:
325,356,75575,6,0,P|268:343|269:240,1,154.000004699707,6|10,1:2|0:0,0:0:0:0:
303,173,76004,1,0,0:0:0:0:
162,273,76147,2,0,L|81:286,2,77.0000023498536,2|2|8,1:2|1:2|0:0,0:0:0:0:
203,185,76575,6,0,B|188:83|188:83|149:42,1,154.000004699707,2|0,1:2|1:0,0:0:0:0:
47,13,77004,2,0,L|62:110,1,77.0000023498536,10|0,0:0|0:0,0:0:0:0:
0,240,77289,1,2,1:2:0:0:
159,280,77432,1,2,1:2:0:0:
159,280,77575,1,10,0:0:0:0:
203,185,77718,6,0,B|279:177|254:231|356:216,1,154.000004699707,6|2,1:2|1:2,0:0:0:0:
505,118,78147,2,0,L|488:202,1,77.0000023498536,10|2,0:0|0:0,0:0:0:0:
372,361,78432,1,2,1:2:0:0:
349,216,78575,1,2,1:2:0:0:
488,303,78718,1,8,0:0:0:0:
354,370,78861,6,0,B|294:356|294:356|265:366|265:366|191:348,1,154.000004699707,2|0,1:2|1:0,0:0:0:0:
60,266,79289,2,0,P|26:286|7:324,1,77.0000023498536,8|0,0:0|1:0,0:0:0:0:
159,180,79575,1,0,1:0:0:0:
159,180,79718,1,2,1:2:0:0:
228,266,79861,1,10,0:0:0:0:
356,244,80004,1,2,0:0:0:0:
271,132,80147,6,0,P|259:85|247:3,2,115.50000352478,6|2|2,1:2|0:0|0:0,0:0:0:0:
355,186,80718,6,0,P|402:174|484:162,2,115.50000352478,2|2|2,1:2|1:2|1:2,0:0:0:0:
273,248,81289,5,10,0:0:0:0:
395,305,81432,1,0,1:0:0:0:
227,364,81575,2,0,L|237:278,1,77.0000023498536,10|0,0:0|1:0,0:0:0:0:
346,109,81861,2,0,L|356:195,1,77.0000023498536,10|0,0:0|1:0,0:0:0:0:
175,182,82147,1,10,0:0:0:0:
290,31,82289,6,0,P|365:18|424:73,1,154.000004699707,6|0,1:2|1:0,0:0:0:0:
354,185,82718,2,0,L|254:166,1,77.0000023498536,8|0,0:0|1:0,0:0:0:0:
163,99,83004,1,0,1:0:0:0:
163,99,83147,1,0,1:0:0:0:
88,175,83289,2,0,B|107:205|107:205|93:253,1,77.0000023498536,8|0,0:0|1:0,0:0:0:0:
14,367,83575,1,0,1:0:0:0:
14,367,83718,1,0,1:0:0:0:
104,325,83861,2,0,P|143:337|166:382,1,77.0000023498536,8|0,0:0|1:0,0:0:0:0:
295,288,84147,1,0,0:0:0:0:
295,288,84289,1,2,1:2:0:0:
214,223,84432,1,10,0:0:0:0:
163,365,84574,1,2,0:0:0:0:
218,208,84718,6,0,L|200:102,1,77.0000023498536,6|8,1:2|0:3,0:0:0:0:
205,105,84932,1,10,0:3:0:0:
205,105,85004,1,8,0:3:0:0:
296,40,85147,1,10,0:3:0:0:
296,40,85218,1,8,0:3:0:0:
296,40,85289,6,0,P|334:58|382:50,1,77.0000023498536,10|4,0:3|0:3,0:0:0:0:
500,108,85575,1,0,1:2:0:0:
410,143,85718,1,2,1:2:0:0:
369,56,85861,5,10,0:0:0:0:
451,230,86004,1,8,0:0:0:0:
451,230,86861,6,0,L|309:204,1,140,2|2,1:2|0:0,0:0:0:0:
169,256,87289,1,10,0:0:0:0:
169,256,87432,1,2,0:0:0:0:
219,89,87575,2,0,L|230:179,1,70,0|2,1:0|1:2,0:0:0:0:
233,187,87789,1,2,0:0:0:0:
233,187,87861,1,10,0:0:0:0:
325,118,88004,1,2,1:2:0:0:
224,11,88147,6,0,P|175:21|148:49,1,70,2|2,0:0|1:2,0:0:0:0:
62,192,88432,1,10,0:0:0:0:
3,83,88575,2,0,P|71:103|221:141,1,210,2|8,0:0|0:0,0:0:0:0:
341,241,89147,6,0,B|301:248|285:281|285:281|278:243|240:219,1,140,6|2,1:2|1:2,0:0:0:0:
205,292,89504,1,2,1:2:0:0:
205,292,89575,1,10,0:0:0:0:
307,166,89718,1,2,1:2:0:0:
307,166,89789,1,2,1:2:0:0:
307,166,89861,2,0,L|295:70,1,70,10|2,0:3|1:2,0:0:0:0:
426,18,90147,1,10,0:3:0:0:
459,25,90218,1,0,0:0:0:0:
487,46,90289,1,0,1:3:0:0:
502,77,90361,1,0,1:3:0:0:
502,112,90432,6,0,L|415:92,1,70,6|2,0:3|1:2,0:0:0:0:
189,51,90861,1,2,1:2:0:0:
283,303,91147,2,0,B|339:288|339:288|358:263|358:263|429:247,1,140,2|0,1:2|0:0,0:0:0:0:
497,303,91575,5,2,1:2:0:0:
497,303,91718,1,0,1:0:0:0:
476,204,91861,2,0,L|485:127,1,56,10|0,0:0|0:0,0:0:0:0:
455,50,92147,2,0,P|405:90|341:91,1,112,2|8,0:0|0:0,0:0:0:0:
283,27,92575,2,0,P|309:60|295:142,1,112,2|2,1:2|1:2,0:0:0:0:
215,174,93004,1,10,0:0:0:0:
215,174,93147,1,2,0:0:0:0:
158,97,93289,2,0,P|124:84|103:74,2,56,2|2|10,0:0|0:0|0:0,0:0:0:0:
215,174,93718,1,0,0:0:0:0:
215,174,93789,1,0,0:0:0:0:
215,174,93861,6,0,L|203:246,1,56,0|0,1:0|1:0,0:0:0:0:
192,327,94147,1,10,0:0:0:0:
192,327,94289,1,0,0:0:0:0:
103,363,94432,2,0,P|50:338|43:269,1,112,2|8,0:0|0:0,0:0:0:0:
3,199,94861,2,0,L|130:168,1,112,2|2,1:2|1:2,0:0:0:0:
196,128,95289,2,0,L|224:51,1,56,10|2,0:0|0:0,0:0:0:0:
288,13,95575,1,2,0:0:0:0:
373,54,95718,1,2,0:0:0:0:
341,143,95861,2,0,P|296:150|266:158,1,56,10|0,0:0|0:0,0:0:0:0:
215,217,96147,5,0,1:0:0:0:
215,217,96289,1,0,1:0:0:0:
283,282,96432,2,0,L|351:271,1,56,10|0,0:0|0:0,0:0:0:0:
397,354,96718,1,2,0:0:0:0:
397,354,96861,2,0,L|329:365,1,56,2|8,0:0|0:0,0:0:0:0:
462,285,97147,2,0,B|485:241|485:241|471:159,1,112,2|0,1:2|1:0,0:0:0:0:
414,105,97575,2,0,P|381:114|356:141,1,56,10|0,0:0|0:0,0:0:0:0:
365,223,97861,2,0,P|373:189|362:154,1,56,2|0,0:0|0:0,0:0:0:0:
287,121,98147,2,0,P|311:145|347:153,1,56,10|0,0:0|0:0,0:0:0:0:
264,25,98432,6,0,B|210:26|221:69|152:75,1,112,6|0,1:2|0:0,0:0:0:0:
71,54,98861,2,0,P|120:98|138:162,1,112,6|0,1:2|0:0,0:0:0:0:
181,223,99289,2,0,L|53:204,1,112,6|0,1:2|1:2,0:0:0:0:
13,283,99718,1,14,0:2:0:0:
13,283,99861,1,8,0:0:0:0:
107,328,100004,1,8,0:0:0:0:
107,328,100075,1,8,0:0:0:0:
107,328,100147,2,0,P|140:321|169:302,1,56,10|8,0:0|0:3,0:0:0:0:
181,223,100432,1,6,0:3:0:0:
265,178,100575,1,8,0:3:0:0:
328,231,100718,6,0,L|319:279,3,41.9999987182618,2|0|0|0,1:2|0:0|0:0|1:0,0:0:0:0:
359,344,101289,2,0,P|426:340|454:237,1,168,8|0,0:0|1:0,0:0:0:0:
496,179,101861,5,2,0:0:0:0:
496,179,102004,2,0,L|438:165,2,41.9999987182618,0|0|0,0:0|1:0|1:0,0:0:0:0:
415,95,102432,2,0,P|385:104|344:114,1,56,10|0,0:0|0:0,0:0:0:0:
274,57,102718,2,0,P|244:48|203:38,1,56,2|0,0:0|0:0,0:0:0:0:
136,96,103004,1,2,1:2:0:0:
71,5,103147,5,2,0:0:0:0:
71,5,103289,2,0,L|62:52,1,41.9999987182618,2|2,0:0|1:2,0:0:0:0:
27,122,103575,2,0,L|48:220,1,83.9999974365235,10|2,0:0|0:0,0:0:0:0:
20,285,104004,2,0,B|64:290|64:290|101:324,1,83.9999974365235,2|10,1:2|0:0,0:0:0:0:
159,367,104432,1,0,1:0:0:0:
159,367,104575,1,0,1:0:0:0:
224,314,104718,1,10,0:0:0:0:
224,314,104861,2,0,L|243:215,1,83.9999974365235,2|0,1:2|0:0,0:0:0:0:
281,128,105289,6,0,L|270:83,3,41.9999987182618,2|0|0|0,1:2|0:0|0:0|1:0,0:0:0:0:
346,184,105861,2,0,B|443:189|400:119|503:124,1,168,8|0,0:0|1:0,0:0:0:0:
512,209,106432,5,2,0:0:0:0:
512,209,106575,2,0,L|501:254,2,41.9999987182618,0|0|0,0:0|1:0|1:0,0:0:0:0:
439,315,107004,2,0,L|364:302,1,56,8|0,0:0|0:0,0:0:0:0:
305,367,107289,1,2,0:0:0:0:
305,367,107361,1,0,0:0:0:0:
305,367,107432,1,0,0:0:0:0:
206,305,107575,5,2,1:2:0:0:
206,305,107718,2,0,L|193:247,1,41.9999987182618,0|2,1:0|0:0,0:0:0:0:
123,233,108004,1,0,0:0:0:0:
123,233,108147,2,0,L|38:210,1,83.9999974365235,10|0,0:0|0:0,0:0:0:0:
0,113,108575,2,0,B|22:82|22:82|14:21,1,83.9999974365235,2|10,1:2|0:3,0:0:0:0:
119,5,109004,1,6,0:3:0:0:
119,5,109147,1,2,1:2:0:0:
101,115,109289,1,10,0:0:0:0:
208,69,109432,2,0,P|249:72|282:107,1,83.9999974365235,2|8,1:2|0:0,0:0:0:0:
288,118,109789,1,8,0:0:0:0:
288,118,109861,6,0,B|322:27|322:27|373:6,1,140,6|8,1:2|0:0,0:0:0:0:
486,212,110432,1,0,1:0:0:0:
486,212,110575,1,0,1:0:0:0:
405,263,110718,2,0,P|369:253|334:248,1,70,10|2,0:0|0:0,0:0:0:0:
486,212,111004,6,0,P|455:156|371:160,1,140,2|8,1:2|0:0,0:0:0:0:
158,335,111575,1,0,1:0:0:0:
158,335,111718,1,0,1:0:0:0:
93,269,111861,2,0,B|84:234|84:234|102:197,1,70,10|0,0:0|0:0,0:0:0:0:
166,138,112147,6,0,P|126:187|45:171,1,140,2|8,1:2|0:0,0:0:0:0:
21,59,112575,1,2,0:0:0:0:
93,16,112718,2,0,P|129:32|142:76,1,70,0|0,1:0|1:0,0:0:0:0:
182,141,113004,6,0,P|221:91|302:108,1,140,10|0,0:0|1:0,0:0:0:0:
327,217,113432,1,2,1:2:0:0:
255,261,113575,2,0,P|219:245|206:200,1,70,8|0,0:0|1:0,0:0:0:0:
292,99,113861,2,0,L|430:118,1,140,2|8,0:0|0:0,0:0:0:0:
512,220,114289,1,8,0:0:0:0:
512,220,114361,1,8,0:0:0:0:
512,220,114432,6,0,P|504:178|498:135,1,70,14|2,0:0|0:0,0:0:0:0:
419,0,114718,1,10,0:0:0:0:
292,99,114861,1,2,0:0:0:0:
348,209,115004,2,0,L|446:190,1,70,10|0,0:0|1:0,0:0:0:0:
499,354,115289,2,0,L|401:335,1,70,10|2,0:0|1:2,0:0:0:0:
277,353,115575,5,8,0:0:0:0:
348,209,115718,1,0,0:0:0:0:
270,365,115861,2,0,P|227:362|183:329,1,70,10|0,0:0|1:0,0:0:0:0:
64,253,116147,1,10,0:0:0:0:
64,253,116289,1,2,1:2:0:0:
204,105,116432,1,8,0:0:0:0:
156,284,116575,1,2,1:2:0:0:
156,284,116647,1,0,1:0:0:0:
156,284,116718,5,14,0:0:0:0:
114,184,116861,2,0,P|106:142|95:100,1,70,10|0,0:0|1:0,0:0:0:0:
246,205,117147,5,10,0:0:0:0:
204,105,117290,2,0,P|196:63|185:21,1,70,10|0,0:0|1:0,0:0:0:0:
310,13,117575,5,10,0:0:0:0:
354,122,117718,2,0,P|310:133|272:122,1,70,10|0,0:0|1:0,0:0:0:0:
464,82,118004,5,10,0:0:0:0:
420,191,118147,2,0,P|464:202|502:191,1,70,10|0,0:0|1:0,0:0:0:0:
486,315,118432,6,0,L|431:327,3,35,8|8|4|4,0:3|0:3|0:3|0:3,0:0:0:0:
363,365,118718,1,2,1:2:0:0:
347,333,118789,1,0,1:0:0:0:
322,309,118860,1,0,1:0:0:0:
290,296,118932,1,0,1:0:0:0:
255,294,119004,6,0,L|87:333,1,154.000004699707,6|10,1:2|0:0,0:0:0:0:
11,274,119432,1,0,0:0:0:0:
154,169,119575,2,0,B|242:188,2,77.0000023498536,2|2|8,1:2|1:2|0:0,0:0:0:0:
59,102,120004,6,0,P|106:41|211:41,1,154.000004699707,2|0,1:2|1:0,0:0:0:0:
253,112,120432,2,0,P|233:170|226:195,1,77.0000023498536,10|0,0:0|0:0,0:0:0:0:
372,307,120718,1,2,1:2:0:0:
372,307,120861,1,2,1:2:0:0:
182,360,121004,1,10,0:0:0:0:
152,265,121147,6,0,B|210:276|210:276|233:301|233:301|302:316,1,154.000004699707,6|2,1:2|1:2,0:0:0:0:
458,359,121575,2,0,L|445:271,1,77.0000023498536,10|2,0:0|1:2,0:0:0:0:
391,112,121861,1,2,1:2:0:0:
512,233,122004,1,2,1:2:0:0:
337,193,122147,1,8,0:0:0:0:
486,66,122289,2,0,B|508:102|508:102|479:216,1,154.000004699707,2|0,1:2|1:0,0:0:0:0:
366,287,122718,2,0,P|327:278|279:270,1,77.0000023498536,8|0,0:0|1:0,0:0:0:0:
206,206,123004,1,0,1:0:0:0:
206,206,123147,1,2,1:2:0:0:
230,325,123289,1,10,0:0:0:0:
128,352,123432,1,2,0:0:0:0:
92,236,123575,6,0,P|55:259|35:326,2,115.50000352478,4|2|2,1:2|0:0|0:0,0:0:0:0:
139,151,124147,6,0,P|137:107|89:56,2,115.50000352478,0|2|2,1:2|0:0|0:0,0:0:0:0:
206,217,124718,6,0,P|244:237|312:221,2,115.50000352478,0|2|2,1:2|0:0|0:0,0:0:0:0:
139,151,125289,6,0,P|159:95|186:68,1,77.0000023498536,0|2,1:2|1:2,0:0:0:0:
288,19,125504,1,2,0:0:0:0:
288,19,125575,2,0,L|298:102,1,77.0000023498536,10|2,0:0|1:2,0:0:0:0:
311,221,125861,5,14,0:0:0:0:
354,304,126004,2,0,P|398:296|425:262,1,77.0000023498536,0|0,1:0|1:0,0:0:0:0:
237,252,126289,5,10,0:0:0:0:
228,331,126432,2,0,P|256:365|299:371,1,77.0000023498536,0|0,1:0|1:0,0:0:0:0:
160,238,126718,5,10,0:0:0:0:
138,256,126861,2,0,P|122:298|138:338,1,77.0000023498536,0|0,1:0|1:0,0:0:0:0:
123,169,127146,5,10,0:0:0:0:
123,169,127289,2,0,P|78:177|52:210,1,77.0000023498536,0|0,1:0|1:0,0:0:0:0:
17,82,127575,6,0,L|32:17,1,62.9999980773926,10|0,0:0|0:0,0:0:0:0:
0,105,127861,2,0,L|26:221,1,115.50000352478,10|0,0:0|1:0,0:0:0:0:
3,306,128147,6,0,B|32:313|58:313|58:313|89:343|89:343|122:345|157:351,1,154.000004699707,6|10,1:2|0:0,0:0:0:0:
125,252,128575,1,0,0:0:0:0:
254,367,128718,2,0,P|290:354|314:321,2,77.0000023498536,2|2|8,1:2|1:2|0:0,0:0:0:0:
227,277,129147,6,0,L|267:92,1,154.000004699707,2|0,1:2|1:0,0:0:0:0:
326,51,129575,2,0,B|365:63|365:63|391:108,1,77.0000023498536,10|0,0:0|0:0,0:0:0:0:
508,194,129861,1,2,1:2:0:0:
342,254,130004,1,2,1:2:0:0:
342,254,130147,1,10,0:0:0:0:
419,303,130289,6,0,P|433:241|375:171,1,154.000004699707,6|2,1:2|1:2,0:0:0:0:
244,118,130718,2,0,P|295:96|307:58,1,77.0000023498536,10|2,0:0|0:0,0:0:0:0:
120,159,131004,1,2,1:2:0:0:
174,4,131147,1,2,1:2:0:0:
98,148,131289,1,8,0:0:0:0:
241,44,131432,2,0,P|245:103|260:203,1,154.000004699707,2|0,1:2|1:0,0:0:0:0:
329,355,131861,2,0,P|346:315|390:270,1,77.0000023498536,8|0,0:0|1:0,0:0:0:0:
512,270,132147,1,0,1:0:0:0:
512,270,132289,1,2,1:2:0:0:
448,367,132432,1,10,0:0:0:0:
346,309,132575,1,2,0:0:0:0:
410,200,132718,6,0,P|369:160|304:172,2,115.50000352478,6|2|2,1:2|0:0|0:0,0:0:0:0:
346,309,133289,6,0,P|285:294|222:284,2,115.50000352478,2|2|2,1:2|1:2|1:2,0:0:0:0:
410,200,133861,5,14,0:0:0:0:
503,343,134004,1,0,1:0:0:0:
413,176,134147,2,0,L|431:82,1,77.0000023498536,10|0,0:0|1:0,0:0:0:0:
222,16,134432,2,0,L|240:110,1,77.0000023498536,10|0,0:0|1:0,0:0:0:0:
401,0,134718,1,10,0:0:0:0:
276,172,134861,6,0,B|192:168|227:229|125:222,1,154.000004699707,6|0,1:2|1:0,0:0:0:0:
70,85,135289,2,0,P|118:96|143:132,1,77.0000023498536,8|0,0:0|0:0,0:0:0:0:
36,211,135575,1,0,1:0:0:0:
36,211,135718,1,0,1:0:0:0:
84,293,135861,2,0,L|70:371,1,77.0000023498536,8|0,0:0|1:0,0:0:0:0:
189,321,136147,1,0,1:0:0:0:
189,321,136289,1,0,1:0:0:0:
230,235,136432,2,0,L|216:157,1,77.0000023498536,8|0,0:0|1:0,0:0:0:0:
279,19,136718,1,0,0:0:0:0:
279,19,136861,1,2,1:2:0:0:
368,99,137004,1,10,0:0:0:0:
216,159,137147,1,2,0:0:0:0:
311,261,137289,6,0,P|351:249|390:237,1,77.0000023498536,6|8,1:2|0:3,0:0:0:0:
410,259,137504,1,10,0:3:0:0:
410,259,137575,1,8,0:3:0:0:
493,344,137718,1,10,0:3:0:0:
493,344,137789,1,8,0:3:0:0:
493,344,137861,2,0,P|500:296|509:253,1,77.0000023498536,10|4,0:3|0:3,0:0:0:0:
498,123,138147,1,0,1:2:0:0:
474,92,138218,1,0,1:2:0:0:
440,74,138289,1,2,1:2:0:0:
402,76,138361,1,0,1:2:0:0:
369,95,138432,5,14,0:0:0:0:
384,238,138575,1,8,0:0:0:0:
276,127,138718,2,0,L|253:222,1,77.0000023498536,2|0,0:0|0:0,0:0:0:0:
344,339,139004,2,0,L|273:271,1,77.0000023498536,2|0,0:0|0:0,0:0:0:0:
154,180,139289,1,2,0:0:0:0:
125,288,139432,2,0,P|191:295|254:163,1,231.000007049561,2|2,0:0|0:0,0:0:0:0:
217,71,140004,5,2,1:2:0:0:
314,97,140147,2,0,P|357:84|387:52,1,83.9999974365235,8|2,0:0|0:0,0:0:0:0:
468,111,140575,1,2,1:2:0:0:
468,111,140647,1,2,0:0:0:0:
468,111,140718,2,0,L|458:204,1,83.9999974365235,2|0,0:0|1:0,0:0:0:0:
498,287,141147,1,2,1:2:0:0:
378,350,141289,1,8,0:0:0:0:
311,274,141432,2,0,L|227:285,1,83.9999974365235,2|2,1:2|1:2,0:0:0:0:
147,346,141861,6,0,P|104:333|82:290,1,83.9999974365235,2|2,1:2|0:0,0:0:0:0:
17,225,142289,1,0,1:2:0:0:
94,160,142432,2,0,P|139:150|169:115,1,83.9999974365235,10|2,0:0|0:2,0:0:0:0:
164,22,142861,1,2,1:2:0:0:
164,22,142932,1,0,1:0:0:0:
164,22,143004,2,0,L|224:33,1,41.9999987182618,2|2,0:0|1:2,0:0:0:0:
286,89,143289,1,2,0:0:0:0:
286,89,143432,2,0,L|271:179,2,83.9999974365235,2|2|0,1:2|1:2|1:2,0:0:0:0:
383,61,144147,6,0,B|417:91|417:91|427:143,1,83.9999974365235,6|2,1:2|0:0,0:0:0:0:
486,208,144575,1,2,1:2:0:0:
396,255,144718,2,0,L|301:239,1,83.9999974365235,8|2,0:0|1:2,0:0:0:0:
230,294,145147,1,2,1:2:0:0:
230,294,145218,1,0,1:0:0:0:
230,294,145289,2,0,P|211:322|209:377,1,83.9999974365235,0|0,1:0|1:0,0:0:0:0:
303,337,145718,1,2,1:2:0:0:
221,201,145861,2,0,P|176:207|137:233,1,83.9999974365235,8|2,0:0|1:2,0:0:0:0:
88,311,146289,1,2,1:2:0:0:
21,235,146432,6,0,L|42:139,1,83.9999974365235,2|2,1:2|0:0,0:0:0:0:
6,56,146861,1,2,1:2:0:0:
98,95,147004,2,0,B|137:85|137:85|176:37,1,83.9999974365235,8|2,0:0|1:2,0:0:0:0:
258,13,147432,1,2,1:2:0:0:
258,13,147504,1,0,1:0:0:0:
258,13,147575,2,0,L|244:73,1,41.9999987182618,0|2,1:0|1:2,0:0:0:0:
227,156,147861,1,0,1:0:0:0:
227,156,148004,1,2,1:2:0:0:
314,205,148147,6,0,L|347:198,3,20.9999993591309,8|8|10|0,0:0|0:0|0:0|0:0,0:0:0:0:
374,231,148432,1,0,1:0:0:0:
378,252,148503,1,0,1:0:0:0:
381,273,148574,1,0,1:0:0:0:
384,294,148646,1,0,1:0:0:0:
387,314,148718,6,0,L|409:231,1,83.9999974365235,6|2,1:2|0:0,0:0:0:0:
463,147,149147,1,2,1:2:0:0:
413,60,149289,2,0,P|369:55|329:83,1,83.9999974365235,10|2,0:0|0:0,0:0:0:0:
250,124,149718,1,2,1:2:0:0:
250,124,149789,1,0,1:0:0:0:
250,124,149861,2,0,L|261:26,1,83.9999974365235,0|0,1:0|1:0,0:0:0:0:
164,7,150289,1,2,1:2:0:0:
96,142,150432,1,10,0:0:0:0:
177,201,150575,2,0,L|265:216,1,83.9999974365235,2|2,1:2|1:2,0:0:0:0:
332,286,151004,6,0,P|320:325|270:342,1,83.9999974365235,2|2,1:2|0:0,0:0:0:0:
200,285,151432,1,2,1:2:0:0:
143,368,151575,2,0,L|53:350,1,83.9999974365235,10|2,0:0|0:0,0:0:0:0:
7,265,152004,1,2,1:2:0:0:
7,265,152075,1,0,1:0:0:0:
7,265,152147,2,0,L|18:215,1,41.9999987182618,0|2,1:0|1:2,0:0:0:0:
83,148,152432,1,0,1:0:0:0:
83,148,152575,2,0,L|69:53,2,83.9999974365235,2|2|0,1:2|1:2|1:0,0:0:0:0:
105,169,153218,1,0,1:0:0:0:
105,169,153289,6,0,B|149:169|149:169|190:132,1,83.9999974365235,6|0,1:2|1:0,0:0:0:0:
241,61,153718,1,0,1:2:0:0:
296,144,153861,2,0,L|281:241,1,83.9999974365235,10|2,0:0|0:0,0:0:0:0:
336,312,154289,1,0,1:2:0:0:
336,312,154361,1,0,1:0:0:0:
336,312,154432,2,0,P|383:287|414:286,1,83.9999974365235,0|0,1:0|1:0,0:0:0:0:
491,222,154861,1,2,1:2:0:0:
405,92,155004,2,0,L|417:-10,1,83.9999974365235,10|2,0:0|1:2,0:0:0:0:
323,51,155432,1,2,1:2:0:0:
365,169,155575,5,14,0:0:0:0:
485,115,155718,1,0,1:0:0:0:
353,176,155861,2,0,L|365:241,1,56,10|0,0:0|1:0,0:0:0:0:
294,347,156147,1,10,0:0:0:0:
294,347,156218,1,8,0:0:0:0:
294,347,156289,2,0,L|228:329,1,56,2|10,1:2|0:0,0:0:0:0:
164,365,156575,1,6,1:2:0:0:
164,365,156861,6,0,L|149:232,1,112,2|2,1:2|1:2,0:0:0:0:
6,135,157432,2,0,P|28:163|105:170,1,112,10|2,0:0|1:2,0:0:0:0:
136,150,157789,1,2,1:2:0:0:
136,150,157861,6,0,L|120:-2,1,140,6|8,1:2|0:0,0:0:0:0:
121,10,158432,1,2,1:2:0:0:
213,89,158575,1,0,1:0:0:0:
213,89,158718,1,8,0:0:0:0:
325,43,158861,1,2,1:2:0:0:
325,43,158932,1,2,0:0:0:0:
325,43,159004,2,0,L|309:204,1,140,2|8,0:0|0:0,0:0:0:0:
381,271,159432,1,2,0:0:0:0:
381,271,159504,1,2,0:0:0:0:
381,271,159575,2,0,P|425:220|497:227,1,140,2|8,1:2|0:0,0:0:0:0:
492,224,160004,1,2,1:2:0:0:
429,370,160147,6,0,P|357:355|267:346,1,140,2|10,0:0|0:0,0:0:0:0:
243,248,160575,2,0,P|315:263|398:272,1,140,2|2,0:0|1:2,0:0:0:0:
320,168,161004,1,8,0:0:0:0:
204,323,161147,2,0,P|154:315|118:225,1,140,2|2,1:2|1:2,0:0:0:0:
92,225,161504,1,2,0:0:0:0:
92,225,161575,2,0,P|56:236|15:242,1,70,10|2,0:0|0:0,0:0:0:0:
0,134,161861,1,0,1:0:0:0:
0,134,162004,1,0,1:0:0:0:
124,65,162147,2,0,P|115:106|108:161,1,70,8|0,0:0|0:0,0:0:0:0:
243,248,162432,5,14,0:0:0:0:
199,87,162575,1,0,1:2:0:0:
351,173,162718,2,0,L|269:161,1,70,10|0,0:0|1:2,0:0:0:0:
407,103,163004,1,10,0:0:0:0:
429,99,163075,1,2,0:0:0:0:
452,94,163146,1,2,1:2:0:0:
476,91,163218,1,2,0:0:0:0:
499,86,163289,1,2,1:2:0:0:
505,221,163432,6,0,B|468:239|456:268|456:268|420:252|373:263,1,140,12|2,0:0|1:2,0:0:0:0:
256,364,163861,2,0,P|296:348|314:307,1,70,10|0,0:0|1:2,0:0:0:0:
207,275,164147,1,10,0:0:0:0:
173,268,164218,1,2,0:0:0:0:
139,262,164289,1,2,1:2:0:0:
104,256,164361,1,2,0:0:0:0:
70,250,164432,1,2,1:2:0:0:
0,132,164575,6,0,L|145:101,1,140,14|2,0:0|1:2,0:0:0:0:
329,76,165004,1,10,0:0:0:0:
194,167,165147,1,2,1:2:0:0:
219,16,165289,1,10,0:0:0:0:
306,187,165432,1,2,1:2:0:0:
306,187,165575,1,2,1:2:0:0:
329,76,165718,6,0,B|422:56|422:56|478:78,1,140,14|8,0:0|0:3,0:0:0:0:
476,93,166075,1,8,0:3:0:0:
476,93,166147,2,0,L|463:151,3,35,6|4|6|4,0:3|0:3|0:3|0:3,0:0:0:0:
404,194,166432,1,8,0:3:0:0:
404,194,166504,1,8,0:3:0:0:
404,194,166575,2,0,L|414:239,1,35,8|8,0:3|0:3,0:0:0:0:
458,316,166718,1,4,0:3:0:0:
424,308,166789,1,4,0:3:0:0:
391,316,166861,1,4,0:3:0:0:
365,339,166932,1,4,0:3:0:0:
351,370,167003,5,6,1:2:0:0:
259,280,167147,1,2,1:2:0:0:
259,280,167289,2,0,L|267:354,1,62.9999980773926,10|0,0:0|1:0,0:0:0:0:
194,213,167575,1,2,1:2:0:0:
105,318,167718,2,0,P|68:309|42:266,1,62.9999980773926,2|8,1:2|0:0,0:0:0:0:
0,163,168004,2,0,L|152:187,1,125.999996154785,2|2,1:2|1:2,0:0:0:0:
253,128,168432,1,8,0:0:0:0:
253,128,168575,1,2,1:2:0:0:
149,61,168718,1,2,1:2:0:0:
194,213,168861,1,2,1:2:0:0:
136,48,169004,2,0,L|121:129,1,62.9999980773926,10|0,0:0|1:0,0:0:0:0:
194,213,169289,5,6,1:2:0:0:
335,273,169432,1,2,1:2:0:0:
335,273,169575,2,0,L|321:196,1,62.9999980773926,10|0,0:0|1:0,0:0:0:0:
301,353,169861,1,2,1:2:0:0:
416,247,170004,2,0,P|464:257|489:291,1,62.9999980773926,2|8,1:2|0:0,0:0:0:0:
507,152,170289,2,0,P|439:117|435:52,1,125.999996154785,2|2,1:2|1:2,0:0:0:0:
339,12,170718,1,8,0:0:0:0:
339,12,170861,1,2,1:2:0:0:
230,93,171004,2,0,P|222:57|211:11,1,62.9999980773926,2|0,1:2|1:0,0:0:0:0:
323,211,171289,2,0,P|331:175|342:129,1,62.9999980773926,10|0,0:0|1:0,0:0:0:0:
236,289,171575,5,6,1:2:0:0:
135,209,171718,1,2,1:2:0:0:
135,209,171861,2,0,P|95:218|51:223,1,62.9999980773926,10|0,0:0|1:0,0:0:0:0:
218,164,172147,1,2,1:2:0:0:
129,295,172289,2,0,P|109:328|103:354,1,62.9999980773926,2|8,1:2|0:0,0:0:0:0:
236,289,172575,2,0,L|217:151,1,125.999996154785,2|2,1:2|1:2,0:0:0:0:
159,59,173004,1,10,0:0:0:0:
159,59,173147,1,2,1:2:0:0:
76,133,173289,1,2,1:2:0:0:
218,164,173432,1,2,1:2:0:0:
59,127,173575,2,0,P|42:159|33:198,1,62.9999980773926,10|0,0:0|0:0,0:0:0:0:
103,351,173861,5,14,0:0:0:0:
119,196,174004,1,0,1:0:0:0:
236,289,174147,1,8,0:0:0:0:
236,289,174290,1,2,1:2:0:0:
308,166,174432,2,0,P|295:127|287:95,1,62.9999980773926,8|0,0:0|1:0,0:0:0:0:
347,37,174718,1,10,0:0:0:0:
424,161,174861,2,0,L|395:294,1,125.999996154785,6|2,1:2|1:2,0:0:0:0:
499,120,175289,2,0,P|478:97|438:78,1,62.9999980773926,8|0,0:0|1:0,0:0:0:0:
314,196,175575,1,2,1:2:0:0:
424,161,175718,1,8,0:0:0:0:
300,104,175861,1,8,0:3:0:0:
268,107,175932,1,8,0:3:0:0:
237,111,176003,1,4,0:3:0:0:
206,115,176075,1,4,0:3:0:0:
174,119,176146,5,6,1:2:0:0:
44,72,176289,1,2,1:2:0:0:
44,72,176432,2,0,L|57:162,1,62.9999980773926,10|0,0:0|1:0,0:0:0:0:
10,267,176718,1,2,1:2:0:0:
173,207,176861,2,0,P|135:190|102:194,1,62.9999980773926,2|8,1:2|0:0,0:0:0:0:
89,324,177147,2,0,L|239:294,1,125.999996154785,2|2,1:2|1:2,0:0:0:0:
353,338,177575,1,10,0:0:0:0:
353,338,177718,1,2,1:2:0:0:
333,228,177861,1,2,1:2:0:0:
262,365,178004,1,2,1:2:0:0:
341,213,178147,2,0,L|331:125,1,62.9999980773926,10|0,0:0|1:0,0:0:0:0:
356,44,178432,5,6,1:2:0:0:
478,125,178575,1,2,1:2:0:0:
478,125,178718,2,0,L|411:109,1,62.9999980773926,10|0,0:0|1:0,0:0:0:0:
325,33,179004,2,0,P|278:40|227:122,1,125.999996154785,2|10,1:2|0:0,0:0:0:0:
168,172,179432,2,0,P|138:134|41:131,1,125.999996154785,2|2,1:2|1:2,0:0:0:0:
0,220,179861,1,10,0:0:0:0:
0,220,180004,1,2,1:2:0:0:
99,266,180147,1,2,1:2:0:0:
64,121,180289,1,2,1:2:0:0:
106,281,180432,2,0,L|90:369,1,62.9999980773926,10|0,0:0|1:0,0:0:0:0:
272,262,180718,5,14,0:0:0:0:
168,172,180861,1,2,1:2:0:0:
193,342,181004,2,0,L|271:335,1,62.9999980773926,10|0,0:0|1:0,0:0:0:0:
377,361,181289,2,0,P|386:323|418:280,1,62.9999980773926,10|2,0:0|1:2,0:0:0:0:
475,246,181575,1,8,0:0:0:0:
381,129,181718,2,0,B|341:135|341:135|320:168|320:168|260:186,1,125.999996154785,2|2,1:2|1:2,0:0:0:0:
168,172,182147,1,10,0:0:0:0:
301,63,182289,1,2,1:2:0:0:
137,0,182432,1,2,1:2:0:0:
233,113,182574,1,2,1:2:0:0:
62,198,182718,1,10,0:0:0:0:
68,167,182789,1,8,0:0:0:0:
75,136,182860,1,8,0:0:0:0:
82,105,182932,1,8,0:0:0:0:
89,75,183004,6,0,L|107:193,4,105,2|2|2|2|2,1:2|0:0|0:0|0:0|0:0,0:0:0:0:
32,296,185147,1,0,1:0:0:0:
32,296,185219,1,0,1:0:0:0:
32,296,185289,5,10,0:3:0:0:
155,263,185432,1,10,0:3:0:0:
106,358,185575,1,6,0:3:0:0:
229,325,185718,1,10,0:3:0:0:
229,325,185789,1,8,0:3:0:0:
229,325,185861,6,0,L|320:345,1,70,10|6,0:3|0:3,0:0:0:0:
414,285,186147,1,10,0:0:0:0:
410,257,186218,1,8,0:0:0:0:
395,239,186289,2,0,P|359:222|329:183,1,70,10|0,0:3|1:0,0:0:0:0:
238,107,186575,6,0,L|229:74,1,35,10|8,0:0|0:0,0:0:0:0:
242,206,186718,2,0,L|207:240,1,35,10|8,0:0|0:0,0:0:0:0:
341,113,186861,1,2,1:2:0:0:
341,113,186932,1,0,1:0:0:0:
341,113,187004,2,0,P|380:77|473:94,1,140,10|0,0:0|0:0,0:0:0:0:
461,84,187575,5,6,1:2:0:0:
64,161,188575,5,2,1:2:0:0:
142,263,188861,5,2,1:2:0:0:
192,145,189147,6,0,L|170:26,1,112,2|2,1:2|1:2,0:0:0:0:
202,20,189504,1,0,1:0:0:0:
202,20,189575,5,2,1:2:0:0:
304,145,189718,6,0,B|292:182|302:224|302:224|278:326,1,154.000004699707,6|2,1:2|1:2,0:0:0:0:
153,364,190147,2,0,L|137:275,1,77.0000023498536,10|2,0:0|0:0,0:0:0:0:
26,108,190432,1,2,1:2:0:0:
167,198,190575,1,2,1:2:0:0:
21,247,190718,1,8,0:0:0:0:
114,122,190861,2,0,P|184:106|277:77,1,154.000004699707,2|0,1:2|1:0,0:0:0:0:
349,19,191289,2,0,P|399:41|403:74,1,77.0000023498536,8|0,0:0|1:0,0:0:0:0:
369,173,191575,1,0,1:0:0:0:
369,173,191718,1,2,1:2:0:0:
481,136,191861,1,10,0:0:0:0:
481,136,192004,1,2,0:0:0:0:
405,258,192147,6,0,P|439:292|514:289,2,115.50000352478,4|2|2,1:2|0:0|0:0,0:0:0:0:
313,284,192718,6,0,P|266:296|231:362,2,115.50000352478,0|2|2,1:2|0:0|0:0,0:0:0:0:
336,191,193289,6,0,P|348:144|308:81,2,115.50000352478,0|2|2,1:2|0:0|0:0,0:0:0:0:
220,224,193861,6,0,P|231:178|238:134,1,77.0000023498536,0|2,1:2|1:2,0:0:0:0:
113,67,194075,1,2,0:0:0:0:
113,67,194147,2,0,P|124:113|131:157,1,77.0000023498536,10|2,0:0|1:2,0:0:0:0:
158,286,194432,5,14,0:0:0:0:
81,339,194575,2,0,L|-12:327,1,77.0000023498536,0|0,1:0|1:0,0:0:0:0:
0,194,194861,5,10,0:0:0:0:
52,132,195004,2,0,L|145:144,1,77.0000023498536,0|0,1:0|1:0,0:0:0:0:
220,224,195289,6,0,L|234:322,1,77.0000023498536,10|0,0:0|1:0,0:0:0:0:
303,144,195575,1,8,0:3:0:0:
303,144,195647,1,8,0:3:0:0:
303,144,195718,1,10,0:3:0:0:
339,272,195861,1,8,0:3:0:0:
220,224,196004,1,8,0:3:0:0:
379,178,196147,1,6,0:3:0:0:
397,181,196218,1,4,0:3:0:0:
416,184,196289,1,4,0:3:0:0:
435,187,196361,1,4,0:3:0:0:
454,191,196432,1,6,1:3:0:0:
483,9,196718,6,0,P|467:36|459:80,1,62.9999980773926,2|0,1:2|1:0,0:0:0:0:
454,82,197004,6,0,P|420:55|370:41,1,77.0000023498536,6|2,1:2|0:0,0:0:0:0:
240,5,197289,2,0,L|254:95,2,77.0000023498536,2|2|8,1:2|1:2|0:0,0:0:0:0:
164,55,197718,6,0,B|69:90|134:123|37:151,1,154.000004699707,2|0,1:2|1:0,0:0:0:0:
0,80,198147,1,10,0:0:0:0:
0,80,198289,1,2,0:0:0:0:
37,245,198432,1,2,1:2:0:0:
182,163,198575,1,2,1:2:0:0:
182,163,198718,1,10,0:0:0:0:
238,248,198861,6,0,P|193:312|106:310,1,154.000004699707,6|2,1:2|1:2,0:0:0:0:
182,163,199289,2,0,P|232:146|286:161,1,77.0000023498536,10|2,0:0|0:0,0:0:0:0:
411,224,199575,1,2,1:2:0:0:
317,77,199718,1,2,1:2:0:0:
453,140,199861,1,8,0:0:0:0:
321,245,200004,2,0,P|332:189|348:67,1,154.000004699707,2|0,1:2|1:0,0:0:0:0:
269,8,200432,2,0,P|229:30|194:36,1,77.0000023498536,8|0,0:0|0:0,0:0:0:0:
83,11,200718,1,0,1:0:0:0:
83,11,200861,1,2,1:2:0:0:
36,121,201004,1,10,0:0:0:0:
36,121,201147,1,2,0:0:0:0:
153,141,201289,6,0,P|173:82|200:31,2,115.50000352478,4|2|2,1:2|0:0|0:0,0:0:0:0:
114,240,201861,6,0,P|52:252|-4:254,2,115.50000352478,0|2|2,1:2|0:0|1:2,0:0:0:0:
207,209,202432,5,10,0:0:0:0:
36,121,202575,1,0,1:0:0:0:
220,216,202718,2,0,L|211:126,1,77.0000023498536,10|0,0:0|1:0,0:0:0:0:
189,309,203004,2,0,P|230:316|273:295,1,77.0000023498536,10|0,0:0|1:0,0:0:0:0:
419,185,203289,1,10,0:0:0:0:
376,318,203432,6,0,P|321:297|322:187,1,154.000004699707,6|0,1:2|1:0,0:0:0:0:
314,64,203861,1,8,0:0:0:0:
419,185,204004,1,0,1:0:0:0:
445,25,204147,2,0,P|422:70|413:100,1,77.0000023498536,8|0,0:0|1:0,0:0:0:0:
304,210,204432,2,0,P|259:187|229:178,1,77.0000023498536,8|0,0:0|1:0,0:0:0:0:
121,107,204718,6,0,L|109:44,3,38.5000011749268,14|0|0|0,0:0|0:0|1:0|1:0,0:0:0:0:
42,181,205004,2,0,L|30:244,3,38.5000011749268,14|0|0|0,0:0|0:0|1:0|0:0,0:0:0:0:
100,294,205289,1,8,0:0:0:0:
138,288,205360,1,0,1:0:0:0:
176,283,205431,1,2,1:2:0:0:
214,277,205503,1,0,0:0:0:0:
252,272,205575,2,0,L|275:363,1,77.0000023498536,14|2,0:0|1:2,0:0:0:0:
386,228,205861,6,0,P|366:194|316:173,1,77.0000023498536,14|0,0:0|1:0,0:0:0:0:
169,168,206147,1,8,0:0:0:0:
310,93,206289,1,2,1:2:0:0:
152,34,206432,2,0,P|114:53|69:61,1,77.0000023498536,10|0,0:0|1:0,0:0:0:0:
17,207,206718,2,0,L|33:311,1,77.0000023498536,8|2,0:0|1:2,0:0:0:0:
141,358,207004,6,0,B|215:372|261:340|233:316|291:280|358:306,1,224,14|0,0:0|0:0,0:0:0:0:
499,202,207861,1,10,0:0:0:0:
344,313,208004,2,0,L|330:251,1,56,10|0,0:0|0:0,0:0:0:0:
256,192,208218,12,10,210147,0:0:0:0:
394,76,210289,6,0,B|350:69|312:98|312:98|305:55|241:27,1,167.999994873047,6|2,1:2|1:2,0:0:0:0:
107,11,210718,2,0,P|125:62|128:97,1,83.9999974365235,10|2,0:0|0:0,0:0:0:0:
45,260,211004,1,2,1:2:0:0:
127,315,211147,2,0,L|236:292,1,83.9999974365235,2|8,1:2|0:0,0:0:0:0:
288,145,211432,6,0,P|206:146|170:240,1,167.999994873047,2|2,1:2|1:2,0:0:0:0:
209,297,211861,1,10,0:0:0:0:
340,218,212004,1,2,0:0:0:0:
393,330,212147,1,2,1:2:0:0:
464,265,212289,2,0,P|472:217|485:165,1,83.9999974365235,2|8,1:2|0:0,0:0:0:0:
495,15,212575,6,0,P|458:73|338:80,1,167.999994873047,6|2,1:2|1:2,0:0:0:0:
295,31,213004,1,10,0:0:0:0:
406,176,213147,1,2,0:0:0:0:
278,218,213289,2,0,P|281:159|309:124,2,83.9999974365235,2|2|8,1:2|1:2|0:0,0:0:0:0:
260,341,213718,6,0,B|224:337|202:305|202:305|147:289|93:331,1,167.999994873047,6|2,1:2|1:2,0:0:0:0:
6,276,214147,2,0,P|26:338|26:364,1,83.9999974365235,10|2,0:0|0:0,0:0:0:0:
102,232,214432,1,2,1:2:0:0:
27,149,214575,1,2,1:2:0:0:
27,149,214647,1,2,0:0:0:0:
27,149,214718,1,10,0:0:0:0:
81,49,214861,6,0,B|113:57|133:59|133:59|158:85|158:85|197:91|246:106,1,167.999994873047,2|2,0:0|0:0,0:0:0:0:
328,21,215289,2,0,P|278:34|260:67,1,83.9999974365235,10|2,0:0|0:0,0:0:0:0:
446,148,215575,1,2,1:2:0:0:
374,92,215718,2,0,P|368:131|356:185,1,83.9999974365235,2|8,1:2|0:0,0:0:0:0:
419,296,216004,6,0,B|374:265|374:265|260:284,1,167.999994873047,2|2,1:2|1:2,0:0:0:0:
187,347,216432,1,10,0:0:0:0:
271,178,216575,1,2,0:0:0:0:
85,236,216718,1,2,1:2:0:0:
179,258,216861,2,0,P|188:212|193:158,1,83.9999974365235,2|8,1:2|0:0,0:0:0:0:
143,28,217147,6,0,P|69:44|30:124,1,167.999994873047,6|2,1:2|1:2,0:0:0:0:
77,256,217575,1,10,0:0:0:0:
123,120,217718,1,2,0:0:0:0:
252,213,217861,1,10,0:0:0:0:
174,313,218004,1,2,1:2:0:0:
174,313,218075,1,0,1:0:0:0:
174,313,218147,1,0,1:0:0:0:
275,189,218289,6,0,B|366:175|325:254|463:230,1,167.999994873047,6|10,1:2|0:3,0:0:0:0:
453,216,218647,1,8,0:3:0:0:
453,216,218718,2,0,L|445:158,3,41.9999987182618,10|8|10|8,0:3|0:3|0:3|0:3,0:0:0:0:
433,35,219004,1,10,0:0:0:0:
298,50,219147,1,10,0:0:0:0:
312,189,219289,1,10,0:0:0:0:
447,174,219432,1,10,0:0:0:0:
298,50,219718,6,0,P|263:33|229:31,2,56,2|2|2,0:0|0:0|0:0,0:0:0:0:
362,105,220147,1,2,0:0:0:0:
391,182,220289,1,2,0:0:0:0:
384,265,220432,1,2,1:2:0:0:
384,265,220504,1,0,1:0:0:0:
384,265,220575,2,0,L|452:252,1,56,14|0,0:0|0:0,0:0:0:0:
295,218,220861,1,10,0:0:0:0:
391,346,221004,2,0,L|504:324,1,112,14|0,0:0|0:0,0:0:0:0:
