osu file format v14

[General]
AudioFilename: audio.mp3
AudioLeadIn: 0
PreviewTime: 118504
Countdown: 0
SampleSet: Soft
StackLeniency: 0.5
Mode: 0
LetterboxInBreaks: 0
WidescreenStoryboard: 1

[Editor]
DistanceSpacing: 0.2
BeatDivisor: 4
GridSize: 32
TimelineZoom: 3.799998

[Metadata]
Title:Sacrifice
TitleUnicode:Sacrifice
Artist:Ouse Akira
ArtistUnicode:逢瀬アキラ
Creator:Poyoyo
Version:Li's Sweaty Extra
Source:ふゆから​、くるる。
Tags:ふゆくる fuyu kara kururu fuyukuru シルキーズプラス silky's plus galgame eroge visual novel opening rock japanese -yua cclemon LeeGod bongo GfMRT wei_0921
BeatmapID:4058892
BeatmapSetID:1877093

[Difficulty]
HPDrainRate:5
CircleSize:3.8
OverallDifficulty:9
ApproachRate:9.4
SliderMultiplier:2
SliderTickRate:1

[Events]
//Background and Video events
0,0,"li.jpg",0,0
//Break Periods
//Storyboard Layer 0 (Background)
//Storyboard Layer 1 (Fail)
//Storyboard Layer 2 (Pass)
//Storyboard Layer 3 (Foreground)
//Storyboard Layer 4 (Overlay)
//Storyboard Sound Samples

[TimingPoints]
147,285.714285714286,4,2,1,70,1,0
4575,-100,4,2,1,5,0,0
4718,-117.647058823529,4,2,1,70,0,0
6861,-117.647058823529,4,2,2,70,0,0
7147,-117.647058823529,4,2,1,70,0,0
8004,-117.647058823529,4,2,3,70,0,0
8289,-117.647058823529,4,2,1,70,0,0
9289,-111.111111111111,4,2,1,70,0,0
11575,-400,4,2,1,70,0,0
13718,-400,4,2,1,5,0,0
13861,-285.714285714286,4,2,1,70,0,0
14861,-285.714285714286,4,2,1,5,0,0
15004,-142.857142857143,4,2,1,70,0,0
15147,-142.857142857143,4,2,2,70,0,0
15289,-142.857142857143,4,2,1,70,0,0
16004,-100,4,2,1,80,0,0
25147,-100,4,2,1,5,0,0
25289,-166.666666666667,4,2,1,60,0,0
34432,-133.333333333333,4,2,1,70,0,0
43575,-125,4,2,1,70,0,0
55004,-111.111111111111,4,2,1,70,0,0
57289,-111.111111111111,4,2,1,70,0,0
59575,-100,4,2,1,70,0,0
61575,-100,4,2,2,70,0,0
61718,-100,4,2,1,70,0,0
61861,-400,4,2,1,70,0,0
64004,-133.333333333333,4,2,1,80,0,0
65147,-100,4,2,1,80,0,0
66147,-200,4,2,1,80,0,0
66432,-86.9565217391304,4,2,1,90,0,1
85147,-86.9565217391304,4,2,2,90,0,1
85432,-86.9565217391304,4,2,1,90,0,1
86861,-100,4,2,1,80,0,0
90147,-100,4,2,2,80,0,0
90432,-100,4,2,1,70,0,0
90789,-100,4,2,1,5,0,0
90861,-100,4,2,1,70,0,0
91075,-100,4,2,1,5,0,0
91147,-200,4,2,1,70,0,0
91504,-200,4,2,1,5,0,0
91575,-133.333333333333,4,2,1,60,0,0
98432,-133.333333333333,4,2,1,70,0,0
100575,-133.333333333333,4,2,2,70,0,0
100718,-153.846153846154,4,2,1,70,0,0
109861,-111.111111111111,4,2,1,70,0,0
114432,-111.111111111111,4,2,1,80,0,0
116718,-100,4,2,1,80,0,0
119004,-86.9565217391304,4,2,1,80,0,1
137718,-86.9565217391304,4,2,2,80,0,1
138004,-86.9565217391304,4,2,1,90,0,1
139575,-133.333333333333,4,2,1,75,0,0
142861,-100,4,2,1,75,0,0
144147,-133.333333333333,4,2,1,75,0,0
147432,-100,4,2,1,75,0,0
148718,-117.647058823529,4,2,1,75,0,0
155575,-100,4,2,1,75,0,0
157718,-100,4,2,1,85,0,0
162432,-90.9090909090909,4,2,1,85,0,1
166432,-90.9090909090909,4,2,2,85,0,1
166718,-90.9090909090909,4,2,1,85,0,1
167004,-111.111111111111,4,2,1,85,0,0
173861,-100,4,2,1,85,0,0
176147,-100,4,2,1,90,0,0
180718,-90.9090909090909,4,2,1,90,0,0
183004,-400,4,2,1,70,0,0
185147,-133.333333333333,4,2,1,80,0,0
185718,-133.333333333333,4,2,2,80,0,0
186004,-133.333333333333,4,2,1,80,0,0
187611,-133.333333333333,4,2,1,5,0,0
188575,-133.333333333333,4,2,1,80,0,0
189718,-86.9565217391304,4,2,1,90,0,1
195861,-86.9565217391304,4,2,2,90,0,1
196147,-86.9565217391304,4,2,1,90,0,1
196718,-181.818181818182,4,2,1,90,0,0
197004,-86.9565217391304,4,2,1,90,0,1
207004,-166.666666666667,4,2,1,90,0,0
209075,-166.666666666667,4,2,1,5,0,0
209147,-166.666666666667,4,2,1,80,0,0
218861,-166.666666666667,4,2,2,80,0,0

[Colours]
Combo1 : 159,159,223
Combo2 : 219,149,149
Combo3 : 223,159,223
Combo4 : 159,223,159

[HitObjects]
256,192,147,12,0,4575,0:0:0:0:
78,279,4718,5,6,1:2:0:0:
84,286,5718,5,6,1:2:0:0:
288,220,6718,5,8,0:0:0:0:
89,294,6861,1,2,1:2:0:0:
222,143,7575,5,10,0:0:0:0:
222,143,7647,1,0,0:0:0:0:
222,143,7718,2,0,P|255:144|278:144,2,42.5000008106232,8|0|6,0:3|0:0|0:3,0:0:0:0:
93,301,8004,1,2,1:2:0:0:
113,384,8289,5,8,0:0:0:0:
173,278,8432,1,0,0:0:0:0:
67,218,8575,1,0,1:0:0:0:
7,323,8718,1,0,0:0:0:0:
51,145,8861,6,0,P|43:110|37:88,2,42.5000008106232,2|0|2,1:2|1:0|1:2,0:0:0:0:
93,301,9147,1,0,0:0:0:0:
289,357,9289,6,0,P|282:329|277:312,5,44.999998626709,10|0|0|0|0|0,0:0|1:2|1:2|1:2|1:2|1:2,0:0:0:0:
362,338,9718,2,0,P|355:310|350:293,1,44.999998626709,2|0,1:2|1:2,0:0:0:0:
494,230,9861,6,0,P|499:208|505:186,5,44.999998626709,10|0|0|0|0|0,0:0|1:2|1:2|1:2|1:2|1:2,0:0:0:0:
420,210,10290,2,0,P|425:188|431:166,1,44.999998626709,2|2,0:2|1:2,0:0:0:0:
281,135,10432,5,8,0:0:0:0:
273,113,10503,1,0,1:2:0:0:
266,92,10574,1,0,1:2:0:0:
259,71,10646,1,0,1:2:0:0:
251,48,10718,6,0,P|238:11|235:0,1,44.999998626709,2|0,1:2|1:2,0:0:0:0:
179,68,10861,2,0,P|171:46|164:25,1,44.999998626709,2|0,1:2|1:2,0:0:0:0:
109,117,11004,2,0,P|115:138|123:159,1,44.999998626709,10|8,0:0|0:0,0:0:0:0:
37,137,11147,2,0,P|43:158|51:179,1,44.999998626709,10|8,0:0|0:0,0:0:0:0:
229,287,11289,5,2,1:2:0:0:
395,170,11432,1,2,1:2:0:0:
223,129,11575,6,0,B|354:118|343:402|464:384,1,375,6|0,1:2|0:0,0:0:0:0:
469,382,13861,5,2,0:0:0:0:
256,192,13932,12,0,14861,0:0:0:0:
482,251,15004,5,8,0:0:0:0:
482,251,15075,1,8,0:3:0:0:
482,251,15147,2,0,P|474:288|472:300,1,34.9999989318848,8|8,0:3|0:3,0:0:0:0:
391,167,15289,1,8,0:3:0:0:
391,167,15360,1,8,0:3:0:0:
391,167,15432,2,0,P|399:204|401:216,1,34.9999989318848,4|4,0:3|0:3,0:0:0:0:
404,356,15575,5,10,0:0:0:0:
469,112,15718,1,10,0:0:0:0:
410,368,15861,1,10,0:0:0:0:
313,195,16004,6,0,B|290:193|269:185|269:185|197:261|197:261|175:252|147:252,1,200,6|2,1:2|1:2,0:0:0:0:
78,293,16432,2,0,P|106:343|125:386,1,100,10|2,0:0|0:0,0:0:0:0:
298,295,16718,1,2,1:2:0:0:
164,172,16861,2,0,P|114:178|77:219,1,100,2|8,1:2|0:0,0:0:0:0:
40,1,17147,6,0,B|149:3|116:51|235:44,1,200,2|2,1:2|1:2,0:0:0:0:
407,122,17575,1,10,0:0:0:0:
308,45,17718,1,2,0:0:0:0:
444,13,17861,1,2,1:2:0:0:
287,147,18004,1,2,1:2:0:0:
478,191,18147,1,8,0:0:0:0:
227,49,18289,6,0,B|148:63|208:197|128:209,1,200,6|2,1:2|1:2,0:0:0:0:
60,171,18718,2,0,P|72:120|82:73,1,100,10|2,0:0|0:0,0:0:0:0:
27,350,19004,1,2,1:2:0:0:
0,242,19147,2,0,P|10:290|21:339,1,100,2|8,1:2|0:0,0:0:0:0:
278,275,19432,6,0,B|318:251|346:292|343:294|381:345|424:314,1,150,6|0,1:2|0:0,0:0:0:0:
420,319,19718,1,2,1:2:0:0:
291,156,19861,1,10,0:0:0:0:
291,156,20004,1,2,0:0:0:0:
268,368,20147,1,2,1:2:0:0:
440,224,20289,1,2,1:2:0:0:
447,200,20360,1,2,0:0:0:0:
456,176,20431,1,10,0:0:0:0:
238,58,20575,5,2,0:0:0:0:
400,58,20718,2,0,P|341:51|228:40,1,150,6|0,1:2|0:0,0:0:0:0:
167,14,21004,2,0,P|114:26|59:36,1,100,10|2,0:0|0:0,0:0:0:0:
204,146,21289,1,2,1:2:0:0:
100,171,21432,2,0,P|148:159|197:150,1,100,2|8,1:2|0:0,0:0:0:0:
0,195,21718,6,0,B|56:190|50:358|112:359,1,200,2|2,1:2|1:2,0:0:0:0:
303,258,22147,1,10,0:0:0:0:
179,384,22289,1,2,0:0:0:0:
135,195,22432,1,2,1:2:0:0:
321,243,22575,1,2,1:2:0:0:
164,291,22718,1,8,0:0:0:0:
367,91,22861,6,0,B|380:69|370:34|370:34|382:76|411:184,1,200,6|2,1:2|1:2,0:0:0:0:
492,194,23289,2,0,P|478:252|469:297,1,100,10|2,0:0|0:0,0:0:0:0:
414,356,23575,1,2,1:2:0:0:
299,142,23718,2,0,P|313:200|322:245,1,100,2|8,1:2|0:0,0:0:0:0:
64,358,24004,6,0,B|43:272|131:304|100:199,1,150,6|0,1:2|0:0,0:0:0:0:
99,205,24289,1,10,0:0:0:0:
221,321,24432,1,10,0:0:0:0:
94,113,24575,2,0,P|47:130|1:149,1,100,10|0,0:0|1:0,0:0:0:0:
325,68,24861,6,0,B|311:28|363:15|383:74|322:104|322:104|261:91|227:161|254:179,1,250,10|0,0:0|0:0,0:0:0:0:
255,191,25289,5,0,1:0:0:0:
255,191,25575,2,0,P|295:202|324:211,1,59.9999981689454,2|0,1:2|0:0,0:0:0:0:
200,262,25861,2,0,P|280:284|332:302,1,119.999996337891,2|0,1:2|1:0,0:0:0:0:
376,364,26289,1,2,0:0:0:0:
241,165,26575,6,0,P|211:162|182:162,2,59.9999981689454,2|2|2,0:0|1:2|0:0,0:0:0:0:
109,114,27004,2,0,P|79:110|49:110,1,59.9999981689454,2|2,1:2|0:0,0:0:0:0:
182,49,27289,2,0,P|249:49|313:58,1,119.999996337891,2|0,1:2|1:0,0:0:0:0:
327,57,27861,6,0,P|332:102|318:124,1,59.9999981689454,2|0,1:2|0:0,0:0:0:0:
431,143,28147,2,0,P|414:102|466:33,1,119.999996337891,2|0,1:2|1:0,0:0:0:0:
512,99,28575,1,2,0:0:0:0:
512,99,28861,6,0,P|507:136|503:169,2,59.9999981689454,2|2|2,0:0|1:2|0:0,0:0:0:0:
477,244,29289,2,0,P|472:273|469:303,1,59.9999981689454,2|2,1:2|0:0,0:0:0:0:
409,381,29575,1,2,1:2:0:0:
315,304,29861,6,0,P|276:309|208:324,1,89.9999972534181,0|0,1:0|0:0,0:0:0:0:
200,326,30147,2,0,P|179:286|186:252,1,59.9999981689454,2|0,1:2|0:0,0:0:0:0:
136,374,30432,2,0,P|98:302|111:242,1,119.999996337891,2|0,1:2|1:0,0:0:0:0:
157,187,30861,1,2,0:0:0:0:
157,187,31147,6,0,P|200:175|228:173,2,59.9999981689454,2|2|2,0:0|1:2|0:0,0:0:0:0:
68,131,31575,2,0,P|25:119|-3:117,1,59.9999981689454,2|2,1:2|0:0,0:0:0:0:
125,61,31861,1,2,1:2:0:0:
125,61,32004,1,2,0:0:0:0:
196,7,32147,6,0,B|257:2|252:43|321:39,1,119.999996337891,2|0,1:2|1:0,0:0:0:0:
390,17,32575,2,0,P|430:33|410:110,1,119.999996337891,2|0,0:0|0:0,0:0:0:0:
348,130,33004,2,0,P|300:159|313:214,1,119.999996337891,2|0,1:2|1:0,0:0:0:0:
373,269,33432,5,10,0:0:0:0:
373,269,33575,1,10,0:0:0:0:
463,217,33718,5,2,1:2:0:0:
413,356,33861,1,2,1:2:0:0:
269,284,34004,2,0,P|200:274|148:267,1,119.999996337891,10|8,0:0|0:0,0:0:0:0:
137,268,34361,5,8,0:0:0:0:
137,268,34432,1,2,1:2:0:0:
228,307,34575,1,0,0:0:0:0:
331,225,34718,2,0,P|286:231|252:237,1,75.0000028610231,10|0,0:0|0:0,0:0:0:0:
239,384,35004,2,0,P|312:371|387:361,1,150.000005722046,2|8,1:2|0:0,0:0:0:0:
387,360,35432,1,2,0:0:0:0:
482,289,35575,5,0,1:0:0:0:
400,228,35718,1,2,0:0:0:0:
491,189,35861,2,0,P|501:136|506:112,1,75.0000028610231,10|2,0:0|0:0,0:0:0:0:
340,153,36147,2,0,P|350:100|355:76,1,75.0000028610231,2|2,1:2|0:0,0:0:0:0:
443,25,36432,1,10,0:0:0:0:
354,79,36575,1,0,0:0:0:0:
354,79,36647,1,0,0:0:0:0:
354,79,36718,2,0,P|272:90|223:100,1,112.500004291535,0|0,1:0|0:0,0:0:0:0:
226,100,37004,6,0,P|197:140|200:178,1,75.0000028610231,10|0,0:0|0:0,0:0:0:0:
43,109,37289,2,0,P|101:136|104:233,1,150.000005722046,2|8,1:2|0:0,0:0:0:0:
111,227,37718,1,2,0:0:0:0:
34,297,37861,1,0,1:0:0:0:
147,359,38004,1,2,0:0:0:0:
236,286,38147,6,0,P|227:233|217:193,1,75.0000028610231,10|2,0:0|0:0,0:0:0:0:
348,270,38432,2,0,P|339:217|329:177,1,75.0000028610231,2|2,1:2|0:0,0:0:0:0:
304,347,38718,1,10,0:0:0:0:
267,140,38861,1,0,1:0:0:0:
267,140,38932,1,0,1:0:0:0:
267,140,39004,1,0,1:0:0:0:
393,54,39289,6,0,P|440:64|474:72,1,75.0000028610231,10|0,0:0|0:0,0:0:0:0:
378,154,39575,1,2,1:2:0:0:
378,154,39718,2,0,P|425:164|459:172,1,75.0000028610231,2|8,0:0|0:0,0:0:0:0:
506,267,40004,2,0,B|417:277|452:321|358:325,1,150.000005722046,2|0,0:0|0:0,0:0:0:0:
281,361,40432,6,0,P|248:326|236:295,1,75.0000028610231,10|0,0:0|0:0,0:0:0:0:
97,266,40718,2,0,P|142:254|175:261,1,75.0000028610231,2|0,1:2|0:0,0:0:0:0:
270,154,41004,2,0,P|257:198|234:224,1,75.0000028610231,10|0,0:0|0:0,0:0:0:0:
108,345,41289,6,0,P|95:294|84:259,2,75.0000028610231,2|0|8,1:2|0:0|0:0,0:0:0:0:
196,99,41718,2,0,P|185:134|176:171,2,75.0000028610231,2|0|0,0:0|1:0|0:0,0:0:0:0:
40,165,42147,1,10,0:0:0:0:
64,154,42289,1,0,0:0:0:0:
61,180,42432,1,0,1:0:0:0:
3,52,42575,5,10,0:2:0:0:
203,97,42718,2,0,P|250:94|294:91,1,75.0000028610231,0|0,1:0|0:0,0:0:0:0:
392,35,43004,6,0,P|419:79|390:141,1,112.500004291535,2|0,1:2|0:0,0:0:0:0:
390,146,43289,1,2,1:2:0:0:
255,192,43432,5,8,0:0:0:0:
255,192,43504,1,8,0:0:0:0:
255,192,43575,2,0,P|249:257|243:324,1,120,6|0,1:2|0:0,0:0:0:0:
166,286,43861,2,0,P|170:241|174:203,1,80,8|0,0:0|0:0,0:0:0:0:
87,238,44147,1,0,1:0:0:0:
87,238,44289,1,0,1:0:0:0:
1,230,44432,1,2,0:0:0:0:
171,247,44575,1,8,0:0:0:0:
133,99,44718,6,0,P|92:114|13:144,1,120,2|0,1:2|0:0,0:0:0:0:
14,56,45004,2,0,P|56:39|98:24,1,80,8|0,0:0|0:0,0:0:0:0:
284,157,45289,1,0,1:0:0:0:
325,78,45432,1,0,1:0:0:0:
246,37,45575,1,10,0:0:0:0:
205,116,45718,1,0,1:0:0:0:
284,157,45861,1,2,1:2:0:0:
430,126,46004,5,2,0:0:0:0:
479,208,46147,2,0,B|440:212|440:212|437:215|437:215|394:220,1,80,8|2,0:0|0:0,0:0:0:0:
430,111,46432,1,2,1:2:0:0:
512,291,46575,2,0,B|453:297|453:297|449:301|449:301|395:308,1,120,2|0,1:2|0:0,0:0:0:0:
368,313,46861,1,10,0:0:0:0:
237,239,47004,5,0,0:0:0:0:
237,239,47147,2,0,B|244:277|244:277|247:280|247:280|255:316,1,80,2|10,0:0|0:0,0:0:0:0:
145,249,47432,1,2,0:0:0:0:
164,336,47575,1,2,1:2:0:0:
84,306,47718,1,0,1:0:0:0:
32,142,47861,2,0,B|53:136|53:136|134:170|134:170|159:163,1,120,10|0,0:0|0:0,0:0:0:0:
167,163,48147,6,0,P|174:124|108:75,1,120,6|0,1:2|0:0,0:0:0:0:
103,54,48432,2,0,P|59:58|14:62,1,80,8|0,0:0|0:0,0:0:0:0:
186,14,48718,1,0,1:0:0:0:
186,14,48861,1,0,1:0:0:0:
288,74,49004,1,2,0:0:0:0:
186,14,49147,1,8,0:0:0:0:
364,39,49289,6,0,P|422:32|490:25,1,120,2|0,1:2|0:0,0:0:0:0:
475,105,49575,2,0,P|430:109|385:115,1,80,8|0,0:0|0:0,0:0:0:0:
453,281,49861,1,0,1:0:0:0:
494,189,50004,1,2,1:2:0:0:
396,200,50147,1,10,0:0:0:0:
453,281,50289,1,0,0:0:0:0:
494,189,50432,1,2,1:2:0:0:
388,372,50575,5,2,0:0:0:0:
309,336,50718,2,0,B|302:294|302:294|297:290|297:290|289:240,1,80,10|0,0:0|0:0,0:0:0:0:
222,369,51004,2,0,B|212:314|212:314|207:309|207:309|196:245,1,120,2|0,1:2|0:0,0:0:0:0:
195,242,51289,1,0,0:0:0:0:
60,266,51432,6,0,B|67:250|67:250|192:220|192:220|199:203,1,160,10|2,0:0|1:2,0:0:0:0:
151,52,51861,1,10,0:0:0:0:
52,40,52004,1,2,0:0:0:0:
34,140,52147,1,2,1:2:0:0:
133,152,52290,1,0,1:0:0:0:
151,52,52432,1,10,0:0:0:0:
279,120,52575,5,0,0:0:0:0:
279,120,52647,1,0,0:0:0:0:
279,120,52718,2,0,B|341:125|332:147|423:151,1,120,6|0,1:2|0:0,0:0:0:0:
363,218,53004,2,0,B|315:216|322:200|276:196,1,80,8|0,0:0|0:0,0:0:0:0:
384,31,53289,1,0,1:0:0:0:
279,45,53432,1,0,1:0:0:0:
389,24,53575,1,10,0:0:0:0:
284,38,53718,1,2,0:0:0:0:
474,98,53861,6,0,P|482:145|491:217,1,120,2|0,1:2|0:0,0:0:0:0:
442,276,54147,2,0,P|436:311|429:365,1,80,8|0,0:0|0:0,0:0:0:0:
252,360,54432,1,0,1:0:0:0:
333,341,54575,1,0,1:0:0:0:
149,305,54718,1,10,0:0:0:0:
230,286,54861,1,0,0:0:0:0:
67,347,55004,6,0,B|48:232|102:251|70:138,1,179.999994506836,2|8,1:2|0:0,0:0:0:0:
189,80,55432,2,0,P|138:62|84:171,1,179.999994506836,2|0,0:0|1:0,0:0:0:0:
252,20,55861,5,10,0:0:0:0:
332,126,56004,2,0,P|390:116|432:109,1,89.9999972534181,0|0,0:0|1:0,0:0:0:0:
252,20,56289,1,2,0:0:0:0:
214,176,56432,2,0,P|230:231|238:276,1,89.9999972534181,8|0,0:0|0:0,0:0:0:0:
405,342,56718,5,2,1:2:0:0:
405,342,56861,1,0,1:0:0:0:
467,220,57004,5,8,0:0:0:0:
433,223,57075,1,8,0:0:0:0:
399,226,57146,1,8,0:0:0:0:
366,229,57218,1,8,0:0:0:0:
332,231,57289,5,14,0:0:0:0:
135,242,57432,1,2,0:0:0:0:
244,143,57575,1,10,0:0:0:0:
230,326,57718,1,2,0:0:0:0:
79,150,57861,6,0,P|63:91|49:49,1,89.9999972534181,10|0,0:0|1:0,0:0:0:0:
31,252,58147,1,10,0:0:0:0:
167,110,58289,2,0,P|151:51|137:9,1,89.9999972534181,2|8,1:2|0:0,0:0:0:0:
28,246,58575,1,0,1:0:0:0:
241,225,58718,6,0,P|232:269|224:313,1,89.9999972534181,10|0,0:0|1:0,0:0:0:0:
315,133,59004,1,10,0:0:0:0:
409,332,59147,2,0,P|365:343|322:356,1,89.9999972534181,2|8,1:2|0:0,0:0:0:0:
508,316,59432,5,2,1:2:0:0:
508,316,59504,1,0,1:0:0:0:
508,316,59575,1,14,0:0:0:0:
467,71,59718,2,0,P|452:125|440:179,1,100,10|0,0:0|1:0,0:0:0:0:
332,384,60004,5,10,0:0:0:0:
319,133,60147,2,0,P|337:186|352:238,1,100,10|0,0:0|1:0,0:0:0:0:
167,311,60432,5,10,0:0:0:0:
234,36,60575,2,0,P|215:89|200:141,1,100,10|0,0:0|1:0,0:0:0:0:
23,360,60861,5,10,0:0:0:0:
59,79,61004,2,0,P|77:132|92:184,1,100,10|0,0:0|1:0,0:0:0:0:
198,224,61289,5,8,0:3:0:0:
198,224,61361,1,8,0:3:0:0:
198,224,61432,2,0,P|238:218|254:214,1,50,4|4,0:3|0:3,0:0:0:0:
381,138,61575,5,8,0:3:0:0:
381,138,61647,1,8,0:3:0:0:
381,138,61718,2,0,P|341:144|325:148,1,50,0|0,1:0|1:0,0:0:0:0:
367,285,61861,6,0,P|387:317|400:353,4,75,10|2|2|2|2,0:0|0:0|0:0|0:0|0:0,0:0:0:0:
294,301,64004,5,0,1:0:0:0:
294,301,64075,1,0,1:0:0:0:
294,301,64147,2,0,P|289:327|285:352,1,37.5000014305115,10|0,0:0|0:0,0:0:0:0:
209,346,64289,2,0,P|212:327|215:309,1,37.5000014305115,2|2,0:0|0:0,0:0:0:0:
263,220,64432,1,2,0:0:0:0:
134,312,64575,5,2,1:2:0:0:
134,312,64647,1,0,1:0:0:0:
134,312,64718,2,0,P|141:269|149:228,1,75.0000028610231,10|2,0:0|0:0,0:0:0:0:
167,141,65004,1,2,0:0:0:0:
99,20,65147,6,0,B|183:22|162:51|250:45,1,150,14|0,0:0|0:0,0:0:0:0:
270,30,65432,1,10,0:0:0:0:
86,107,65575,1,10,0:0:0:0:
316,172,65718,1,10,0:0:0:0:
327,175,66004,5,10,0:0:0:0:
46,316,66147,2,0,P|71:304|48:319,1,75,2|0,1:2|1:0,0:0:0:0:
57,310,66432,6,0,B|77:308|96:301|96:301|161:369|161:369|181:361|206:361,1,172.500003290176,6|0,1:2|0:0,0:0:0:0:
294,372,66718,2,0,P|251:325|201:338,1,115.000002193451,10|0,0:0|0:0,0:0:0:0:
294,384,67004,1,2,1:2:0:0:
442,259,67147,2,0,P|433:318|424:380,1,115.000002193451,2|8,1:2|0:0,0:0:0:0:
478,58,67432,6,0,B|380:49|438:234|340:227,1,230.000004386902,2|0,1:2|1:0,0:0:0:0:
348,69,67861,2,0,P|306:104|325:156,1,115.000002193451,10|0,0:0|0:0,0:0:0:0:
231,311,68147,1,2,1:2:0:0:
338,231,68289,1,2,1:2:0:0:
172,150,68432,1,10,0:0:0:0:
92,368,68575,6,0,B|84:286|8:314|13:223,1,172.500003290176,6|0,1:2|0:0,0:0:0:0:
46,152,68861,2,0,P|22:90|49:42,1,115.000002193451,2|8,1:2|0:0,0:0:0:0:
53,161,69147,1,2,0:0:0:0:
225,222,69289,1,2,1:2:0:0:
191,47,69432,1,2,1:2:0:0:
158,138,69575,1,8,0:0:0:0:
390,73,69718,6,0,B|397:36|330:-2|276:38|264:122|335:163,1,230.000004386902,2|0,1:2|1:0,0:0:0:0:
331,234,70147,2,0,B|351:230|371:221|371:221|471:325|471:325|497:313|518:309,1,230.000004386902,8|0,0:0|1:0,0:0:0:0:
336,358,70575,1,2,1:2:0:0:
344,336,70718,1,10,0:0:0:0:
320,340,70861,1,2,0:0:0:0:
200,262,71004,6,0,P|144:264|116:329,1,115.000002193451,4|2,1:2|0:0,0:0:0:0:
118,323,71218,1,2,0:0:0:0:
118,323,71289,1,10,0:0:0:0:
201,376,71432,1,2,0:0:0:0:
1,156,71575,6,0,P|57:158|85:223,1,115.000002193451,0|0,1:2|1:0,0:0:0:0:
83,217,71789,1,2,0:0:0:0:
83,217,71860,1,10,0:0:0:0:
0,270,72003,1,2,0:0:0:0:
277,83,72147,5,0,1:2:0:0:
186,136,72289,1,2,0:0:0:0:
186,136,72361,1,2,0:0:0:0:
186,136,72432,1,10,0:0:0:0:
277,188,72575,1,2,0:0:0:0:
1,371,72718,5,0,1:2:0:0:
0,239,72860,1,2,1:2:0:0:
0,239,72932,1,2,0:0:0:0:
0,239,73003,1,10,0:0:0:0:
115,306,73147,1,2,1:2:0:0:
254,359,73289,5,14,0:0:0:0:
321,239,73432,1,0,1:0:0:0:
464,233,73575,1,0,1:0:0:0:
220,277,73718,5,10,0:0:0:0:
280,174,73861,1,0,1:0:0:0:
404,169,74004,1,0,1:0:0:0:
165,103,74147,5,10,0:0:0:0:
273,165,74289,1,0,1:0:0:0:
272,39,74432,1,0,1:0:0:0:
180,103,74575,5,10,0:0:0:0:
266,152,74717,1,0,1:0:0:0:
265,51,74860,1,0,1:0:0:0:
19,99,75004,6,0,B|9:199|63:161|50:276,1,172.500003290176,10|0,0:0|0:0,0:0:0:0:
142,360,75289,2,0,P|119:295|222:254,1,172.500003290176,10|0,0:0|1:0,0:0:0:0:
266,225,75575,6,0,B|318:221|312:358|368:349,1,172.500003290176,6|0,1:2|0:0,0:0:0:0:
443,371,75861,2,0,P|471:314|423:276,1,115.000002193451,10|0,0:0|0:0,0:0:0:0:
361,173,76147,1,2,1:2:0:0:
477,74,76289,2,0,P|463:135|452:195,1,115.000002193451,2|8,1:2|0:0,0:0:0:0:
338,11,76575,6,0,B|249:5|298:184|200:173,1,230.000004386902,2|0,1:2|1:0,0:0:0:0:
212,12,77004,2,0,P|166:40|176:94,1,115.000002193451,10|0,0:0|0:0,0:0:0:0:
58,104,77289,1,2,1:2:0:0:
186,178,77432,1,2,1:2:0:0:
41,279,77575,1,10,0:0:0:0:
217,366,77718,6,0,P|282:351|395:332,1,172.500003290176,6|0,1:2|0:0,0:0:0:0:
415,329,78004,1,2,1:2:0:0:
459,223,78147,1,10,0:0:0:0:
421,344,78289,1,2,0:0:0:0:
282,190,78432,5,2,1:2:0:0:
485,152,78575,1,2,1:2:0:0:
421,344,78718,1,8,0:0:0:0:
214,251,78861,6,0,B|135:246|135:246|85:306|85:306|4:301,1,230.000004386902,2|0,1:2|1:0,0:0:0:0:
110,151,79289,2,0,P|31:99|32:194,1,230.000004386902,8|0,0:0|1:0,0:0:0:0:
207,135,79718,1,2,1:2:0:0:
198,108,79861,1,10,0:0:0:0:
189,81,80004,1,2,0:0:0:0:
289,299,80147,6,0,P|350:277|402:259,1,115.000002193451,6|2,1:2|0:0,0:0:0:0:
406,267,80361,1,2,0:0:0:0:
406,267,80432,1,10,0:0:0:0:
380,379,80575,1,2,0:0:0:0:
497,187,80718,6,0,P|436:165|384:147,1,115.000002193451,2|0,1:2|1:0,0:0:0:0:
380,155,80932,1,2,1:2:0:0:
380,155,81003,1,8,0:0:0:0:
406,267,81146,1,2,1:2:0:0:
459,68,81289,5,10,0:0:0:0:
258,112,81432,1,0,1:0:0:0:
456,55,81575,5,10,0:0:0:0:
255,99,81718,1,0,1:0:0:0:
165,34,81861,5,10,0:0:0:0:
165,34,82004,1,0,1:0:0:0:
206,199,82147,1,10,0:0:0:0:
24,180,82289,6,0,B|104:172|68:369|158:351,1,230.000004386902,6|0,1:2|1:0,0:0:0:0:
235,328,82718,2,0,B|311:304|311:304|375:349|375:349|455:327,1,230.000004386902,8|0,0:0|1:0,0:0:0:0:
444,329,83147,1,0,1:0:0:0:
507,144,83289,6,0,P|496:209|486:265,1,115.000002193451,8|0,0:0|1:0,0:0:0:0:
367,87,83575,1,0,1:0:0:0:
477,66,83718,1,0,1:0:0:0:
277,151,83861,6,0,P|266:94|257:37,1,115.000002193451,8|0,0:0|1:0,0:0:0:0:
256,27,84147,1,0,1:0:0:0:
148,134,84289,1,2,1:2:0:0:
145,116,84432,1,10,0:0:0:0:
142,98,84575,1,2,0:0:0:0:
307,302,84718,5,6,1:2:0:0:
68,256,84861,1,8,0:3:0:0:
68,256,84932,1,10,0:3:0:0:
68,256,85004,1,8,0:3:0:0:
198,205,85147,1,10,0:3:0:0:
198,205,85218,1,8,0:3:0:0:
198,205,85290,1,10,0:3:0:0:
44,311,85432,6,0,P|34:247|27:194,1,115.000002193451,4|0,0:3|1:2,0:0:0:0:
24,178,85647,1,0,1:2:0:0:
24,178,85718,1,2,1:2:0:0:
210,96,85861,5,10,0:0:0:0:
0,54,86004,1,8,0:0:0:0:
0,54,86718,1,2,0:0:0:0:
210,96,86861,6,0,B|290:77|267:250|385:219,1,200,2|2,1:2|0:0,0:0:0:0:
422,127,87289,1,10,0:0:0:0:
289,292,87432,2,0,P|230:302|173:309,1,100,2|0,0:0|1:0,0:0:0:0:
442,354,87718,2,0,P|470:358|491:363,2,50,2|2|10,1:2|0:0|0:0,0:0:0:0:
342,229,88004,1,2,1:2:0:0:
190,323,88147,5,2,0:0:0:0:
190,323,88289,1,2,1:2:0:0:
286,384,88432,1,10,0:0:0:0:
141,166,88575,2,0,B|130:122|177:99|232:113|248:197|201:231,1,200,2|0,0:0|1:0,0:0:0:0:
59,179,89004,1,8,0:0:0:0:
308,224,89147,6,0,B|388:239|336:75|430:87,1,200,6|2,1:2|1:2,0:0:0:0:
440,94,89504,1,2,1:2:0:0:
439,93,89575,2,0,P|468:141|453:183,1,100,10|2,0:0|1:2,0:0:0:0:
456,279,89789,1,2,1:2:0:0:
456,280,89860,2,0,P|410:247|367:259,1,100,10|2,0:3|1:2,0:0:0:0:
272,319,90075,5,2,1:2:0:0:
272,319,90147,1,10,0:3:0:0:
248,326,90218,1,8,0:3:0:0:
224,334,90289,1,0,1:3:0:0:
200,343,90361,1,0,1:3:0:0:
177,351,90432,5,6,0:3:0:0:
354,384,90575,1,2,1:2:0:0:
64,268,90861,1,2,1:2:0:0:
393,129,91147,6,0,P|350:126|391:140,1,125,2|0,1:2|0:0,0:0:0:0:
371,137,91575,6,0,P|384:175|395:213,1,75.0000028610231,2|0,1:2|1:0,0:0:0:0:
344,358,91861,2,0,P|333:322|321:286,1,75.0000028610231,10|0,0:0|0:0,0:0:0:0:
232,217,92147,1,2,0:0:0:0:
232,217,92432,1,8,0:0:0:0:
171,269,92575,2,0,B|81:269|131:336|38:335,1,150.000005722046,2|2,1:2|1:2,0:0:0:0:
17,183,93004,2,0,P|61:204|93:212,1,75.0000028610231,10|2,0:0|0:0,0:0:0:0:
67,42,93289,2,0,P|26:69|3:93,1,75.0000028610231,2|2,0:0|0:0,0:0:0:0:
164,155,93575,2,0,P|160:106|151:74,1,75.0000028610231,10|0,0:0|0:0,0:0:0:0:
87,128,93861,1,0,1:0:0:0:
87,128,94004,1,0,1:0:0:0:
169,167,94147,6,0,P|223:177|265:185,1,75.0000028610231,10|0,0:0|0:0,0:0:0:0:
329,195,94432,1,2,0:0:0:0:
329,195,94718,1,8,0:0:0:0:
413,260,94861,2,0,B|330:271|366:315|272:322,1,150.000005722046,2|2,1:2|1:2,0:0:0:0:
208,362,95289,2,0,P|203:316|199:278,1,75.0000028610231,10|2,0:0|0:0,0:0:0:0:
427,332,95575,2,0,P|422:286|418:248,1,75.0000028610231,2|2,0:0|0:0,0:0:0:0:
309,272,95861,2,0,P|312:309|317:346,1,75.0000028610231,10|0,0:0|0:0,0:0:0:0:
301,169,96147,1,0,1:0:0:0:
301,169,96289,1,0,1:0:0:0:
233,111,96432,6,0,P|181:98|145:91,1,75.0000028610231,10|0,0:0|0:0,0:0:0:0:
255,35,96718,1,2,0:0:0:0:
255,35,96861,2,0,P|203:22|167:15,1,75.0000028610231,2|8,0:0|0:0,0:0:0:0:
33,65,97147,2,0,B|40:153|81:119|85:219,1,150.000005722046,2|0,1:2|1:0,0:0:0:0:
132,354,97575,6,0,P|169:352|207:348,1,75.0000028610231,10|0,0:0|0:0,0:0:0:0:
53,314,97861,2,0,P|36:347|24:383,1,75.0000028610231,2|0,0:0|0:0,0:0:0:0:
128,269,98147,2,0,P|107:238|84:209,1,75.0000028610231,10|0,0:0|0:0,0:0:0:0:
270,239,98432,6,0,B|346:227|329:345|429:319,1,187.500007152558,6|0,1:2|0:0,0:0:0:0:
476,236,98861,2,0,P|478:175|358:181,1,187.500007152558,6|0,1:2|0:0,0:0:0:0:
249,128,99289,2,0,P|259:173|271:247,1,112.500004291535,6|0,1:2|0:0,0:0:0:0:
295,369,99575,5,0,1:2:0:0:
424,305,99718,1,14,0:2:0:0:
269,238,99861,1,8,0:0:0:0:
174,384,100004,5,8,0:0:0:0:
174,384,100075,1,8,0:0:0:0:
174,384,100147,1,10,0:0:0:0:
101,315,100289,1,8,0:3:0:0:
169,243,100432,1,6,0:3:0:0:
242,311,100574,1,8,0:3:0:0:
76,218,100718,5,2,1:2:0:0:
161,155,101004,1,0,1:0:0:0:
161,155,101147,1,0,1:0:0:0:
7,122,101289,2,0,P|58:77|84:52,1,97.4999955368044,8|0,0:0|0:0,0:0:0:0:
103,34,101575,6,0,P|164:24|199:61,1,97.4999955368044,2|0,1:2|0:0,0:0:0:0:
214,64,101861,2,0,P|204:105|199:147,1,64.9999970245363,2|0,0:0|0:0,0:0:0:0:
293,158,102147,2,0,P|298:120|307:84,1,64.9999970245363,0|0,1:0|1:0,0:0:0:0:
134,199,102432,2,0,P|144:240|154:308,1,97.4999955368044,10|0,0:0|0:0,0:0:0:0:
67,299,102718,2,0,P|62:261|53:225,1,64.9999970245363,2|0,0:0|0:0,0:0:0:0:
232,338,103004,1,2,1:2:0:0:
350,374,103147,5,2,0:0:0:0:
350,374,103289,1,2,0:0:0:0:
400,307,103432,1,2,1:2:0:0:
325,228,103575,2,0,P|281:288|246:335,1,129.999994049073,10|2,0:0|0:0,0:0:0:0:
204,254,104004,2,0,P|206:225|250:207,1,64.9999970245363,2|0,1:2|0:0,0:0:0:0:
465,122,104289,5,10,0:0:0:0:
372,140,104432,1,0,1:0:0:0:
480,143,104575,1,0,1:0:0:0:
341,32,104718,1,10,0:0:0:0:
316,213,104861,1,2,1:2:0:0:
214,92,105004,2,0,P|154:82|95:75,1,97.4999955368044,2|0,0:0|0:0,0:0:0:0:
111,80,105289,5,2,1:2:0:0:
94,173,105575,5,0,1:0:0:0:
94,173,105718,1,0,1:0:0:0:
46,242,105861,2,0,P|83:258|129:245,1,64.9999970245363,8|0,0:0|0:0,0:0:0:0:
205,190,106147,2,0,P|193:246|182:299,1,97.4999955368044,2|0,0:0|0:0,0:0:0:0:
200,275,106432,6,0,P|211:228|218:195,1,64.9999970245363,2|0,0:0|0:0,0:0:0:0:
292,231,106718,2,0,P|284:262|277:294,1,64.9999970245363,0|0,1:0|1:0,0:0:0:0:
352,125,107004,1,8,0:0:0:0:
352,125,107290,2,0,P|362:172|373:220,1,97.4999955368044,2|0,0:0|0:0,0:0:0:0:
397,304,107575,1,2,1:2:0:0:
397,304,107861,6,0,P|443:316|477:327,1,64.9999970245363,2|0,0:0|0:0,0:0:0:0:
373,220,108147,1,10,0:0:0:0:
323,355,108289,2,0,P|310:306|300:274,1,64.9999970245363,2|0,0:0|0:0,0:0:0:0:
249,190,108575,2,0,B|324:186|305:229|381:219,1,129.999994049073,2|10,1:2|0:3,0:0:0:0:
216,268,109004,5,6,0:3:0:0:
216,268,109147,1,2,1:2:0:0:
11,340,109289,1,10,0:0:0:0:
158,384,109432,2,0,P|144:317|135:275,1,97.4999955368044,2|0,1:2|0:0,0:0:0:0:
112,203,109718,5,8,0:0:0:0:
112,203,109789,1,8,0:0:0:0:
112,203,109861,2,0,B|183:208|130:65|224:76,1,179.999994506836,6|8,1:2|0:0,0:0:0:0:
260,167,110289,1,0,0:0:0:0:
108,35,110432,1,0,1:0:0:0:
108,35,110575,1,0,1:0:0:0:
276,82,110718,2,0,P|328:70|351:29,1,89.9999972534181,10|2,0:0|0:0,0:0:0:0:
459,28,111004,6,0,P|428:67|495:158,1,179.999994506836,2|8,1:2|0:0,0:0:0:0:
358,213,111432,1,0,1:0:0:0:
446,295,111575,1,0,1:0:0:0:
446,295,111718,1,0,1:0:0:0:
319,351,111861,2,0,P|271:365|213:380,1,89.9999972534181,10|0,0:0|0:0,0:0:0:0:
38,309,112147,6,0,P|100:363|162:308,1,179.999994506836,2|8,1:2|0:0,0:0:0:0:
250,190,112575,1,2,0:0:0:0:
92,173,112718,2,0,P|132:150|192:161,1,89.9999972534181,0|0,1:0|1:0,0:0:0:0:
197,74,113004,6,0,P|101:74|30:121,1,179.999994506836,10|0,0:0|1:0,0:0:0:0:
20,234,113432,2,0,P|27:275|37:329,1,89.9999972534181,2|8,1:2|0:0,0:0:0:0:
131,257,113718,1,0,1:0:0:0:
251,366,113861,2,0,P|298:355|382:337,1,134.999995880127,2|0,0:0|0:0,0:0:0:0:
402,331,114147,2,0,P|430:282|402:232,1,89.9999972534181,8|0,0:0|0:0,0:0:0:0:
274,71,114432,5,14,0:0:0:0:
437,154,114575,1,2,0:0:0:0:
261,202,114718,1,10,0:0:0:0:
360,44,114861,1,2,0:0:0:0:
152,187,115004,6,0,P|165:248|172:287,1,89.9999972534181,10|0,0:0|1:0,0:0:0:0:
183,80,115289,1,10,0:0:0:0:
70,231,115432,2,0,P|83:292|90:331,1,89.9999972534181,2|8,1:2|0:0,0:0:0:0:
183,80,115718,1,0,0:0:0:0:
277,295,115861,6,0,P|232:286|188:280,1,89.9999972534181,10|0,0:0|1:0,0:0:0:0:
392,245,116147,1,10,0:0:0:0:
205,368,116289,2,0,P|160:359|116:353,1,89.9999972534181,2|8,1:2|0:0,0:0:0:0:
448,322,116575,5,2,1:2:0:0:
448,322,116647,1,0,1:0:0:0:
448,322,116718,1,14,0:0:0:0:
344,134,116861,2,0,P|337:88|329:30,1,100,10|0,0:0|1:0,0:0:0:0:
498,72,117147,5,10,0:0:0:0:
267,150,117289,2,0,P|260:104|252:46,1,100,10|0,0:0|1:0,0:0:0:0:
137,384,117575,5,10,0:0:0:0:
318,321,117718,2,0,P|325:275|333:217,1,100,10|0,0:0|1:0,0:0:0:0:
111,244,118004,5,10,0:0:0:0:
402,339,118147,2,0,P|409:293|417:235,1,100,10|0,0:0|1:0,0:0:0:0:
158,34,118432,5,8,0:3:0:0:
161,54,118503,1,8,0:3:0:0:
166,74,118574,1,4,0:3:0:0:
170,94,118646,1,4,0:3:0:0:
175,114,118717,1,2,1:2:0:0:
180,134,118789,1,0,1:0:0:0:
184,154,118860,1,0,1:0:0:0:
189,173,118931,1,0,1:0:0:0:
194,191,119004,6,0,B|256:201|256:201|290:244|290:244|360:254,1,172.500003290176,6|0,1:2|0:0,0:0:0:0:
365,256,119289,2,0,P|403:213|369:157,1,115.000002193451,10|0,0:0|0:0,0:0:0:0:
258,341,119575,1,2,1:2:0:0:
209,119,119718,2,0,P|262:97|316:76,1,115.000002193451,2|8,1:2|0:0,0:0:0:0:
164,39,120004,6,0,B|68:40|128:209|30:215,1,230.000004386902,2|0,1:2|1:0,0:0:0:0:
26,42,120432,2,0,P|-6:82|23:138,1,115.000002193451,10|0,0:0|0:0,0:0:0:0:
33,307,120718,1,2,1:2:0:0:
148,234,120861,1,2,1:2:0:0:
241,381,121004,1,10,0:0:0:0:
354,163,121147,6,0,B|233:130|274:269|147:238,1,230.000004386902,6|2,1:2|1:2,0:0:0:0:
187,123,121575,1,10,0:0:0:0:
327,281,121718,1,2,1:2:0:0:
389,89,121861,5,2,1:2:0:0:
280,155,122004,1,2,1:2:0:0:
398,219,122147,1,8,0:0:0:0:
161,31,122289,6,0,B|124:83|173:144|173:144|176:140|176:140|230:201|185:276,1,230.000004386902,2|0,1:2|1:0,0:0:0:0:
135,339,122718,2,0,P|58:343|88:223,1,230.000004386902,8|0,0:0|1:0,0:0:0:0:
230,331,123147,1,2,1:2:0:0:
245,338,123289,1,10,0:0:0:0:
261,346,123432,1,2,0:0:0:0:
458,252,123575,6,0,P|389:259|374:302,1,115.000002193451,4|2,1:2|0:0,0:0:0:0:
374,308,123789,1,2,0:0:0:0:
374,308,123861,1,10,0:0:0:0:
462,375,124004,1,2,0:0:0:0:
223,173,124147,6,0,P|277:169|307:215,1,115.000002193451,0|2,1:2|1:2,0:0:0:0:
307,228,124361,1,2,0:0:0:0:
307,228,124433,1,10,0:0:0:0:
219,295,124576,1,2,0:0:0:0:
471,94,124718,5,0,1:2:0:0:
370,90,124861,1,2,0:0:0:0:
370,90,124933,1,2,0:0:0:0:
370,90,125004,1,10,0:0:0:0:
323,0,125147,1,2,0:0:0:0:
39,94,125289,5,0,1:2:0:0:
140,90,125432,1,2,1:2:0:0:
140,90,125504,1,2,0:0:0:0:
140,90,125575,1,10,0:0:0:0:
187,0,125718,1,2,1:2:0:0:
288,203,125861,5,14,0:0:0:0:
144,229,126004,1,0,1:0:0:0:
94,366,126147,1,0,1:0:0:0:
214,136,126289,5,10,0:0:0:0:
85,160,126432,1,0,1:0:0:0:
42,279,126575,1,0,1:0:0:0:
290,203,126718,5,10,0:0:0:0:
417,162,126861,1,0,1:0:0:0:
321,69,127004,1,0,1:0:0:0:
299,192,127147,5,10,0:0:0:0:
406,159,127290,1,0,1:0:0:0:
324,81,127433,1,0,1:0:0:0:
394,348,127575,6,0,B|457:359|418:222|489:224,1,172.500003290176,10|0,0:0|0:0,0:0:0:0:
511,136,127861,2,0,P|422:128|428:30,1,172.500003290176,10|0,0:0|1:0,0:0:0:0:
332,16,128147,6,0,P|246:8|217:88,1,172.500003290176,6|0,1:2|0:0,0:0:0:0:
219,106,128432,2,0,P|234:165|250:221,1,115.000002193451,10|0,0:0|0:0,0:0:0:0:
382,129,128718,1,2,1:2:0:0:
127,94,128861,2,0,P|142:153|158:209,1,115.000002193451,2|8,1:2|0:0,0:0:0:0:
233,366,129147,6,0,B|110:379|143:292|20:301,1,230.000004386902,2|0,1:2|1:0,0:0:0:0:
8,173,129575,2,0,P|43:224|105:210,1,115.000002193451,10|0,0:0|0:0,0:0:0:0:
214,28,129861,1,2,1:2:0:0:
66,84,130004,1,2,1:2:0:0:
196,184,130147,1,10,0:0:0:0:
340,38,130289,6,0,B|433:26|385:211|508:188,1,230.000004386902,6|2,1:2|1:2,0:0:0:0:
511,79,130718,1,10,0:0:0:0:
511,79,130861,1,2,0:0:0:0:
339,143,131004,1,2,1:2:0:0:
479,209,131147,1,2,1:2:0:0:
313,156,131289,1,8,0:0:0:0:
495,298,131432,6,0,B|459:307|419:311|419:311|391:378|391:378|345:373|284:392,1,230.000004386902,2|0,1:2|1:0,0:0:0:0:
233,380,131861,2,0,B|202:334|209:286|240:239|240:239|190:239|188:289,1,230.000004386902,8|0,0:0|1:0,0:0:0:0:
313,310,132289,1,2,1:2:0:0:
330,297,132432,1,10,0:0:0:0:
310,288,132575,1,2,0:0:0:0:
76,346,132718,6,0,P|69:292|59:220,1,115.000002193451,6|2,1:2|0:0,0:0:0:0:
58,214,132932,1,2,0:0:0:0:
58,214,133004,1,10,0:0:0:0:
40,110,133147,1,2,0:0:0:0:
179,20,133289,6,0,P|172:74|162:146,1,115.000002193451,2|0,1:2|1:0,0:0:0:0:
161,152,133503,1,2,1:2:0:0:
161,152,133575,1,8,0:0:0:0:
143,256,133718,1,2,1:2:0:0:
332,221,133861,5,14,0:0:0:0:
273,55,134004,1,0,1:0:0:0:
343,218,134147,5,10,0:0:0:0:
284,52,134290,1,0,1:0:0:0:
467,92,134432,5,10,0:0:0:0:
467,92,134575,1,0,1:0:0:0:
346,124,134718,1,10,0:0:0:0:
188,239,134861,6,0,B|289:223|261:376|389:341,1,230.000004386902,6|0,1:2|1:0,0:0:0:0:
419,212,135289,2,0,B|419:153|532:165|532:253|497:302|444:324,1,230.000004386902,8|0,0:0|1:0,0:0:0:0:
377,358,135718,1,0,1:0:0:0:
195,315,135861,6,0,P|129:314|58:316,1,115.000002193451,8|0,0:0|1:0,0:0:0:0:
182,161,136147,1,0,1:0:0:0:
77,111,136289,1,0,1:0:0:0:
252,88,136432,6,0,P|263:144|276:201,1,115.000002193451,8|0,0:0|1:0,0:0:0:0:
249,78,136718,1,0,1:0:0:0:
385,153,136861,1,2,1:2:0:0:
379,129,137004,1,10,0:0:0:0:
373,103,137147,1,2,0:0:0:0:
489,107,137289,5,6,1:2:0:0:
308,234,137432,1,8,0:3:0:0:
308,234,137504,1,10,0:3:0:0:
308,234,137575,1,8,0:3:0:0:
426,302,137718,1,10,0:3:0:0:
426,302,137790,1,8,0:3:0:0:
426,302,137861,1,10,0:3:0:0:
184,367,138004,6,0,P|185:302|184:251,1,115.000002193451,4|0,0:3|1:2,0:0:0:0:
186,235,138218,1,0,1:2:0:0:
186,235,138289,1,2,1:2:0:0:
56,305,138432,5,14,0:0:0:0:
306,312,138575,1,8,0:0:0:0:
307,312,139575,6,0,B|378:310|362:373|468:356,1,150.000005722046,6|2,1:2|0:0,0:0:0:0:
461,356,140004,1,2,1:2:0:0:
512,246,140147,2,0,P|466:261|429:275,1,75.0000028610231,8|0,0:0|1:0,0:0:0:0:
311,235,140432,2,0,P|353:220|387:209,1,75.0000028610231,2|2,0:0|1:2,0:0:0:0:
438,114,140718,5,0,1:0:0:0:
512,61,140861,2,0,P|448:16|381:46,1,150.000005722046,2|2,1:2|1:2,0:0:0:0:
274,46,141289,2,0,P|287:108|307:204,1,150.000005722046,8|2,0:0|0:0,0:0:0:0:
307,204,141718,1,2,1:2:0:0:
204,117,141861,6,0,B|119:119|158:167|66:167,1,150.000005722046,2|2,1:2|0:0,0:0:0:0:
74,78,142289,1,2,1:2:0:0:
188,198,142432,2,0,P|199:249|209:297,1,75.0000028610231,8|0,0:0|1:0,0:0:0:0:
101,258,142718,1,2,0:2:0:0:
321,355,142861,6,0,P|328:323|334:302,1,50,2|0,1:2|1:0,0:0:0:0:
364,200,143004,1,2,0:0:0:0:
364,200,143147,6,0,P|332:209|311:215,1,50,2|0,1:2|1:0,0:0:0:0:
208,240,143290,1,2,0:0:0:0:
208,240,143432,6,0,P|232:262|247:277,1,50,2|0,1:2|1:0,0:0:0:0:
320,355,143575,1,10,0:0:0:0:
320,355,143718,6,0,B|307:242|248:291|240:171,1,200,2|0,1:2|1:2,0:0:0:0:
306,115,144075,5,0,0:0:0:0:
306,115,144147,2,0,P|241:148|155:122,1,150.000005722046,6|2,1:2|0:0,0:0:0:0:
41,75,144575,1,2,1:2:0:0:
41,75,144718,2,0,P|103:75|138:83,1,75.0000028610231,8|0,0:0|1:0,0:0:0:0:
82,0,145004,1,2,1:2:0:0:
29,156,145147,2,0,P|48:214|51:250,1,75.0000028610231,2|0,1:2|1:0,0:0:0:0:
182,379,145432,6,0,B|192:314|192:314|202:298|202:298|216:231,1,150.000005722046,2|2,1:2|1:2,0:0:0:0:
109,285,145861,1,10,0:2:0:0:
279,355,146004,2,0,P|287:309|294:274,1,75.0000028610231,2|2,1:2|1:2,0:0:0:0:
388,338,146289,1,2,1:2:0:0:
388,338,146432,1,2,1:2:0:0:
474,211,146575,6,0,B|391:220|424:255|324:259,1,150.000005722046,0|2,1:0|1:2,0:0:0:0:
321,257,147004,2,0,P|314:215|307:181,1,75.0000028610231,8|0,0:0|1:0,0:0:0:0:
291,97,147289,1,2,1:2:0:0:
200,26,147432,6,0,P|159:30|129:54,1,50,2|0,1:2|1:0,0:0:0:0:
57,101,147575,1,0,1:0:0:0:
57,101,147718,6,0,P|80:134|116:148,1,50,2|0,1:2|1:0,0:0:0:0:
193,187,147861,1,0,1:0:0:0:
193,187,148004,6,0,P|210:149|204:111,1,50,2|0,1:2|1:0,0:0:0:0:
199,26,148147,1,8,0:0:0:0:
309,130,148289,5,10,0:0:0:0:
333,128,148360,1,0,0:0:0:0:
358,125,148431,1,0,1:0:0:0:
383,123,148503,1,0,1:0:0:0:
408,120,148574,1,0,1:0:0:0:
433,118,148646,1,0,1:0:0:0:
459,115,148718,6,0,P|513:152|491:260,1,170.000003242493,6|2,1:2|0:0,0:0:0:0:
391,336,149147,1,2,1:2:0:0:
278,201,149289,2,0,B|343:186|343:186|380:205|380:205|455:190,1,170.000003242493,10|2,0:0|0:0,0:0:0:0:
440,192,149718,1,2,1:2:0:0:
219,265,149861,5,0,1:0:0:0:
147,133,150004,2,0,P|194:131|232:115,1,85.0000016212464,2|0,1:2|1:0,0:0:0:0:
223,273,150289,1,2,1:2:0:0:
74,168,150432,5,10,0:0:0:0:
165,28,150575,1,2,1:2:0:0:
309,111,150718,5,2,0:0:0:0:
168,19,150861,1,2,1:2:0:0:
65,178,151004,6,0,B|52:266|119:234|113:351,1,170.000003242493,2|2,1:2|0:0,0:0:0:0:
25,363,151432,1,2,1:2:0:0:
191,265,151575,2,0,P|241:269|285:287,1,85.0000016212464,10|0,0:0|0:0,0:0:0:0:
353,349,151861,1,2,0:0:0:0:
424,297,152004,1,2,1:2:0:0:
424,297,152075,1,0,1:0:0:0:
424,297,152147,1,0,1:0:0:0:
327,140,152289,6,0,P|335:195|340:230,1,85.0000016212464,2|0,1:2|1:0,0:0:0:0:
452,83,152575,1,2,1:2:0:0:
325,37,152718,1,8,0:0:0:0:
248,176,152861,2,0,B|191:191|191:191|164:236|164:236|99:248,1,170.000003242493,2|0,1:2|1:0,0:0:0:0:
27,256,153218,5,0,1:0:0:0:
27,256,153289,2,0,P|1:178|63:126,1,170.000003242493,6|2,1:2|0:0,0:0:0:0:
166,175,153718,1,2,1:2:0:0:
296,59,153861,2,0,P|239:68|112:90,1,170.000003242493,10|2,0:0|0:0,0:0:0:0:
169,183,154289,1,2,1:2:0:0:
276,164,154432,5,2,0:0:0:0:
200,284,154575,2,0,P|149:272|111:264,1,85.0000016212464,2|2,1:2|0:0,0:0:0:0:
280,158,154861,1,2,1:2:0:0:
331,359,155004,1,10,0:0:0:0:
483,259,155147,5,10,0:0:0:0:
479,230,155218,1,8,0:0:0:0:
476,202,155289,1,2,1:2:0:0:
473,174,155361,1,0,1:0:0:0:
469,148,155432,1,2,1:2:0:0:
466,118,155504,1,0,1:0:0:0:
463,90,155575,5,14,0:0:0:0:
378,164,155718,1,0,1:0:0:0:
323,30,155861,5,10,0:0:0:0:
373,180,156004,1,0,1:0:0:0:
126,147,156147,5,10,0:0:0:0:
240,95,156289,1,2,1:2:0:0:
100,44,156432,5,10,0:0:0:0:
282,185,156574,1,6,1:2:0:0:
38,262,156718,5,0,1:0:0:0:
38,262,156789,1,0,1:0:0:0:
38,262,156861,2,0,P|29:225|24:205,1,50,2|0,1:2|1:0,0:0:0:0:
228,321,157004,1,8,0:0:0:0:
228,321,157075,1,0,1:0:0:0:
228,321,157147,2,0,P|237:284|242:264,1,50,2|0,1:2|1:0,0:0:0:0:
11,384,157289,1,8,0:0:0:0:
11,384,157360,1,8,0:0:0:0:
11,384,157432,2,0,P|2:347|-3:327,1,50,10|8,0:0|0:0,0:0:0:0:
203,149,157575,5,8,0:0:0:0:
239,157,157646,1,0,1:0:0:0:
275,167,157717,1,2,1:2:0:0:
311,177,157789,1,2,1:2:0:0:
347,187,157861,6,0,P|419:180|406:71,1,200,6|8,1:2|0:0,0:0:0:0:
255,84,158289,6,0,P|231:91|209:103,1,50,2|2,0:0|0:0,0:0:0:0:
151,19,158432,2,0,B|154:155|213:74|220:211,1,200,2|8,1:2|0:0,0:0:0:0:
99,304,158861,5,2,1:2:0:0:
99,304,158932,1,2,0:0:0:0:
99,304,159004,2,0,P|190:315|300:333,1,200,2|8,0:0|0:0,0:0:0:0:
423,379,159432,5,2,0:0:0:0:
423,379,159504,1,2,0:0:0:0:
423,379,159575,2,0,P|410:312|398:256,1,100,2|0,1:2|1:0,0:0:0:0:
452,160,159861,1,8,0:0:0:0:
310,178,160004,1,6,1:2:0:0:
438,43,160147,6,0,B|349:45|375:84|268:87,1,150,2|0,0:0|0:0,0:0:0:0:
272,82,160432,1,10,0:0:0:0:
157,121,160575,2,0,P|141:67|163:25,1,100,2|0,0:0|1:0,0:0:0:0:
24,152,160861,1,2,1:2:0:0:
2,46,161004,1,8,0:0:0:0:
175,136,161147,6,0,P|161:207|144:294,1,150,2|2,1:2|0:0,0:0:0:0:
87,368,161432,2,0,P|80:344|72:321,1,50,2|2,1:2|0:0,0:0:0:0:
233,322,161575,1,10,0:0:0:0:
233,322,161647,1,0,0:0:0:0:
233,322,161718,1,2,0:0:0:0:
356,312,161861,6,0,P|341:264|324:218,1,100,0|0,0:0|1:0,0:0:0:0:
499,288,162147,2,0,P|483:335|470:384,1,100,8|0,0:0|0:0,0:0:0:0:
400,187,162432,6,0,P|390:157|379:133,3,55.0000016784668,14|2|2|2,0:0|0:0|1:2|0:0,0:0:0:0:
492,79,162718,2,0,P|501:52|512:27,3,55.0000016784668,10|2|2|2,0:0|0:0|1:2|0:0,0:0:0:0:
327,65,163004,5,10,0:0:0:0:
327,65,163075,1,2,0:0:0:0:
327,65,163147,2,0,P|286:51|265:46,1,55.0000016784668,2|2,1:2|0:0,0:0:0:0:
201,184,163289,1,2,1:2:0:0:
60,41,163432,6,0,B|65:84|53:120|53:120|93:163|93:163|80:197|88:256,1,220.000006713867,12|2,0:0|1:2,0:0:0:0:
7,293,163861,5,10,0:0:0:0:
7,293,163932,1,2,0:0:0:0:
7,293,164004,2,0,P|13:331|16:351,1,55.0000016784668,2|2,1:2|0:0,0:0:0:0:
179,377,164147,1,10,0:0:0:0:
183,349,164218,1,2,0:0:0:0:
189,322,164289,1,2,1:2:0:0:
195,296,164361,1,2,0:0:0:0:
201,269,164432,2,0,P|206:242|213:211,1,55.0000016784668,2|0,1:2|0:0,0:0:0:0:
195,77,164575,6,0,P|289:98|298:179,1,165.000005035401,14|0,0:0|0:0,0:0:0:0:
359,224,164861,1,2,1:2:0:0:
359,224,164932,1,2,0:0:0:0:
359,224,165004,2,0,P|342:288|336:335,1,110.000003356934,10|2,0:0|1:2,0:0:0:0:
401,378,165218,1,2,0:0:0:0:
401,378,165289,2,0,P|462:361|473:304,1,110.000003356934,10|2,0:0|1:2,0:0:0:0:
498,243,165504,1,2,0:0:0:0:
498,243,165575,2,0,P|464:249|423:258,1,55.0000016784668,2|0,1:2|0:0,0:0:0:0:
307,41,165718,6,0,B|300:27|300:-1|300:-1|273:32|306:75|306:75|309:73|309:73|355:117|338:178,1,220.000006713867,14|8,0:0|0:3,0:0:0:0:
311,225,166075,1,8,0:3:0:0:
311,225,166147,1,6,0:3:0:0:
277,248,166218,1,4,0:3:0:0:
237,249,166289,1,6,0:3:0:0:
203,226,166361,1,4,0:3:0:0:
189,188,166432,2,0,P|198:156|208:135,1,55.0000016784668,8|8,0:3|0:3,0:0:0:0:
251,339,166575,5,8,0:3:0:0:
224,343,166647,1,8,0:3:0:0:
196,346,166718,2,0,P|171:350|139:365,3,55.0000016784668,4|4|4|4,0:3|0:3|0:3|0:3,0:0:0:0:
14,365,167004,5,6,1:2:0:0:
118,237,167147,1,2,1:2:0:0:
104,128,167289,2,0,P|111:175|117:227,1,89.9999972534181,10|0,0:0|1:0,0:0:0:0:
258,313,167575,1,2,1:2:0:0:
288,208,167717,2,0,P|274:252|260:302,1,89.9999972534181,2|8,1:2|0:0,0:0:0:0:
193,50,168004,2,0,B|281:36|254:129|364:107,1,179.999994506836,2|2,1:2|1:2,0:0:0:0:
413,29,168432,1,8,0:0:0:0:
413,29,168575,1,2,1:2:0:0:
455,245,168718,6,0,P|439:192|429:147,1,89.9999972534181,2|2,1:2|1:2,0:0:0:0:
330,288,169004,2,0,P|319:331|306:374,1,89.9999972534181,10|0,0:0|1:0,0:0:0:0:
198,242,169289,1,6,1:2:0:0:
268,165,169432,5,2,1:2:0:0:
97,125,169575,2,0,P|105:176|112:222,1,89.9999972534181,10|0,0:0|1:0,0:0:0:0:
131,340,169861,1,2,1:2:0:0:
13,144,170004,2,0,P|21:195|28:241,1,89.9999972534181,2|8,1:2|0:0,0:0:0:0:
191,59,170289,6,0,P|123:52|56:48,1,134.999995880127,2|0,1:2|0:0,0:0:0:0:
40,47,170575,2,0,P|5:92|26:143,1,89.9999972534181,2|8,1:2|0:0,0:0:0:0:
115,222,170861,1,2,1:2:0:0:
253,134,171004,1,2,1:2:0:0:
167,146,171147,1,0,1:0:0:0:
345,201,171289,2,0,P|354:134|367:67,1,134.999995880127,10|0,0:0|1:0,0:0:0:0:
370,54,171575,1,6,1:2:0:0:
437,154,171718,5,2,1:2:0:0:
499,245,171861,2,0,P|450:254|400:263,1,89.9999972534181,10|0,0:0|1:0,0:0:0:0:
433,138,172147,1,2,1:2:0:0:
512,323,172289,2,0,P|463:332|413:341,1,89.9999972534181,2|8,1:2|0:0,0:0:0:0:
253,211,172575,2,0,B|261:324|311:261|320:392,1,179.999994506836,2|2,1:2|1:2,0:0:0:0:
223,351,173004,1,10,0:0:0:0:
332,228,173147,1,2,1:2:0:0:
166,189,173289,6,0,P|116:211|79:204,1,89.9999972534181,2|2,1:2|1:2,0:0:0:0:
0,315,173575,2,0,P|44:310|83:331,1,89.9999972534181,10|0,0:0|0:0,0:0:0:0:
176,190,173861,6,0,B|139:84|97:166|62:30,1,200,14|8,0:0|0:0,0:0:0:0:
175,31,174289,1,2,1:2:0:0:
28,159,174432,2,0,P|42:212|52:261,1,100,8|0,0:0|1:0,0:0:0:0:
228,297,174718,6,0,P|299:276|292:150,1,200,10|0,0:0|0:0,0:0:0:0:
176,190,175147,1,2,1:2:0:0:
197,367,175289,2,0,P|251:377|305:386,1,100,8|0,0:0|1:0,0:0:0:0:
494,293,175575,1,2,1:2:0:0:
385,373,175718,5,8,0:0:0:0:
380,348,175789,1,0,1:0:0:0:
376,323,175860,1,8,0:3:0:0:
372,299,175932,1,8,0:3:0:0:
367,274,176003,1,4,0:3:0:0:
363,249,176075,1,4,0:3:0:0:
358,225,176146,1,6,1:2:0:0:
335,35,176289,5,2,1:2:0:0:
393,124,176432,2,0,P|328:143|275:125,1,100,10|0,0:0|1:0,0:0:0:0:
331,8,176718,1,2,1:2:0:0:
231,190,176861,2,0,P|215:119|205:79,1,100,2|8,1:2|0:0,0:0:0:0:
105,46,177147,6,0,B|96:174|49:91|28:224,1,200,2|2,1:2|1:2,0:0:0:0:
141,210,177575,1,10,0:0:0:0:
141,210,177718,1,2,1:2:0:0:
13,66,177861,1,2,1:2:0:0:
13,66,178004,1,2,1:2:0:0:
29,245,178147,5,10,0:0:0:0:
196,112,178289,1,0,1:0:0:0:
27,275,178432,1,6,1:2:0:0:
171,360,178575,5,2,1:2:0:0:
316,261,178718,2,0,P|267:256|226:295,1,100,10|0,0:0|1:0,0:0:0:0:
419,312,179004,2,0,P|397:233|379:140,1,150,2|0,1:2|0:0,0:0:0:0:
384,142,179289,1,10,0:0:0:0:
505,48,179432,2,0,P|492:106|476:145,1,100,2|0,1:2|1:2,0:0:0:0:
341,8,179718,1,2,1:2:0:0:
341,8,179861,1,10,0:0:0:0:
253,87,180004,1,2,1:2:0:0:
99,21,180147,6,0,P|160:26|212:30,1,100,2|2,1:2|1:2,0:0:0:0:
65,143,180432,1,10,0:0:0:0:
0,66,180575,1,0,1:0:0:0:
120,214,180718,5,14,0:0:0:0:
32,278,180861,1,2,1:2:0:0:
238,338,181004,2,0,P|230:269|222:216,1,110.000003356934,10|0,0:0|1:0,0:0:0:0:
81,376,181289,1,10,0:0:0:0:
333,333,181432,2,0,P|325:264|317:211,1,110.000003356934,2|8,1:2|0:0,0:0:0:0:
256,92,181718,1,2,1:2:0:0:
394,228,181861,5,14,0:0:0:0:
473,108,182004,1,2,1:2:0:0:
506,276,182147,5,10,0:0:0:0:
483,35,182289,1,2,1:2:0:0:
269,241,182432,5,2,1:2:0:0:
269,241,182504,1,0,1:2:0:0:
269,241,182575,2,0,P|311:252|333:257,1,55.0000016784668,2|0,1:2|1:2,0:0:0:0:
164,117,182718,1,10,0:0:0:0:
164,117,182790,1,8,0:0:0:0:
164,117,182861,2,0,P|206:128|228:133,1,55.0000016784668,8|8,0:0|0:0,0:0:0:0:
145,271,183004,6,0,P|125:303|112:339,4,75,2|2|2|2|2,1:2|0:0|0:0|0:0|0:0,0:0:0:0:
74,200,185147,5,0,1:0:0:0:
74,200,185218,1,0,1:0:0:0:
74,200,185289,1,10,0:3:0:0:
172,246,185432,1,10,0:3:0:0:
52,301,185575,1,6,0:3:0:0:
184,355,185718,2,0,P|223:344|238:341,1,37.5000014305115,10|8,0:3|0:3,0:0:0:0:
306,321,185861,5,10,0:3:0:0:
306,321,186004,1,6,0:3:0:0:
466,211,186147,1,10,0:0:0:0:
275,135,186289,1,10,0:3:0:0:
400,366,186432,5,0,1:0:0:0:
396,342,186503,1,0,1:0:0:0:
392,319,186574,1,10,0:0:0:0:
389,296,186646,1,8,0:0:0:0:
385,273,186717,1,10,0:0:0:0:
381,250,186789,1,8,0:0:0:0:
376,227,186860,1,2,1:2:0:0:
372,204,186932,1,0,1:0:0:0:
368,181,187003,1,10,0:0:0:0:
140,74,187575,5,6,1:2:0:0:
394,115,188575,5,2,1:2:0:0:
276,174,188861,5,2,1:2:0:0:
384,252,189147,5,2,1:2:0:0:
486,275,189432,6,0,P|482:293|479:312,2,37.5000014305115,2|0|2,1:2|1:0|1:2,0:0:0:0:
405,371,189718,6,0,B|308:385|347:207|245:227,1,230.000004386902,6|2,1:2|1:2,0:0:0:0:
103,206,190147,1,10,0:0:0:0:
176,309,190289,1,2,0:0:0:0:
159,119,190432,5,2,1:2:0:0:
7,227,190575,1,2,1:2:0:0:
179,316,190718,1,8,0:0:0:0:
209,5,190861,6,0,B|162:11|125:9|125:9|79:56|79:56|35:52|-27:59,1,230.000004386902,2|0,1:2|1:0,0:0:0:0:
220,166,191289,2,0,P|305:165|292:36,1,230.000004386902,8|0,0:0|1:0,0:0:0:0:
77,162,191718,1,2,1:2:0:0:
81,182,191861,1,10,0:0:0:0:
85,202,192004,1,2,0:0:0:0:
70,318,192147,6,0,P|130:299|187:290,1,115.000002193451,4|2,1:2|0:0,0:0:0:0:
198,294,192361,1,2,0:0:0:0:
198,294,192432,1,10,0:0:0:0:
256,192,192575,1,2,0:0:0:0:
442,66,192718,6,0,P|382:85|325:94,1,115.000002193451,0|2,1:2|1:2,0:0:0:0:
314,90,192932,1,2,0:0:0:0:
314,90,193003,1,10,0:0:0:0:
256,192,193146,1,2,0:0:0:0:
92,189,193289,5,0,1:2:0:0:
99,71,193432,1,2,0:0:0:0:
99,71,193504,1,2,0:0:0:0:
99,71,193575,1,10,0:0:0:0:
203,128,193718,1,2,0:0:0:0:
26,305,193861,5,0,1:2:0:0:
160,380,194004,1,2,1:2:0:0:
160,380,194076,1,2,0:0:0:0:
160,380,194147,1,10,0:0:0:0:
174,224,194290,1,2,1:2:0:0:
248,350,194432,5,14,0:0:0:0:
341,260,194575,1,0,1:0:0:0:
476,278,194718,1,0,1:0:0:0:
312,97,194861,5,10,0:0:0:0:
388,170,195004,1,0,1:0:0:0:
499,155,195147,1,0,1:0:0:0:
201,289,195289,5,10,0:0:0:0:
280,208,195432,1,0,1:0:0:0:
207,115,195575,1,8,0:3:0:0:
207,115,195647,1,8,0:3:0:0:
207,115,195718,1,10,0:3:0:0:
31,67,195861,5,8,0:3:0:0:
111,138,196004,1,8,0:3:0:0:
20,243,196147,6,0,P|55:318|64:379,1,115.000002193451,6|4,0:3|0:3,0:0:0:0:
139,375,196361,1,4,0:3:0:0:
139,375,196432,2,0,B|211:382|154:249|236:256,1,172.500003290176,6|0,1:3|1:0,0:0:0:0:
305,220,196718,6,0,P|328:252|308:304,1,82.5000025177003,2|0,1:2|1:0,0:0:0:0:
321,376,197004,5,6,1:2:0:0:
321,376,197147,1,2,0:0:0:0:
512,290,197289,1,2,1:2:0:0:
383,192,197432,2,0,P|322:181|265:162,1,115.000002193451,2|8,1:2|0:0,0:0:0:0:
111,52,197718,6,0,B|122:0|189:-1|240:54|215:123|152:160,1,230.000004386902,2|0,1:2|1:0,0:0:0:0:
103,256,198147,1,10,0:0:0:0:
103,256,198289,1,2,0:0:0:0:
3,219,198432,5,2,1:2:0:0:
43,335,198575,1,2,1:2:0:0:
178,142,198718,1,10,0:0:0:0:
221,352,198861,6,0,B|246:354|279:348|279:348|325:384|325:384|359:378|403:378,1,172.500003290176,6|0,1:2|0:0,0:0:0:0:
396,376,199147,2,0,P|420:319|371:277,1,115.000002193451,2|10,1:2|0:0,0:0:0:0:
197,99,199432,1,2,0:0:0:0:
333,228,199575,1,2,1:2:0:0:
387,46,199718,1,2,1:2:0:0:
302,126,199861,1,8,0:0:0:0:
186,242,200004,6,0,B|102:274|133:68|46:91,1,230.000004386902,2|0,1:2|1:0,0:0:0:0:
38,359,200432,2,0,P|136:336|284:300,1,230.000004386902,8|0,0:0|1:0,0:0:0:0:
437,333,200861,1,2,1:2:0:0:
411,337,201004,1,10,0:0:0:0:
418,314,201147,1,2,0:0:0:0:
340,211,201289,6,0,P|403:202|458:194,1,115.000002193451,4|2,1:2|0:0,0:0:0:0:
471,196,201504,1,2,0:0:0:0:
471,196,201575,1,10,0:0:0:0:
260,224,201718,1,2,0:0:0:0:
324,110,201861,6,0,P|387:101|442:93,1,115.000002193451,0|2,1:2|1:2,0:0:0:0:
455,95,202076,1,2,0:0:0:0:
455,95,202147,1,10,0:0:0:0:
244,123,202290,1,2,1:2:0:0:
92,54,202432,5,10,0:0:0:0:
108,220,202575,1,0,1:0:0:0:
77,55,202718,5,10,0:0:0:0:
93,221,202861,1,0,1:0:0:0:
232,126,203004,5,10,0:0:0:0:
232,126,203147,1,0,1:0:0:0:
54,141,203289,1,10,0:0:0:0:
281,236,203432,5,6,1:2:0:0:
281,236,203861,5,8,0:0:0:0:
396,252,204004,1,0,1:0:0:0:
254,368,204147,5,8,0:0:0:0:
440,319,204289,1,0,1:0:0:0:
215,294,204432,5,8,0:0:0:0:
260,126,204575,1,0,1:0:0:0:
131,336,204718,5,14,0:0:0:0:
84,90,204861,1,0,1:0:0:0:
0,251,205004,5,14,0:0:0:0:
201,279,205147,1,0,1:0:0:0:
13,246,205289,5,8,0:0:0:0:
150,173,205432,1,2,1:2:0:0:
33,241,205575,5,14,0:0:0:0:
120,265,205718,1,2,1:2:0:0:
1,92,205861,5,14,0:0:0:0:
154,0,206004,1,0,1:0:0:0:
154,0,206075,1,2,1:2:0:0:
154,0,206147,1,8,0:0:0:0:
266,64,206289,1,2,1:2:0:0:
266,64,206360,1,0,1:0:0:0:
266,64,206432,1,10,0:0:0:0:
156,205,206575,6,0,P|150:140|144:84,1,115.000002193451,0|8,1:0|0:0,0:0:0:0:
145,83,206789,1,0,1:0:0:0:
145,83,206861,1,2,1:2:0:0:
172,344,207004,6,0,B|310:366|222:95|367:133,1,329.9999899292,14|0,0:0|0:0,0:0:0:0:
384,128,207861,5,10,0:0:0:0:
157,210,208004,1,10,0:0:0:0:
256,192,208075,12,6,210289,1:2:0:0:
