osu file format v14

[General]
AudioFilename: audio.mp3
AudioLeadIn: 0
PreviewTime: 118504
Countdown: 0
SampleSet: Soft
StackLeniency: 0.5
Mode: 0
LetterboxInBreaks: 0
WidescreenStoryboard: 0

[Editor]
DistanceSpacing: 0.2
BeatDivisor: 4
GridSize: 8
TimelineZoom: 2.799999

[Metadata]
Title:Sacrifice
TitleUnicode:Sacrifice
Artist:Ouse Akira
ArtistUnicode:逢瀬アキラ
Creator:Poyoyo
Version:Health Education
Source:ふゆから​、くるる。
Tags:ふゆくる fuyu kara kururu fuyukuru シルキーズプラス silky's plus galgame eroge visual novel opening rock japanese -yua cclemon LeeGod bongo GfMRT wei_0921
BeatmapID:3863490
BeatmapSetID:1877093

[Difficulty]
HPDrainRate:5.5
CircleSize:4.2
OverallDifficulty:9.4
ApproachRate:10
SliderMultiplier:1.9
SliderTickRate:1

[Events]
//Background and Video events
0,0,"top.jpg",0,0
//Break Periods
//Storyboard Layer 0 (Background)
//Storyboard Layer 1 (Fail)
//Storyboard Layer 2 (Pass)
//Storyboard Layer 3 (Foreground)
//Storyboard Layer 4 (Overlay)
//Storyboard Sound Samples

[TimingPoints]
147,285.714285714286,4,2,1,70,1,0
4718,-166.666666666667,4,2,1,70,0,0
5718,-200,4,2,1,70,0,0
6861,-250,4,2,2,70,0,0
7147,-250,4,2,1,70,0,0
8004,-200,4,2,3,70,0,0
8289,-200,4,2,1,70,0,0
9289,-100,4,2,1,70,0,0
11575,-1000,4,2,1,70,0,0
13718,-1000,4,2,1,5,0,0
13861,-1000,4,2,1,70,0,0
14861,-1000,4,2,1,5,0,0
15004,-1000,4,2,1,70,0,0
15147,-1000,4,2,2,70,0,0
15289,-1000,4,2,1,70,0,0
15575,-100,4,2,1,70,0,0
16004,-83.3333333333333,4,2,1,80,0,0
16718,-100,4,2,1,80,0,0
17147,-83.3333333333333,4,2,1,80,0,0
17861,-100,4,2,1,80,0,0
18289,-100,4,2,1,80,0,0
18575,-100,4,2,1,80,0,0
19432,-83.3333333333333,4,2,1,80,0,0
19718,-83.3333333333333,4,2,1,80,0,0
20147,-100,4,2,1,80,0,0
20718,-83.3333333333333,4,2,1,80,0,0
21004,-100,4,2,1,80,0,0
21718,-83.3333333333333,4,2,1,80,0,0
22432,-100,4,2,1,80,0,0
22861,-100,4,2,1,80,0,0
23147,-100,4,2,1,80,0,0
24004,-83.3333333333333,4,2,1,80,0,0
24289,-83.3333333333333,4,2,1,80,0,0
24575,-100,4,2,1,80,0,0
24861,-166.666666666667,4,2,1,80,0,0
25147,-166.666666666667,4,2,1,5,0,0
25289,-142.857142857143,4,2,1,60,0,0
34004,-83.3333333333333,4,2,1,60,0,0
34432,-111.111111111111,4,2,1,70,0,0
36432,-200,4,2,1,70,0,0
36718,-111.111111111111,4,2,1,70,0,0
42718,-83.3333333333333,4,2,1,70,0,0
44432,-200,4,2,1,70,0,0
44718,-100,4,2,1,70,0,0
45575,-200,4,2,1,70,0,0
46575,-100,4,2,1,70,0,0
49004,-200,4,2,1,70,0,0
49289,-100,4,2,1,70,0,0
51147,-142.857142857143,4,2,1,70,0,0
51432,-100,4,2,1,70,0,0
52432,-200,4,2,1,70,0,0
52718,-100,4,2,1,70,0,0
57289,-100,4,2,1,70,0,0
61575,-100,4,2,2,70,0,0
61718,-100,4,2,1,70,0,0
61861,-100,4,2,1,70,0,0
64004,-100,4,2,1,80,0,0
64051,-100,4,2,1,80,0,0
65718,-71.4285714285714,4,2,1,80,0,0
66004,-100,4,2,1,80,0,0
66432,-66.6666666666667,4,2,1,90,0,1
66718,-90.9090909090909,4,2,1,90,0,1
68575,-66.6666666666667,4,2,1,90,0,1
69147,-90.9090909090909,4,2,1,90,0,1
71004,-90.9090909090909,4,2,1,90,0,1
75004,-333.333333333333,4,2,1,90,0,1
75575,-71.4285714285714,4,2,1,90,0,1
75861,-90.9090909090909,4,2,1,90,0,1
77718,-71.4285714285714,4,2,1,90,0,1
78861,-90.9090909090909,4,2,1,90,0,1
80147,-71.4285714285714,4,2,1,90,0,1
80718,-90.9090909090909,4,2,1,90,0,1
82289,-71.4285714285714,4,2,1,90,0,1
82718,-90.9090909090909,4,2,1,90,0,1
85147,-90.9090909090909,4,2,2,90,0,1
85432,-90.9090909090909,4,2,1,90,0,1
85861,-90.9090909090909,4,2,1,90,0,0
86861,-90.9090909090909,4,2,1,80,0,0
89147,-66.6666666666667,4,2,1,80,0,0
89432,-90.9090909090909,4,2,1,80,0,0
90147,-90.9090909090909,4,2,2,80,0,0
90432,-90.9090909090909,4,2,1,70,0,0
90575,-58.8235294117647,4,2,1,70,0,0
90861,-76.9230769230769,4,2,1,70,0,0
91147,-111.111111111111,4,2,1,70,0,0
91504,-111.111111111111,4,2,1,5,0,0
91575,-142.857142857143,4,2,1,60,0,0
98147,-333.333333333333,4,2,1,60,0,0
98432,-100,4,2,1,70,0,0
98861,-142.857142857143,4,2,1,70,0,0
99289,-100,4,2,1,70,0,0
100432,-100,4,2,1,70,0,0
100575,-100,4,2,2,70,0,0
100718,-166.666666666667,4,2,1,70,0,0
103147,-125,4,2,1,70,0,0
105289,-166.666666666667,4,2,1,70,0,0
105861,-142.857142857143,4,2,1,70,0,0
106432,-166.666666666667,4,2,1,70,0,0
107861,-111.111111111111,4,2,1,70,0,0
108289,-249.999999999999,4,2,1,70,0,0
108575,-83.3333333333333,4,2,1,70,0,0
109289,-100,4,2,1,70,0,0
109432,-76.9230769230769,4,2,1,70,0,0
109861,-100,4,2,1,70,0,0
111861,-200,4,2,1,70,0,0
112147,-100,4,2,1,70,0,0
114432,-100,4,2,1,80,0,0
118718,-200,4,2,1,80,0,0
119004,-66.6666666666667,4,2,1,80,0,1
119289,-90.9090909090909,4,2,1,80,0,1
121147,-66.6666666666667,4,2,1,80,0,1
122004,-90.9090909090909,4,2,1,80,0,1
127575,-333.333333333333,4,2,1,80,0,1
127861,-90.9090909090909,4,2,1,80,0,1
128147,-71.4285714285714,4,2,1,80,0,1
128432,-90.9090909090909,4,2,1,80,0,1
130289,-71.4285714285714,4,2,1,80,0,1
131147,-90.9090909090909,4,2,1,80,0,1
132718,-71.4285714285714,4,2,1,80,0,1
133289,-90.9090909090909,4,2,1,80,0,1
134861,-71.4285714285714,4,2,1,80,0,1
135289,-90.9090909090909,4,2,1,80,0,1
137718,-90.9090909090909,4,2,2,80,0,1
138004,-90.9090909090909,4,2,1,90,0,1
138432,-142.857142857143,4,2,1,90,0,0
139575,-90.9090909090909,4,2,1,75,0,0
143718,-142.857142857143,4,2,1,75,0,0
144147,-90.9090909090909,4,2,1,75,0,0
148718,-111.111111111111,4,2,1,75,0,0
150432,-76.9230769230769,4,2,1,75,0,0
151004,-111.111111111111,4,2,1,75,0,0
152861,-90.9090909090909,4,2,1,75,0,0
153289,-111.111111111111,4,2,1,75,0,0
153861,-90.9090909090908,4,2,1,75,0,0
155004,-71.4285714285714,4,2,1,75,0,0
157718,-71.4285714285714,4,2,1,85,0,0
158432,-58.8235294117647,4,2,1,85,0,0
159004,-71.4285714285714,4,2,1,85,0,0
160004,-83.3333333333333,4,2,1,85,0,0
162432,-76.9230769230769,4,2,1,85,0,0
163289,-71.4285714285714,4,2,1,85,0,0
165004,-62.5,4,2,1,85,0,0
165289,-55.5555555555556,4,2,1,85,0,0
166432,-55.5555555555556,4,2,2,85,0,0
166718,-55.5555555555556,4,2,1,85,0,0
167004,-83.3333333333333,4,2,1,85,0,0
173575,-166.666666666667,4,2,1,85,0,0
174861,-71.4285714285714,4,2,1,85,0,0
176147,-71.4285714285714,4,2,1,90,0,0
176432,-83.3333333333333,4,2,1,90,0,0
178718,-76.9230769230769,4,2,1,90,0,0
183004,-76.9230769230769,4,2,1,70,0,0
185147,-76.9230769230769,4,2,1,80,0,0
185718,-76.9230769230769,4,2,2,80,0,0
186004,-76.9230769230769,4,2,1,80,0,0
187575,-40,4,2,1,80,0,0
187611,-40,4,2,1,5,0,0
188575,-125,4,2,1,80,0,0
189147,-100,4,2,1,80,0,0
189718,-66.6666666666667,4,2,1,90,0,1
190575,-90.9090909090909,4,2,1,90,0,1
195861,-90.9090909090909,4,2,2,90,0,1
196147,-90.9090909090909,4,2,1,90,0,1
196432,-200,4,2,1,90,0,1
196718,-100,4,2,1,90,0,1
196968,-100,4,2,1,5,0,1
197004,-58.8235294117647,4,2,1,90,0,1
197432,-90.9090909090909,4,2,1,90,0,1
198860,-71.4285714285714,4,2,1,90,0,1
199718,-111.111111111111,4,2,1,90,0,1
200003,-66.6666666666667,4,2,1,90,0,1
200432,-90.9090909090909,4,2,1,90,0,1
201289,-76.9230769230769,4,2,1,90,0,1
203289,-90.9090909090909,4,2,1,90,0,1
203432,-71.4285714285714,4,2,1,90,0,1
203861,-90.9090909090909,4,2,1,90,0,1
207004,-333.333333333333,4,2,1,90,0,0
209075,-333.333333333333,4,2,1,5,0,0
209147,-100,4,2,1,80,0,0
210289,-83.3333333333333,4,2,1,80,0,0
211004,-100,4,2,1,80,0,0
211432,-83.3333333333333,4,2,1,80,0,0
212147,-100,4,2,1,80,0,0
213718,-83.3333333333333,4,2,1,80,0,0
214432,-100,4,2,1,80,0,0
216004,-83.3333333333333,4,2,1,80,0,0
216718,-100,4,2,1,80,0,0
218289,-83.3333333333333,4,2,1,80,0,0
218861,-83.3333333333333,4,2,2,80,0,0
221004,-100,4,2,2,80,0,0

[Colours]
Combo1 : 159,159,223
Combo2 : 219,149,149
Combo3 : 223,159,223
Combo4 : 159,223,159

[HitObjects]
412,190,4718,6,0,B|334:99|294:242|193:226|203:81|96:144,1,341.999989562989,6|0,1:2|0:0,0:0:0:0:
56,280,5718,6,0,B|88:346|88:346|105:263|105:263|84:221|84:221|101:129,1,285,6|2,1:2|0:0,0:0:0:0:
116,46,6718,1,8,0:0:0:0:
182,205,6861,6,0,B|261:196|261:196|283:179|283:179|373:169,1,190,2|10,1:2|0:0,0:0:0:0:
446,225,7718,1,8,0:3:0:0:
476,86,7861,1,6,0:3:0:0:
365,169,8004,6,0,P|318:160|278:117,1,95,2|8,1:2|0:0,0:0:0:0:
284,128,8432,1,0,0:0:0:0:
108,84,8575,2,0,P|140:118|149:164,1,95,0|2,1:0|1:2,0:0:0:0:
149,164,8932,1,0,1:0:0:0:
149,164,9004,1,2,1:2:0:0:
5,363,9289,5,10,0:0:0:0:
25,349,9360,1,0,1:2:0:0:
48,345,9431,1,0,1:2:0:0:
71,349,9503,1,0,1:2:0:0:
91,362,9574,1,0,1:2:0:0:
111,375,9647,1,0,1:2:0:0:
134,379,9719,1,2,1:2:0:0:
157,375,9790,1,0,1:2:0:0:
177,361,9860,5,10,0:0:0:0:
177,332,9931,1,0,1:2:0:0:
176,303,10004,1,0,1:2:0:0:
175,276,10074,1,0,1:2:0:0:
174,247,10147,1,0,1:2:0:0:
174,219,10218,1,0,1:2:0:0:
173,190,10289,6,0,L|138:186,2,23.75,2|0|2,0:2|0:0|1:2,0:0:0:0:
289,263,10432,5,8,0:0:0:0:
347,294,10504,1,0,1:2:0:0:
411,284,10575,1,0,1:2:0:0:
458,239,10647,1,0,1:2:0:0:
475,177,10718,1,2,1:2:0:0:
455,116,10789,1,0,1:2:0:0:
405,75,10861,1,2,1:2:0:0:
341,68,10932,1,0,1:2:0:0:
288,107,11004,5,10,0:0:0:0:
249,173,11075,1,8,0:0:0:0:
173,190,11146,1,10,0:0:0:0:
101,157,11218,1,8,0:0:0:0:
78,82,11289,5,2,1:2:0:0:
122,17,11361,1,0,1:2:0:0:
175,16,11432,1,2,1:2:0:0:
199,41,11504,1,0,1:2:0:0:
203,52,11575,6,0,P|208:127|209:197,1,142.5,6|0,1:2|0:0,0:0:0:0:
256,192,13861,12,0,14861,0:0:0:0:
323,293,15004,5,8,0:0:0:0:
384,289,15075,1,8,0:3:0:0:
433,253,15147,1,8,0:3:0:0:
452,194,15218,1,8,0:3:0:0:
433,136,15289,1,8,0:3:0:0:
384,101,15361,1,8,0:3:0:0:
323,103,15432,1,4,0:3:0:0:
275,138,15504,1,4,0:3:0:0:
256,192,15575,6,0,L|209:185,1,47.5,10|2,0:0|0:0,0:0:0:0:
112,77,15718,2,0,L|130:121,1,47.5,10|2,0:0|0:0,0:0:0:0:
85,259,15861,2,0,L|115:221,1,47.5,10|2,0:0|0:0,0:0:0:0:
448,20,16004,6,0,P|425:108|407:209,1,170.999994781494,6|0,1:2|0:0,0:0:0:0:
454,255,16289,1,2,1:2:0:0:
326,346,16432,1,10,0:0:0:0:
256,192,16575,1,2,0:0:0:0:
420,338,16718,2,0,L|445:381,1,47.5,2|0,1:2|0:0,0:0:0:0:
350,250,16861,1,2,1:2:0:0:
350,250,17004,1,8,0:0:0:0:
158,378,17147,6,0,P|241:360|325:346,1,170.999994781494,2|0,1:2|0:0,0:0:0:0:
410,322,17432,1,2,1:2:0:0:
252,209,17575,1,10,0:0:0:0:
331,329,17718,1,2,0:0:0:0:
441,203,17861,2,0,L|446:155,1,47.5,2|0,1:2|0:0,0:0:0:0:
350,250,18004,1,2,1:2:0:0:
350,250,18147,1,8,0:0:0:0:
84,35,18289,6,0,P|27:79|66:141,1,142.5,6|0,1:2|0:0,0:0:0:0:
118,185,18575,1,2,1:2:0:0:
13,359,18718,1,10,0:0:0:0:
164,264,18861,1,2,0:0:0:0:
164,264,18932,1,2,0:0:0:0:
164,264,19004,1,2,1:2:0:0:
37,219,19147,1,2,1:2:0:0:
186,347,19289,1,8,0:0:0:0:
463,245,19432,6,0,B|394:236|394:236|365:248|365:248|277:236,1,170.999994781494,6|0,1:2|0:0,0:0:0:0:
239,175,19718,1,2,1:2:0:0:
441,121,19861,1,10,0:0:0:0:
304,21,20004,1,2,0:0:0:0:
341,146,20147,6,0,L|346:96,1,47.5,2|0,1:2|0:0,0:0:0:0:
221,7,20289,1,2,1:2:0:0:
185,8,20361,1,2,0:0:0:0:
164,35,20432,1,10,0:0:0:0:
239,175,20575,1,2,0:0:0:0:
14,229,20718,5,6,1:2:0:0:
14,229,20789,1,2,0:0:0:0:
14,229,20861,1,2,0:0:0:0:
197,108,21004,1,10,0:0:0:0:
57,64,21147,1,2,0:0:0:0:
185,194,21289,6,0,L|246:188,1,47.5,2|0,1:2|0:0,0:0:0:0:
119,272,21432,1,2,1:2:0:0:
119,272,21575,1,8,0:0:0:0:
292,359,21718,6,0,P|300:275|317:187,1,170.999994781494,2|0,1:2|0:0,0:0:0:0:
389,138,22004,1,2,1:2:0:0:
263,254,22147,1,10,0:0:0:0:
202,153,22289,1,2,0:0:0:0:
380,294,22432,2,0,L|426:285,1,47.5,2|0,1:2|0:0,0:0:0:0:
292,359,22575,1,2,1:2:0:0:
292,359,22718,1,8,0:0:0:0:
491,199,22861,6,0,P|478:129|466:36,1,142.5,6|0,1:2|0:0,0:0:0:0:
397,10,23147,1,2,1:2:0:0:
315,189,23289,1,10,0:0:0:0:
436,133,23432,1,2,0:0:0:0:
436,133,23504,1,2,0:0:0:0:
436,133,23575,1,2,1:2:0:0:
218,67,23718,1,2,1:2:0:0:
310,142,23861,2,0,L|316:195,1,47.5,8|0,0:0|0:0,0:0:0:0:
244,342,24004,6,0,B|142:338|203:274|76:278,1,170.999994781494,6|0,1:2|0:0,0:0:0:0:
238,257,24289,1,10,0:0:0:0:
24,321,24432,1,10,0:0:0:0:
105,156,24575,2,0,L|116:208,1,47.5,10|0,0:0|0:0,0:0:0:0:
145,338,24718,1,0,1:0:0:0:
267,96,24861,6,0,B|299:86|328:106|328:106|333:95|333:95|370:118|409:106,1,142.499995651245,10|0,0:0|0:0,0:0:0:0:
473,138,25289,1,0,1:0:0:0:
408,189,25432,1,0,0:0:0:0:
486,299,25575,6,0,L|498:372,1,66.4999979705811,2|0,1:2|0:0,0:0:0:0:
403,341,25861,2,0,L|266:319,1,132.999995941162,2|0,1:2|1:0,0:0:0:0:
193,357,26289,1,2,0:0:0:0:
193,357,26432,6,0,P|182:319|195:289,1,66.4999979705811,0|2,1:0|0:0,0:0:0:0:
253,171,26718,2,0,P|264:209|251:239,1,66.4999979705811,2|2,1:2|0:0,0:0:0:0:
168,203,27004,1,2,1:2:0:0:
177,112,27147,1,2,0:0:0:0:
253,171,27289,1,2,1:2:0:0:
89,155,27432,5,0,1:0:0:0:
89,155,27504,1,0,1:0:0:0:
89,155,27575,1,0,1:0:0:0:
168,203,27718,1,0,0:0:0:0:
273,74,27861,6,0,L|285:1,1,66.4999979705811,2|0,1:2|0:0,0:0:0:0:
350,130,28147,2,0,L|371:267,1,132.999995941162,2|0,1:2|1:0,0:0:0:0:
388,353,28575,1,2,0:0:0:0:
309,320,28718,6,0,P|279:301|234:309,1,66.4999979705811,0|2,1:0|0:0,0:0:0:0:
153,361,29004,2,0,P|180:379|213:379,1,66.4999979705811,2|2,1:2|0:0,0:0:0:0:
249,302,29289,1,2,1:2:0:0:
80,264,29432,1,2,0:0:0:0:
153,361,29575,1,2,1:2:0:0:
191,199,29718,5,0,1:0:0:0:
191,199,29789,1,0,1:0:0:0:
191,199,29861,1,0,1:0:0:0:
249,302,30004,1,0,0:0:0:0:
114,142,30147,6,0,L|48:133,1,66.4999979705811,2|0,1:2|0:0,0:0:0:0:
204,226,30432,2,0,L|342:209,1,132.999995941162,2|0,1:2|1:0,0:0:0:0:
397,273,30861,1,2,0:0:0:0:
346,147,31004,6,0,P|332:178|341:221,1,66.4999979705811,0|2,1:0|0:0,0:0:0:0:
386,335,31289,2,0,P|400:304|391:261,1,66.4999979705811,2|2,1:2|0:0,0:0:0:0:
335,209,31575,1,2,1:2:0:0:
475,231,31718,1,2,0:0:0:0:
386,335,31861,1,2,1:2:0:0:
335,209,32004,1,2,0:0:0:0:
184,335,32147,6,0,L|30:316,1,132.999995941162,2|0,1:2|1:0,0:0:0:0:
70,189,32575,2,0,P|100:209|105:244,1,66.4999979705811,2|0,0:0|1:0,0:0:0:0:
52,318,32861,1,0,0:0:0:0:
203,225,33004,2,0,L|356:206,1,132.999995941162,2|0,1:2|1:0,0:0:0:0:
184,335,33432,5,10,0:0:0:0:
243,147,33575,1,10,0:0:0:0:
106,237,33718,1,2,1:2:0:0:
292,298,33861,1,2,1:2:0:0:
387,141,34004,2,0,P|481:146|425:221,1,227.999993041992,10|8,0:0|0:0,0:0:0:0:
412,219,34361,1,8,0:0:0:0:
398,216,34432,6,0,L|415:314,1,85.4999973907472,2|0,1:2|0:0,0:0:0:0:
237,126,34718,2,0,L|252:36,1,85.4999973907472,10|0,0:0|0:0,0:0:0:0:
129,160,35004,1,2,1:2:0:0:
294,221,35147,1,0,0:0:0:0:
129,160,35289,1,8,0:0:0:0:
50,300,35432,6,0,L|153:287,1,85.4999973907472,2|0,0:0|1:0,0:0:0:0:
258,338,35718,1,2,0:0:0:0:
170,175,35861,1,10,0:0:0:0:
294,221,36003,1,2,0:0:0:0:
135,289,36147,5,2,1:2:0:0:
215,256,36289,1,2,0:0:0:0:
294,221,36432,2,0,L|385:233,1,71.25,10|0,0:0|0:0,0:0:0:0:
415,290,36718,6,0,P|390:280|376:198,1,85.4999973907472,0|0,1:0|0:0,0:0:0:0:
468,36,37004,2,0,L|457:138,1,85.4999973907472,10|0,0:0|0:0,0:0:0:0:
448,218,37289,1,2,1:2:0:0:
268,128,37432,1,0,0:0:0:0:
448,218,37575,1,8,0:0:0:0:
263,292,37718,6,0,P|269:246|247:209,1,85.4999973907472,2|0,0:0|1:0,0:0:0:0:
115,315,38004,1,2,0:0:0:0:
191,346,38147,1,10,0:0:0:0:
180,261,38289,1,2,0:0:0:0:
270,373,38432,5,2,1:2:0:0:
102,228,38575,1,2,0:0:0:0:
336,187,38718,1,10,0:0:0:0:
191,346,38861,1,0,1:0:0:0:
191,346,38932,1,0,1:0:0:0:
191,346,39004,2,0,L|180:258,1,85.4999973907472,0|0,1:0|0:0,0:0:0:0:
66,138,39289,6,0,L|157:148,1,85.4999973907472,10|0,0:0|0:0,0:0:0:0:
331,76,39575,1,2,1:2:0:0:
339,225,39718,2,0,L|245:216,1,85.4999973907472,2|8,0:0|0:0,0:0:0:0:
217,10,40004,2,0,P|286:50|350:-5,1,170.999994781494,2|0,0:0|0:0,0:0:0:0:
464,85,40432,6,0,L|455:179,1,85.4999973907472,10|0,0:0|0:0,0:0:0:0:
432,331,40718,1,2,1:2:0:0:
510,267,40861,1,0,0:0:0:0:
339,225,41004,2,0,L|240:216,1,85.4999973907472,10|0,0:0|0:0,0:0:0:0:
134,335,41289,6,0,P|115:300|129:243,1,85.4999973907472,2|0,1:2|0:0,0:0:0:0:
222,203,41575,1,8,0:0:0:0:
32,240,41718,2,0,P|43:201|93:172,1,85.4999973907472,2|0,0:0|1:0,0:0:0:0:
222,203,42004,1,0,0:0:0:0:
23,100,42147,2,0,P|58:81|115:95,1,85.4999973907472,10|0,0:0|0:0,0:0:0:0:
222,203,42432,1,0,1:0:0:0:
226,46,42575,2,0,L|228:88,1,42.7499986953736,10|0,0:2|0:0,0:0:0:0:
222,203,42718,6,0,L|209:15,1,170.999994781494,0|0,1:0|0:0,0:0:0:0:
114,1,43004,1,2,1:2:0:0:
339,127,43147,1,8,0:2:0:0:
223,224,43289,1,2,1:2:0:0:
312,288,43432,5,8,0:0:0:0:
314,300,43504,1,8,0:0:0:0:
316,311,43575,2,0,P|398:310|453:243,1,170.999994781494,6|0,1:2|0:0,0:0:0:0:
489,168,43861,1,8,0:0:0:0:
489,168,44004,1,0,0:0:0:0:
339,127,44147,1,0,1:0:0:0:
339,127,44290,1,0,1:0:0:0:
442,47,44432,6,0,L|446:99,1,47.5,2|8,0:0|0:0,0:0:0:0:
408,165,44647,1,8,0:0:0:0:
408,165,44718,6,0,B|326:154|359:219|270:213,1,142.5,2|0,1:2|0:0,0:0:0:0:
190,172,45004,1,8,0:0:0:0:
190,172,45147,1,0,0:0:0:0:
141,336,45289,1,0,1:0:0:0:
141,336,45432,1,0,1:0:0:0:
28,272,45575,6,0,L|87:265,1,47.5,10|0,0:0|1:0,0:0:0:0:
163,258,45789,1,0,1:0:0:0:
163,258,45861,1,2,1:2:0:0:
53,345,46004,5,2,0:0:0:0:
109,181,46147,1,8,0:0:0:0:
163,258,46289,1,2,0:0:0:0:
312,220,46432,1,2,1:2:0:0:
163,258,46575,2,0,P|153:307|186:356,1,95,2|0,1:2|0:0,0:0:0:0:
287,380,46861,6,0,L|438:360,1,142.5,10|0,0:0|0:0,0:0:0:0:
507,330,47147,1,2,0:0:0:0:
344,283,47289,2,0,P|331:237|355:195,1,95,10|2,0:0|0:0,0:0:0:0:
512,149,47575,1,2,1:2:0:0:
429,247,47718,1,0,1:0:0:0:
349,78,47861,2,0,L|253:67,1,95,10|0,0:0|0:0,0:0:0:0:
38,204,48147,6,0,L|181:184,1,142.5,6|0,1:2|0:0,0:0:0:0:
233,250,48432,1,8,0:0:0:0:
233,250,48575,1,0,0:0:0:0:
121,120,48718,1,0,1:0:0:0:
121,120,48861,1,0,1:0:0:0:
262,97,49004,6,0,L|270:149,1,47.5,2|8,0:0|0:0,0:0:0:0:
233,250,49218,1,8,0:0:0:0:
233,250,49289,2,0,L|376:270,1,142.5,2|0,1:2|0:0,0:0:0:0:
438,218,49575,1,8,0:0:0:0:
438,218,49718,1,0,0:0:0:0:
313,337,49861,1,0,1:0:0:0:
313,337,50004,2,0,L|252:329,1,47.5,2|0,1:2|0:0,0:0:0:0:
199,172,50147,6,0,P|147:212|162:295,1,142.5,10|0,0:0|0:0,0:0:0:0:
193,365,50432,1,2,1:2:0:0:
52,272,50575,5,2,0:0:0:0:
152,283,50718,1,10,0:0:0:0:
0,357,50861,1,0,0:0:0:0:
8,182,51004,1,2,1:2:0:0:
152,283,51147,2,0,L|252:272,1,99.7499969558717,0|0,1:2|0:0,0:0:0:0:
391,217,51432,6,0,P|346:203|336:145,1,95,10|0,0:0|1:2,0:0:0:0:
377,89,51647,1,0,1:0:0:0:
396,84,51718,1,2,1:2:0:0:
417,80,51789,1,0,1:0:0:0:
437,75,51861,5,10,0:0:0:0:
335,288,52004,1,2,0:0:0:0:
250,182,52147,5,2,1:2:0:0:
415,241,52289,1,0,1:0:0:0:
338,360,52432,2,0,L|335:283,1,71.25,10|0,0:0|0:0,0:0:0:0:
209,322,52718,6,0,P|142:335|93:286,1,142.5,6|0,1:2|0:0,0:0:0:0:
167,251,53004,1,8,0:0:0:0:
167,251,53147,1,0,0:0:0:0:
20,294,53289,1,0,1:0:0:0:
20,294,53432,1,0,1:0:0:0:
158,168,53575,2,0,L|147:73,1,95,10|2,0:0|0:0,0:0:0:0:
239,32,53789,1,2,0:0:0:0:
239,32,53861,6,0,B|322:43|279:95|382:99,1,142.5,2|0,1:2|0:0,0:0:0:0:
440,58,54147,1,8,0:0:0:0:
440,58,54289,1,0,0:0:0:0:
301,158,54432,1,0,1:0:0:0:
301,158,54575,1,0,1:0:0:0:
427,184,54718,2,0,L|436:85,1,95,10|0,0:0|0:0,0:0:0:0:
306,242,55004,6,0,L|313:341,1,95,2|0,1:2|0:0,0:0:0:0:
240,382,55289,1,8,0:0:0:0:
138,211,55432,2,0,P|183:200|232:231,1,95,2|0,0:0|1:0,0:0:0:0:
312,336,55718,1,0,1:0:0:0:
446,312,55861,5,10,0:0:0:0:
504,245,56004,1,0,0:0:0:0:
420,226,56147,1,0,1:0:0:0:
319,180,56289,5,2,0:0:0:0:
261,113,56432,1,8,0:0:0:0:
345,94,56575,1,0,0:0:0:0:
459,131,56718,2,0,P|473:84|442:32,2,95,2|0|8,1:2|1:0|0:0,0:0:0:0:
237,215,57147,5,8,0:0:0:0:
193,215,57218,1,8,0:0:0:0:
167,178,57289,1,14,0:0:0:0:
279,22,57432,1,2,0:0:0:0:
340,195,57575,1,10,0:0:0:0:
116,90,57718,1,2,0:0:0:0:
61,314,57861,2,0,P|105:313|146:263,1,95,10|0,0:0|1:0,0:0:0:0:
43,160,58147,1,10,0:0:0:0:
247,117,58289,5,2,1:2:0:0:
247,117,58361,1,0,1:0:0:0:
247,117,58432,1,8,0:0:0:0:
140,279,58575,1,0,1:0:0:0:
397,363,58718,1,10,0:0:0:0:
311,282,58861,1,0,1:0:0:0:
446,134,59004,5,10,0:0:0:0:
311,282,59147,2,0,L|295:171,1,95,2|8,1:2|0:0,0:0:0:0:
199,36,59432,1,2,1:2:0:0:
140,279,59575,5,14,0:0:0:0:
340,111,59718,1,10,0:0:0:0:
293,113,59789,1,8,0:0:0:0:
246,116,59860,1,0,1:0:0:0:
101,63,60004,5,10,0:0:0:0:
345,205,60147,1,10,0:0:0:0:
343,158,60218,1,8,0:0:0:0:
340,111,60289,1,0,1:0:0:0:
72,243,60432,5,10,0:0:0:0:
265,362,60575,1,10,0:0:0:0:
312,360,60647,1,8,0:0:0:0:
359,357,60718,1,0,1:0:0:0:
446,238,60861,5,10,0:0:0:0:
244,111,61004,1,10,0:0:0:0:
246,158,61075,1,8,0:0:0:0:
247,204,61147,2,0,L|250:263,1,47.5,0|0,1:0|1:0,0:0:0:0:
359,357,61289,5,8,0:3:0:0:
416,372,61360,1,8,0:3:0:0:
465,343,61431,1,4,0:3:0:0:
478,287,61503,1,4,0:3:0:0:
446,238,61575,5,8,0:3:0:0:
423,238,61646,1,8,0:3:0:0:
399,240,61717,1,0,1:0:0:0:
376,242,61789,1,0,1:0:0:0:
352,244,61860,5,10,0:0:0:0:
376,242,62289,1,2,0:0:0:0:
399,240,62718,1,2,0:0:0:0:
423,238,63147,1,2,0:0:0:0:
446,238,63575,1,2,0:0:0:0:
415,62,64051,5,0,1:0:0:0:
415,62,64099,1,0,1:0:0:0:
415,62,64147,2,0,P|435:105|423:163,1,95,10|2,0:0|0:0,0:0:0:0:
361,214,64361,1,2,0:0:0:0:
361,214,64432,2,0,L|261:204,1,95,2|2,0:0|1:2,0:0:0:0:
193,266,64623,5,0,1:0:0:0:
193,266,64670,1,0,1:0:0:0:
193,266,64718,2,0,L|187:327,1,47.5,10|2,0:0|0:0,0:0:0:0:
35,381,64861,5,2,0:0:0:0:
40,333,64932,1,2,0:0:0:0:
45,286,65003,1,2,0:0:0:0:
50,239,65075,1,2,0:0:0:0:
54,191,65147,6,0,B|141:184|91:243|212:228,1,142.5,14|0,0:0|0:0,0:0:0:0:
317,132,65432,2,0,L|321:84,1,47.5,10|0,0:0|0:0,0:0:0:0:
193,266,65575,2,0,L|189:314,1,47.5,10|0,0:0|0:0,0:0:0:0:
54,191,65718,2,0,L|67:49,1,132.999995941162,10|0,0:0|0:0,0:0:0:0:
479,166,66004,6,0,L|433:157,1,47.5,10|0,0:0|0:0,0:0:0:0:
301,290,66147,2,0,L|347:281,1,47.5,2|0,1:2|0:0,0:0:0:0:
494,357,66289,5,0,1:0:0:0:
496,340,66360,1,0,1:0:0:0:
497,323,66432,2,0,P|438:278|324:338,1,213.750008153916,6|0,1:2|0:0,0:0:0:0:
403,384,66718,2,0,P|417:335|378:282,1,104.500003189087,10|0,0:0|0:0,0:0:0:0:
240,384,67004,1,2,1:2:0:0:
125,225,67147,1,2,1:2:0:0:
255,255,67289,1,8,0:0:0:0:
39,369,67432,6,0,L|29:211,1,156.750004783631,2|0,1:2|0:0,0:0:0:0:
24,136,67718,1,0,1:0:0:0:
277,40,67861,2,0,L|267:150,1,104.500003189087,10|0,0:0|0:0,0:0:0:0:
251,290,68147,1,2,1:2:0:0:
137,207,68289,1,2,1:2:0:0:
376,383,68432,5,10,0:0:0:0:
376,383,68504,1,2,0:0:0:0:
376,383,68575,2,0,P|465:322|411:240,1,213.750008153916,6|0,1:2|0:0,0:0:0:0:
353,202,68861,1,2,1:2:0:0:
403,10,69004,1,8,0:0:0:0:
492,117,69147,1,2,0:0:0:0:
267,144,69289,2,0,L|142:130,1,104.500003189087,2|2,1:2|1:2,0:0:0:0:
353,202,69575,1,8,0:0:0:0:
83,283,69718,6,0,B|173:277|137:343|239:335,1,156.750004783631,2|0,1:2|0:0,0:0:0:0:
294,296,70004,1,0,1:0:0:0:
34,166,70147,1,8,0:0:0:0:
198,34,70289,1,0,1:0:0:0:
106,313,70432,5,0,1:0:0:0:
239,207,70575,1,2,1:2:0:0:
239,207,70646,1,2,0:0:0:0:
239,207,70717,1,10,0:0:0:0:
34,166,70861,1,2,0:0:0:0:
288,381,71004,6,0,P|336:374|371:330,1,104.500003189087,4|2,1:2|0:0,0:0:0:0:
294,296,71218,1,2,0:0:0:0:
294,296,71289,1,10,0:0:0:0:
475,231,71432,1,2,0:0:0:0:
503,374,71575,5,0,1:2:0:0:
306,205,71718,1,0,1:0:0:0:
310,179,71789,1,2,0:0:0:0:
313,153,71860,1,10,0:0:0:0:
475,231,72004,1,2,0:0:0:0:
185,343,72147,6,0,P|137:339|100:297,1,104.500003189087,0|2,1:2|0:0,0:0:0:0:
176,255,72361,1,2,0:0:0:0:
176,255,72432,1,10,0:0:0:0:
8,343,72575,1,2,0:0:0:0:
19,142,72718,5,0,1:2:0:0:
176,255,72861,1,2,1:2:0:0:
202,251,72932,1,2,0:0:0:0:
228,248,73003,1,10,0:0:0:0:
313,153,73147,1,2,1:2:0:0:
241,369,73289,5,14,0:0:0:0:
116,44,73432,1,0,1:0:0:0:
473,106,73575,1,0,1:0:0:0:
138,324,73718,5,10,0:0:0:0:
206,3,73861,1,0,1:0:0:0:
459,199,74004,1,0,1:0:0:0:
119,229,74147,5,10,0:0:0:0:
301,10,74290,1,0,1:0:0:0:
398,274,74433,1,0,1:0:0:0:
177,98,74575,5,10,0:0:0:0:
380,132,74718,1,0,1:0:0:0:
248,294,74861,1,0,1:0:0:0:
208,72,75004,6,0,L|213:117,1,42.7499986953736,10|0,0:0|0:0,0:0:0:0:
397,274,75290,5,10,0:0:0:0:
359,274,75361,1,0,1:0:0:0:
325,255,75432,1,0,1:0:0:0:
304,222,75504,1,0,1:0:0:0:
301,183,75575,6,0,P|210:142|161:239,1,199.499993911743,6|0,1:2|0:0,0:0:0:0:
127,304,75861,2,0,P|100:262|34:259,1,104.500003189087,10|0,0:0|0:0,0:0:0:0:
28,364,76147,1,2,1:2:0:0:
246,326,76289,1,2,1:2:0:0:
100,160,76432,1,8,0:0:0:0:
269,32,76575,6,0,B|356:32|337:97|426:87,1,156.750004783631,2|0,1:2|0:0,0:0:0:0:
489,49,76861,1,0,1:0:0:0:
266,147,77004,2,0,P|247:198|270:249,1,104.500003189087,10|0,0:0|0:0,0:0:0:0:
456,187,77289,1,2,1:2:0:0:
339,291,77432,1,2,1:2:0:0:
259,62,77575,1,10,0:0:0:0:
259,342,77718,6,0,B|192:336|192:336|144:303|144:303|54:296,1,199.499993911743,6|0,1:2|0:0,0:0:0:0:
5,346,78004,1,2,1:2:0:0:
189,124,78147,1,10,0:0:0:0:
227,232,78289,1,2,0:0:0:0:
12,181,78432,1,2,1:2:0:0:
79,378,78575,1,2,1:2:0:0:
227,232,78718,1,8,0:0:0:0:
442,361,78861,6,0,P|407:295|327:342,1,156.750004783631,2|0,1:2|0:0,0:0:0:0:
272,371,79147,1,0,1:0:0:0:
223,149,79289,2,0,L|229:44,1,104.500003189087,8|0,0:0|1:0,0:0:0:0:
115,216,79575,5,0,1:0:0:0:
346,152,79718,1,2,1:2:0:0:
346,152,79789,1,2,0:0:0:0:
346,152,79861,1,10,0:0:0:0:
107,95,80004,1,2,0:0:0:0:
169,329,80147,6,0,P|90:360|43:323,1,132.999995941162,6|2,1:2|0:0,0:0:0:0:
2,269,80361,1,2,0:0:0:0:
2,269,80432,1,10,0:0:0:0:
223,149,80575,1,2,0:0:0:0:
328,358,80718,6,0,L|335:254,1,104.500003189087,2|0,1:2|1:0,0:0:0:0:
388,181,80932,2,0,L|384:112,1,52.2500015945435,2|8,1:2|0:0,0:0:0:0:
190,13,81147,5,2,1:2:0:0:
190,13,81218,1,2,0:0:0:0:
190,13,81289,1,10,0:0:0:0:
421,262,81432,1,0,1:0:0:0:
130,71,81575,1,10,0:0:0:0:
474,191,81718,1,0,1:0:0:0:
290,0,81861,5,10,0:0:0:0:
336,253,82004,1,0,1:0:0:0:
290,0,82147,1,10,0:0:0:0:
269,316,82289,6,0,L|56:296,1,199.499993911743,6|0,1:2|0:0,0:0:0:0:
2,347,82575,1,0,1:0:0:0:
141,128,82718,2,0,P|162:174|146:225,1,104.500003189087,8|0,0:0|1:0,0:0:0:0:
0,181,83004,5,0,1:0:0:0:
304,333,83147,1,0,1:0:0:0:
299,281,83218,1,0,1:0:0:0:
293,229,83289,1,8,0:0:0:0:
153,384,83432,1,0,1:0:0:0:
141,128,83575,5,0,1:0:0:0:
327,75,83718,1,0,1:0:0:0:
199,289,83861,1,8,0:0:0:0:
471,369,84004,2,0,B|439:334|439:334|469:226,1,156.750004783631,0|0,1:0|0:0,0:0:0:0:
492,152,84289,5,2,1:2:0:0:
492,152,84361,1,2,0:0:0:0:
492,152,84432,1,10,0:0:0:0:
336,226,84575,1,2,0:0:0:0:
269,12,84718,5,6,1:2:0:0:
199,289,84861,1,8,0:3:0:0:
173,285,84932,1,10,0:3:0:0:
148,280,85003,1,8,0:3:0:0:
293,152,85147,5,10,0:3:0:0:
318,147,85218,1,8,0:3:0:0:
344,143,85289,1,10,0:3:0:0:
443,237,85432,2,0,L|451:289,1,52.2500015945435,4|6,0:3|0:3,0:0:0:0:
317,349,85575,5,0,1:2:0:0:
323,298,85646,1,0,1:2:0:0:
330,246,85718,1,2,1:2:0:0:
337,194,85789,1,0,1:2:0:0:
344,143,85860,5,10,0:0:0:0:
0,223,86004,1,8,0:0:0:0:
0,223,86718,5,2,0:0:0:0:
64,338,86861,2,0,B|154:343|110:278|224:284,1,156.750004783631,2|0,1:2|0:0,0:0:0:0:
270,333,87147,1,2,0:0:0:0:
337,194,87289,1,10,0:0:0:0:
120,70,87432,2,0,L|113:184,1,104.500003189087,2|0,0:0|1:0,0:0:0:0:
181,359,87718,5,2,1:2:0:0:
232,367,87789,1,2,0:0:0:0:
270,333,87860,1,10,0:0:0:0:
86,256,88004,1,2,1:2:0:0:
248,140,88147,5,2,0:0:0:0:
193,245,88289,1,2,1:2:0:0:
120,70,88432,1,10,0:0:0:0:
310,233,88575,2,0,B|373:225|373:225|397:206|397:206|466:198,1,156.750004783631,2|0,0:0|0:0,0:0:0:0:
443,283,88861,1,0,1:0:0:0:
484,119,89004,1,8,0:0:0:0:
322,12,89147,6,0,P|305:99|222:46,1,213.750008153916,6|0,1:2|0:0,0:0:0:0:
4,107,89432,5,2,1:2:0:0:
56,142,89504,1,2,1:2:0:0:
114,121,89575,2,0,L|122:47,1,52.2500015945435,10|0,0:0|0:0,0:0:0:0:
310,233,89718,5,2,1:2:0:0:
272,261,89790,1,2,1:2:0:0:
226,249,89861,2,0,L|218:175,1,52.2500015945435,10|0,0:3|0:0,0:0:0:0:
43,344,90004,5,2,1:2:0:0:
74,361,90075,1,2,1:2:0:0:
109,351,90147,2,0,L|117:277,1,52.2500015945435,10|0,0:3|0:0,0:0:0:0:
271,377,90289,5,0,1:3:0:0:
271,377,90361,1,0,1:3:0:0:
271,377,90432,1,6,0:3:0:0:
114,121,90575,6,0,P|113:65|127:119,1,161.500003080368,2|0,1:2|0:0,0:0:0:0:
310,233,90861,2,0,P|323:273|320:230,1,123.499994346619,2|0,1:2|0:0,0:0:0:0:
156,376,91147,6,0,B|201:391|267:364|229:328|301:293|346:311,1,213.749993476868,2|0,1:2|0:0,0:0:0:0:
374,343,91575,5,2,1:2:0:0:
374,343,91718,1,0,1:0:0:0:
476,374,91861,2,0,P|487:341|470:306,1,66.4999979705811,10|0,0:0|0:0,0:0:0:0:
393,241,92147,2,0,P|365:186|405:122,1,132.999995941162,2|8,0:0|0:0,0:0:0:0:
507,65,92575,6,0,B|461:69|461:69|433:92|433:92|365:99,1,132.999995941162,2|2,1:2|1:2,0:0:0:0:
256,42,93004,2,0,P|261:76|264:116,1,66.4999979705811,10|2,0:0|0:0,0:0:0:0:
331,185,93289,2,0,P|326:219|323:259,2,66.4999979705811,2|2|10,0:0|0:0|0:0,0:0:0:0:
0,138,93861,5,0,1:0:0:0:
0,138,94004,1,0,1:0:0:0:
77,195,94147,2,0,L|147:188,1,66.4999979705811,10|0,0:0|0:0,0:0:0:0:
170,32,94432,2,0,P|108:36|86:111,1,132.999995941162,2|8,0:0|0:0,0:0:0:0:
244,147,94861,6,0,B|258:287,1,132.999995941162,2|2,1:2|1:2,0:0:0:0:
158,344,95289,2,0,L|165:274,1,66.4999979705811,10|2,0:0|0:0,0:0:0:0:
268,373,95575,2,0,P|304:367|326:335,2,66.4999979705811,2|2|10,0:0|0:0|0:0,0:0:0:0:
469,177,96147,5,0,1:0:0:0:
469,177,96289,1,0,1:0:0:0:
363,107,96432,2,0,P|327:104|302:130,1,66.4999979705811,10|0,0:0|0:0,0:0:0:0:
267,253,96718,2,0,P|331:245|350:176,1,132.999995941162,2|8,0:0|0:0,0:0:0:0:
210,84,97147,6,0,B|158:90|158:90|137:106|137:106|77:113,1,132.999995941162,2|0,1:2|1:0,0:0:0:0:
192,302,97575,2,0,L|197:220,1,66.4999979705811,10|0,0:0|0:0,0:0:0:0:
98,318,97861,2,0,L|94:385,1,66.4999979705811,2|0,0:0|0:0,0:0:0:0:
244,377,98147,6,0,L|293:370,1,42.7499986953736,10|0,0:0|0:0,0:0:0:0:
385,307,98432,6,0,P|359:266|296:262,1,95,6|0,1:2|0:0,0:0:0:0:
180,279,98718,1,0,0:0:0:0:
393,174,98861,2,0,L|383:329,1,132.999995941162,6|0,1:2|0:0,0:0:0:0:
238,206,99289,6,0,P|267:167|322:167,1,95,6|0,1:2|0:0,0:0:0:0:
316,255,99575,1,0,1:2:0:0:
127,131,99718,1,14,0:2:0:0:
127,131,99861,1,8,0:0:0:0:
346,49,100004,5,8,0:0:0:0:
347,73,100075,1,8,0:0:0:0:
349,96,100146,1,10,0:0:0:0:
222,58,100289,1,8,0:3:0:0:
316,255,100432,1,6,0:3:0:0:
419,226,100575,1,8,0:3:0:0:
264,361,100718,6,0,B|221:356|221:356|206:338|206:338|147:329,1,113.999996520996,2|0,1:2|0:0,0:0:0:0:
60,278,101147,1,0,1:0:0:0:
212,156,101289,2,0,P|241:212|212:258,1,113.999996520996,8|2,0:0|1:2,0:0:0:0:
134,217,101718,1,0,1:0:0:0:
27,47,101861,6,0,B|70:52|70:52|85:70|85:70|144:79,1,113.999996520996,2|0,0:0|1:0,0:0:0:0:
237,49,102289,1,0,1:0:0:0:
238,193,102432,2,0,P|268:148|333:142,2,113.999996520996,10|2|2,0:0|0:0|1:2,0:0:0:0:
252,286,103147,5,2,0:0:0:0:
252,286,103289,2,0,P|214:287|179:265,1,76,2|2,0:0|1:2,0:0:0:0:
325,234,103575,2,0,P|352:309|311:363,1,152,10|2,0:0|0:0,0:0:0:0:
218,379,104004,6,0,P|145:365|53:355,1,152,2|10,1:2|0:0,0:0:0:0:
35,221,104432,2,0,P|74:235|91:277,1,76,0|0,1:0|1:0,0:0:0:0:
193,233,104718,5,10,0:0:0:0:
39,145,104861,1,2,1:2:0:0:
39,145,105004,2,0,L|34:222,1,76,2|0,0:0|0:0,0:0:0:0:
198,65,105289,6,0,B|241:67|241:67|268:87|268:87|310:92,1,113.999996520996,2|0,1:2|0:0,0:0:0:0:
194,149,105718,1,0,1:0:0:0:
321,8,105861,2,0,P|380:39|386:111,1,132.999995941162,8|2,0:0|0:0,0:0:0:0:
297,178,106289,1,0,1:0:0:0:
461,242,106432,6,0,P|406:234|382:186,1,113.999996520996,2|0,0:0|1:0,0:0:0:0:
495,164,106861,1,0,1:0:0:0:
433,326,107004,2,0,B|390:321|390:321|369:304|369:304|323:299,1,113.999996520996,8|2,0:0|0:0,0:0:0:0:
222,343,107432,1,0,0:0:0:0:
245,177,107575,2,0,L|249:254,1,56.9999982604981,2|0,1:2|1:0,0:0:0:0:
20,280,107861,6,0,P|45:231|128:247,1,128.249996086121,2|0,0:0|0:0,0:0:0:0:
164,291,108147,1,10,0:0:0:0:
322,356,108289,6,0,L|326:286,1,57,2|0,0:0|0:0,0:0:0:0:
508,302,108575,6,0,P|480:226|408:250,1,170.999994781494,2|0,1:2|0:0,0:0:0:0:
428,330,108861,1,10,0:3:0:0:
321,201,109004,1,6,0:3:0:0:
222,343,109147,1,2,1:2:0:0:
409,247,109289,1,10,0:0:0:0:
145,108,109432,6,0,P|147:209|233:155,1,246.999988693238,2|8,1:2|0:0,0:0:0:0:
420,104,109789,1,8,0:0:0:0:
420,104,109861,6,0,L|408:257,1,142.5,6|0,1:2|0:0,0:0:0:0:
399,326,110147,1,8,0:0:0:0:
481,293,110290,1,0,0:0:0:0:
321,201,110432,1,0,1:0:0:0:
399,326,110575,1,0,1:0:0:0:
420,104,110718,2,0,P|374:110|324:71,1,95,10|2,0:0|0:0,0:0:0:0:
229,23,110932,1,2,0:0:0:0:
229,23,111004,6,0,B|257:63|257:63|227:175,1,142.5,2|0,1:2|0:0,0:0:0:0:
209,233,111289,1,8,0:0:0:0:
321,201,111432,1,0,1:0:0:0:
142,106,111575,1,0,1:0:0:0:
209,233,111718,1,0,1:0:0:0:
64,286,111861,6,0,L|142:281,1,71.25,10|0,0:0|0:0,0:0:0:0:
209,233,112147,6,0,P|227:280|195:335,1,95,2|0,1:2|0:0,0:0:0:0:
109,373,112432,1,8,0:0:0:0:
131,193,112575,2,0,P|181:200|213:256,1,95,2|0,0:0|1:0,0:0:0:0:
109,373,112861,1,0,1:0:0:0:
297,358,113004,6,0,P|344:376|399:344,1,95,10|0,0:0|0:0,0:0:0:0:
382,179,113289,1,0,1:0:0:0:
383,362,113432,2,0,P|422:330|422:266,1,95,2|8,1:2|0:0,0:0:0:0:
382,179,113718,1,0,1:0:0:0:
257,248,113861,2,0,L|146:241,1,95,2|0,0:0|1:0,0:0:0:0:
201,378,114147,1,8,0:0:0:0:
34,256,114289,1,8,0:0:0:0:
34,256,114361,1,8,0:0:0:0:
34,256,114432,5,14,0:0:0:0:
262,168,114575,1,2,0:0:0:0:
83,26,114718,1,10,0:0:0:0:
163,243,114861,1,2,0:0:0:0:
361,93,115004,2,0,L|374:206,1,95,10|0,0:0|1:0,0:0:0:0:
413,365,115289,1,10,0:0:0:0:
491,207,115432,5,2,1:2:0:0:
491,207,115504,1,0,1:0:0:0:
491,207,115575,2,0,P|435:165|362:200,1,142.5,8|0,0:0|0:0,0:0:0:0:
424,242,115861,1,10,0:0:0:0:
262,168,116004,1,0,1:0:0:0:
166,336,116147,1,10,0:0:0:0:
61,296,116289,1,2,1:2:0:0:
260,273,116432,1,8,0:0:0:0:
143,80,116575,1,2,1:2:0:0:
166,336,116718,5,14,0:0:0:0:
356,163,116861,1,10,0:0:0:0:
309,165,116932,1,8,0:0:0:0:
262,168,117003,1,0,1:0:0:0:
64,179,117147,5,10,0:0:0:0:
283,363,117289,1,10,0:0:0:0:
285,316,117360,1,8,0:0:0:0:
288,269,117431,1,0,1:0:0:0:
298,79,117575,5,10,0:0:0:0:
105,265,117718,1,10,0:0:0:0:
152,263,117789,1,8,0:0:0:0:
199,260,117861,1,0,1:0:0:0:
374,250,118004,5,10,0:0:0:0:
137,23,118147,1,10,0:0:0:0:
141,68,118218,1,8,0:0:0:0:
146,115,118289,2,0,L|150:172,1,47.5,0|0,1:0|1:0,0:0:0:0:
303,351,118432,5,8,0:3:0:0:
308,304,118503,1,8,0:3:0:0:
286,261,118574,1,4,0:3:0:0:
241,242,118646,1,4,0:3:0:0:
199,260,118718,2,0,L|195:324,1,47.5,2|0,1:2|1:0,0:0:0:0:
127,358,118932,1,0,1:0:0:0:
127,358,119004,6,0,P|32:344|21:228,1,213.750008153916,6|0,1:2|0:0,0:0:0:0:
71,171,119289,2,0,P|104:210|100:262,1,104.500003189087,10|0,0:0|0:0,0:0:0:0:
0,118,119575,1,2,1:2:0:0:
184,98,119718,1,2,1:2:0:0:
101,261,119861,1,8,0:0:0:0:
265,104,120004,6,0,P|233:32|136:34,1,156.750004783631,2|0,1:2|0:0,0:0:0:0:
90,68,120289,1,0,1:0:0:0:
204,179,120432,2,0,P|250:151|265:98,1,104.500003189087,10|0,0:0|0:0,0:0:0:0:
36,0,120718,1,2,1:2:0:0:
184,98,120861,1,2,1:2:0:0:
12,241,121004,1,10,0:0:0:0:
248,251,121147,6,0,B|302:236|302:236|365:319|365:319|435:297,1,213.750008153916,6|0,1:2|0:0,0:0:0:0:
495,326,121432,1,2,1:2:0:0:
433,87,121575,1,10,0:0:0:0:
297,146,121718,1,2,1:2:0:0:
475,247,121861,1,2,1:2:0:0:
257,358,122004,2,0,L|147:341,1,104.500003189087,2|8,1:2|0:0,0:0:0:0:
47,127,122289,6,0,P|100:135|149:48,1,156.750004783631,2|0,1:2|0:0,0:0:0:0:
90,4,122575,1,0,1:0:0:0:
297,146,122718,1,8,0:0:0:0:
160,221,122861,1,0,1:0:0:0:
348,304,123004,5,0,1:0:0:0:
304,153,123147,1,2,1:2:0:0:
304,153,123218,1,2,0:0:0:0:
304,153,123289,1,10,0:0:0:0:
257,358,123432,1,2,0:0:0:0:
425,133,123575,5,4,1:2:0:0:
188,81,123718,1,2,0:0:0:0:
188,81,123789,1,2,0:0:0:0:
188,81,123861,1,10,0:0:0:0:
330,24,124004,1,2,0:0:0:0:
355,243,124147,5,0,1:2:0:0:
506,292,124289,1,2,1:2:0:0:
506,292,124361,1,2,0:0:0:0:
506,292,124432,1,10,0:0:0:0:
257,358,124575,1,2,0:0:0:0:
268,91,124718,5,0,1:2:0:0:
357,370,124861,1,2,0:0:0:0:
357,370,124932,1,2,0:0:0:0:
357,370,125004,1,10,0:0:0:0:
119,329,125147,1,2,0:0:0:0:
390,280,125289,5,0,1:2:0:0:
225,228,125432,1,2,1:2:0:0:
225,228,125504,1,2,0:0:0:0:
225,228,125575,1,10,0:0:0:0:
363,76,125718,1,2,1:2:0:0:
102,246,125861,5,14,0:0:0:0:
450,354,126004,1,0,1:0:0:0:
333,0,126147,1,0,1:0:0:0:
170,321,126290,5,10,0:0:0:0:
486,262,126433,1,0,1:0:0:0:
252,19,126576,1,0,1:0:0:0:
262,357,126719,5,10,0:0:0:0:
471,157,126862,1,0,1:0:0:0:
184,68,127005,1,0,1:0:0:0:
360,328,127147,5,10,0:0:0:0:
361,76,127290,1,0,1:0:0:0:
134,188,127432,1,0,1:0:0:0:
393,344,127575,6,0,L|389:300,1,42.7499986953736,10|0,0:0|0:0,0:0:0:0:
361,76,127861,5,10,0:0:0:0:
361,114,127932,1,0,1:0:0:0:
335,148,128003,1,0,1:0:0:0:
297,160,128075,1,0,1:0:0:0:
260,144,128147,6,0,P|175:108|134:189,1,199.499993911743,6|0,1:2|0:0,0:0:0:0:
168,269,128432,2,0,P|122:283|76:252,1,104.500003189087,10|0,0:0|0:0,0:0:0:0:
12,155,128718,1,2,1:2:0:0:
180,33,128861,2,0,L|199:153,1,104.500003189087,2|8,1:2|0:0,0:0:0:0:
460,199,129147,6,0,P|395:211|350:314,1,156.750004783631,2|0,1:2|0:0,0:0:0:0:
301,364,129432,1,0,1:0:0:0:
168,269,129575,2,0,P|213:255|261:286,1,104.500003189087,10|0,0:0|0:0,0:0:0:0:
108,343,129861,1,2,1:2:0:0:
259,283,130004,1,2,1:2:0:0:
0,216,130147,1,10,0:0:0:0:
51,54,130289,6,0,P|72:155|86:269,1,199.499993911743,6|0,1:2|0:0,0:0:0:0:
13,310,130575,1,2,1:2:0:0:
228,177,130718,1,10,0:0:0:0:
168,269,130861,1,2,0:0:0:0:
51,54,131004,1,2,1:2:0:0:
228,177,131147,2,0,L|331:163,1,104.500003189087,2|8,1:2|0:0,0:0:0:0:
450,351,131432,6,0,B|389:344|389:344|367:325|367:325|274:315,1,156.750004783631,2|0,1:2|0:0,0:0:0:0:
217,355,131718,1,0,1:0:0:0:
443,262,131861,2,0,L|430:159,1,104.500003189087,8|0,0:0|1:0,0:0:0:0:
313,20,132147,5,0,1:0:0:0:
512,118,132289,1,2,1:2:0:0:
512,118,132361,1,2,0:0:0:0:
512,118,132432,1,10,0:0:0:0:
347,198,132575,1,2,0:0:0:0:
164,13,132718,6,0,P|145:69|58:83,1,132.999995941162,6|2,1:2|0:0,0:0:0:0:
6,62,132932,1,2,0:0:0:0:
6,62,133004,1,10,0:0:0:0:
172,200,133147,1,2,0:0:0:0:
0,272,133289,6,0,P|46:249|109:262,1,104.500003189087,2|0,1:2|1:0,0:0:0:0:
175,290,133504,2,0,L|171:343,1,52.2500015945435,2|8,1:2|0:0,0:0:0:0:
266,132,133718,5,2,1:2:0:0:
266,132,133789,1,2,0:0:0:0:
266,132,133861,1,14,0:0:0:0:
63,333,134004,1,0,1:0:0:0:
336,198,134147,5,10,0:0:0:0:
0,272,134289,1,0,1:0:0:0:
191,67,134432,5,10,0:0:0:0:
275,357,134575,1,0,1:0:0:0:
191,67,134718,1,10,0:0:0:0:
369,277,134861,6,0,L|381:77,1,199.499993911743,6|0,1:2|0:0,0:0:0:0:
482,35,135147,1,0,1:0:0:0:
269,119,135289,2,0,P|219:108|190:66,1,104.500003189087,8|0,0:0|0:0,0:0:0:0:
286,10,135575,5,0,1:0:0:0:
79,216,135718,1,0,1:0:0:0:
131,211,135789,1,0,1:0:0:0:
183,205,135860,1,8,0:0:0:0:
98,92,136004,1,0,1:0:0:0:
294,219,136147,5,0,1:0:0:0:
70,334,136289,1,0,1:0:0:0:
98,92,136432,1,8,0:0:0:0:
228,303,136575,2,0,P|292:335|367:298,1,156.750004783631,0|0,1:0|0:0,0:0:0:0:
405,204,136861,5,2,1:2:0:0:
405,204,136932,1,2,0:0:0:0:
405,204,137003,1,10,0:0:0:0:
298,365,137147,1,2,0:0:0:0:
183,205,137289,5,6,1:2:0:0:
486,266,137432,1,8,0:3:0:0:
487,239,137503,1,10,0:3:0:0:
489,214,137574,1,8,0:3:0:0:
345,82,137718,5,10,0:3:0:0:
344,109,137789,1,8,0:3:0:0:
342,134,137860,1,10,0:3:0:0:
262,213,138004,6,0,L|204:207,1,52.2500015945435,4|6,0:3|0:3,0:0:0:0:
27,355,138147,1,0,1:2:0:0:
80,349,138218,1,0,1:2:0:0:
132,343,138289,1,2,1:2:0:0:
184,337,138361,1,0,1:2:0:0:
237,331,138432,5,14,0:0:0:0:
97,71,138575,1,8,0:0:0:0:
218,142,138718,2,0,L|210:216,1,66.4999979705811,2|0,0:0|0:0,0:0:0:0:
27,355,139004,2,0,L|19:281,1,66.4999979705811,2|0,0:0|0:0,0:0:0:0:
119,242,139289,1,2,0:0:0:0:
119,242,139432,1,2,0:0:0:0:
237,16,139575,6,0,P|339:5|435:66,1,209.000006378174,6|2,1:2|0:0,0:0:0:0:
478,251,140004,1,2,1:2:0:0:
506,156,140147,2,0,P|455:149|411:175,1,104.500003189087,8|0,0:0|1:0,0:0:0:0:
411,176,140361,1,0,1:0:0:0:
410,176,140432,1,2,0:0:0:0:
336,350,140575,6,0,B|242:339|242:339|218:352|218:352|110:340,1,209.000006378174,2|2,1:2|1:2,0:0:0:0:
203,155,141004,2,0,P|213:208|182:262,1,104.500003189087,0|2,1:0|1:2,0:0:0:0:
27,191,141289,1,8,0:0:0:0:
301,222,141432,1,2,1:2:0:0:
131,342,141575,1,2,0:0:0:0:
109,84,141718,1,2,1:2:0:0:
301,222,141861,6,0,L|315:5,1,209.000006378174,2|2,1:2|0:0,0:0:0:0:
203,155,142289,1,2,1:2:0:0:
478,250,142432,2,0,P|438:283|377:270,1,104.500003189087,8|0,0:0|1:0,0:0:0:0:
387,278,142647,1,0,1:0:0:0:
387,278,142718,1,2,0:2:0:0:
131,342,142861,6,0,L|125:280,1,52.2500015945435,2|0,1:2|1:0,0:0:0:0:
109,84,143004,1,2,0:0:0:0:
343,191,143147,6,0,L|292:227,1,52.2500015945435,2|0,1:2|1:0,0:0:0:0:
131,342,143290,1,2,0:0:0:0:
109,84,143432,6,0,L|165:109,1,52.2500015945435,2|0,1:2|1:0,0:0:0:0:
343,191,143575,1,10,0:0:0:0:
131,342,143718,2,0,L|117:206,1,132.999995941162,2|0,1:2|1:2,0:0:0:0:
345,370,144147,6,0,P|433:340|475:235,1,209.000006378174,6|2,1:2|0:0,0:0:0:0:
372,55,144575,1,2,1:2:0:0:
399,157,144718,2,0,P|348:161|305:133,1,104.500003189087,8|0,0:0|1:0,0:0:0:0:
305,133,144932,1,0,1:0:0:0:
304,133,145003,1,2,1:2:0:0:
474,84,145146,1,2,1:2:0:0:
186,5,145289,6,0,P|214:47|210:99,1,104.500003189087,0|2,1:0|1:2,0:0:0:0:
113,75,145575,1,0,1:0:0:0:
0,210,145718,2,0,L|157:197,1,156.750004783631,2|0,1:2|0:0,0:0:0:0:
228,248,146004,1,2,1:2:0:0:
225,275,146075,1,2,1:2:0:0:
223,301,146146,1,2,1:2:0:0:
80,336,146289,1,2,1:2:0:0:
367,259,146432,6,0,P|339:165|241:154,1,209.000006378174,2|2,1:2|0:0,0:0:0:0:
219,329,146861,1,2,1:2:0:0:
492,374,147004,2,0,P|475:326|494:279,1,104.500003189087,8|0,0:0|1:0,0:0:0:0:
494,278,147218,1,0,1:0:0:0:
494,278,147289,1,2,1:2:0:0:
389,1,147432,6,0,L|385:64,1,52.2500015945435,2|0,1:2|1:0,0:0:0:0:
367,259,147575,1,0,1:0:0:0:
155,111,147718,6,0,L|211:82,1,52.2500015945435,2|0,1:2|1:0,0:0:0:0:
389,1,147861,1,0,1:0:0:0:
367,259,148004,6,0,L|314:224,1,52.2500015945435,2|0,1:2|1:0,0:0:0:0:
155,111,148147,1,8,0:0:0:0:
201,86,148218,1,8,0:0:0:0:
243,59,148289,2,0,L|138:47,1,104.500003189087,10|0,0:0|1:0,0:0:0:0:
131,54,148504,1,0,1:0:0:0:
123,61,148575,2,0,L|116:118,1,52.2500015945435,0|0,1:0|1:0,0:0:0:0:
96,319,148718,6,0,B|170:310|170:310|191:330|191:330|264:344,1,170.999994781494,6|2,1:2|0:0,0:0:0:0:
439,303,149147,1,2,1:2:0:0:
253,94,149289,2,0,B|248:175|248:175|238:166|238:166|231:272,1,170.999994781494,10|2,0:0|0:0,0:0:0:0:
360,369,149718,1,2,1:2:0:0:
417,210,149861,5,0,1:0:0:0:
417,210,150004,1,2,1:2:0:0:
257,342,150147,1,0,1:0:0:0:
439,303,150289,1,2,1:2:0:0:
189,163,150432,2,0,B|136:156|136:156|121:170|121:170|69:180,2,123.499994346619,10|2|2,0:0|1:2|0:0,0:0:0:0:
257,342,150861,1,2,1:2:0:0:
313,173,151004,6,0,P|289:93|348:27,1,170.999994781494,2|2,1:2|0:0,0:0:0:0:
472,111,151432,1,2,1:2:0:0:
232,242,151575,2,0,B|336:237|300:306|396:305,1,170.999994781494,10|2,0:0|0:0,0:0:0:0:
505,245,152003,5,2,1:2:0:0:
505,245,152075,1,0,1:0:0:0:
505,245,152147,1,0,1:0:0:0:
313,173,152289,1,2,1:2:0:0:
472,111,152432,1,0,1:0:0:0:
384,304,152575,5,2,1:2:0:0:
384,304,152647,1,0,1:0:0:0:
384,304,152718,1,8,0:0:0:0:
208,49,152861,2,0,B|90:47|144:128|4:126,1,209.000006378174,2|0,1:2|1:0,0:0:0:0:
22,36,153218,1,0,1:0:0:0:
22,36,153289,6,0,P|62:42|92:89,1,85.4999973907472,6|0,1:2|0:0,0:0:0:0:
26,216,153575,1,0,1:0:0:0:
26,216,153718,1,0,1:2:0:0:
296,314,153861,2,0,P|299:217|308:101,1,209.000006378174,10|2,0:0|0:0,0:0:0:0:
208,49,154289,1,2,1:2:0:0:
175,156,154432,5,0,1:0:0:0:
205,161,154575,1,0,1:2:0:0:
349,79,154718,1,0,1:0:0:0:
319,74,154861,1,0,1:2:0:0:
481,362,155004,6,0,P|440:311|376:309,1,132.999995941162,10|10,0:0|0:0,0:0:0:0:
375,319,155218,1,8,0:0:0:0:
374,330,155289,1,2,1:2:0:0:
373,341,155361,1,0,1:0:0:0:
372,353,155432,1,2,1:2:0:0:
372,364,155504,1,0,1:0:0:0:
371,375,155575,5,14,0:0:0:0:
188,235,155718,1,0,1:0:0:0:
127,344,155861,5,10,0:0:0:0:
356,178,156004,1,0,1:0:0:0:
376,308,156147,5,10,0:0:0:0:
116,103,156289,1,2,1:2:0:0:
54,240,156432,5,10,0:0:0:0:
275,12,156575,1,6,1:2:0:0:
432,130,156718,6,0,P|436:163|438:199,1,66.4999979705811,0|0,1:0|1:0,0:0:0:0:
475,348,156861,1,2,1:2:0:0:
476,335,156932,1,0,1:0:0:0:
477,324,157004,5,8,0:0:0:0:
461,302,157075,1,0,1:0:0:0:
424,285,157147,1,2,1:2:0:0:
376,308,157218,1,0,1:0:0:0:
336,362,157290,1,8,0:0:0:0:
258,379,157361,1,8,0:0:0:0:
185,321,157432,6,0,P|148:315|101:310,1,66.4999979705811,10|8,0:0|0:0,0:0:0:0:
269,178,157575,2,0,P|306:172|353:167,1,66.4999979705811,8|0,0:0|1:0,0:0:0:0:
15,80,157718,5,2,1:2:0:0:
15,80,157789,1,2,1:2:0:0:
15,80,157861,2,0,P|35:28|42:120,1,265.999991882324,6|8,1:2|0:0,0:0:0:0:
231,288,158289,5,2,0:0:0:0:
231,288,158361,1,2,0:0:0:0:
231,288,158432,2,0,P|174:256|184:320,1,161.500003080368,2|0,1:2|1:0,0:0:0:0:
276,75,158718,1,8,0:0:0:0:
503,122,158861,5,2,1:2:0:0:
503,122,158932,1,2,0:0:0:0:
503,122,159004,2,0,B|451:151|374:110|374:110|337:179|252:177,1,265.999991882324,2|8,0:0|0:0,0:0:0:0:
375,362,159432,5,2,0:0:0:0:
375,362,159503,1,2,0:0:0:0:
375,362,159575,2,0,B|402:350|440:367|440:367|461:331|491:329,1,132.999995941162,2|0,1:2|1:0,0:0:0:0:
406,236,159861,1,8,0:0:0:0:
184,318,160004,1,6,1:2:0:0:
273,382,160147,6,0,P|276:303|273:207,1,170.999994781494,2|0,0:0|0:0,0:0:0:0:
268,176,160432,1,10,0:0:0:0:
84,291,160575,2,0,P|30:282|-1:221,1,113.999996520996,2|0,0:0|1:0,0:0:0:0:
119,117,160861,1,2,1:2:0:0:
184,318,161004,1,8,0:0:0:0:
372,56,161147,6,0,B|427:60|427:60|440:72|440:72|496:76,1,113.999996520996,2|2,1:2|0:0,0:0:0:0:
466,90,161361,1,2,0:0:0:0:
458,112,161432,1,2,1:2:0:0:
460,134,161504,1,2,0:0:0:0:
472,154,161575,1,10,0:0:0:0:
512,323,161718,6,0,B|415:314|415:314|390:296|390:296|285:285,1,227.999993041992,2|0,0:0|1:0,0:0:0:0:
173,383,162147,2,0,L|296:369,1,113.999996520996,8|0,0:0|0:0,0:0:0:0:
102,318,162432,6,0,L|109:247,3,61.7499971733095,14|0|0|0,0:0|0:0|1:2|0:0,0:0:0:0:
258,137,162718,2,0,L|265:208,3,61.7499971733095,10|0|0|0,0:0|0:0|1:2|0:0,0:0:0:0:
62,7,163004,5,10,0:0:0:0:
21,27,163075,1,2,0:0:0:0:
6,70,163146,1,2,1:2:0:0:
22,113,163218,1,2,0:0:0:0:
62,133,163289,2,0,L|145:123,1,66.4999979705811,2|0,1:2|0:0,0:0:0:0:
301,57,163432,5,12,0:0:0:0:
365,39,163504,1,0,0:0:0:0:
407,89,163575,2,0,L|399:171,3,66.4999979705811,2|0|0|0,1:2|0:0|1:2|0:0,0:0:0:0:
219,278,163861,2,0,L|211:196,3,66.4999979705811,10|0|0|0,0:0|0:0|1:2|0:0,0:0:0:0:
482,234,164147,5,10,0:0:0:0:
457,295,164218,1,2,0:0:0:0:
402,330,164290,1,2,1:2:0:0:
336,327,164361,1,2,0:0:0:0:
284,286,164432,2,0,P|249:278|193:282,1,66.4999979705811,2|0,1:2|0:0,0:0:0:0:
23,353,164575,6,0,P|72:300|48:169,1,199.499993911743,14|0,0:0|0:0,0:0:0:0:
127,48,164861,5,2,1:2:0:0:
141,34,164932,1,2,0:0:0:0:
164,30,165004,2,0,P|199:45|197:94,1,76,10|0,0:0|0:0,0:0:0:0:
356,88,165147,5,2,1:2:0:0:
404,74,165218,1,2,0:0:0:0:
435,111,165289,2,0,P|437:148|385:172,1,85.4999973907472,10|0,0:0|0:0,0:0:0:0:
457,357,165432,5,2,1:2:0:0:
404,314,165503,1,2,0:0:0:0:
336,327,165575,2,0,P|304:347|258:314,1,85.4999973907472,2|0,1:2|0:0,0:0:0:0:
0,98,165718,6,0,P|72:111|239:195,1,256.499992172241,14|0,0:0|0:0,0:0:0:0:
193,275,166004,1,8,0:3:0:0:
178,283,166075,1,8,0:3:0:0:
162,290,166147,2,0,P|132:277|170:272,1,85.4999973907472,6|4,0:3|0:3,0:0:0:0:
336,327,166289,5,6,0:3:0:0:
406,360,166361,1,4,0:3:0:0:
476,335,166432,1,8,0:3:0:0:
507,269,166503,1,8,0:3:0:0:
484,199,166576,5,8,0:3:0:0:
449,200,166647,1,8,0:3:0:0:
424,224,166718,1,4,0:3:0:0:
422,259,166790,1,4,0:3:0:0:
445,286,166861,1,4,0:3:0:0:
479,289,166933,1,4,0:3:0:0:
507,269,167004,5,6,1:2:0:0:
235,191,167147,1,2,1:2:0:0:
358,26,167289,2,0,L|366:145,1,113.999996520996,10|0,0:0|1:0,0:0:0:0:
104,242,167575,1,2,1:2:0:0:
227,77,167717,2,0,L|235:196,1,113.999996520996,2|8,1:2|0:0,0:0:0:0:
475,319,168004,6,0,P|393:347|337:277,1,170.999994781494,2|0,1:2|0:0,0:0:0:0:
365,139,168289,2,0,P|419:167|413:232,1,113.999996520996,2|8,1:2|0:0,0:0:0:0:
246,334,168575,1,2,1:2:0:0:
161,115,168718,5,2,1:2:0:0:
151,190,168861,1,2,1:2:0:0:
139,266,169003,1,10,0:0:0:0:
34,216,169147,5,0,1:0:0:0:
34,216,169218,1,0,1:0:0:0:
34,216,169289,1,6,1:2:0:0:
291,166,169432,1,2,1:2:0:0:
168,1,169574,2,0,L|160:120,1,113.999996520996,10|0,0:0|1:0,0:0:0:0:
422,217,169860,1,2,1:2:0:0:
299,52,170004,2,0,L|291:171,1,113.999996520996,2|8,1:2|0:0,0:0:0:0:
127,346,170289,6,0,B|150:302|197:288|197:288|231:326|278:317,1,170.999994781494,2|0,1:2|0:0,0:0:0:0:
448,357,170574,2,0,P|414:309|346:298,1,113.999996520996,2|8,1:2|0:0,0:0:0:0:
334,384,170861,1,2,1:2:0:0:
148,33,171004,5,2,1:2:0:0:
299,52,171147,1,0,1:0:0:0:
451,74,171289,1,10,0:0:0:0:
469,313,171432,5,0,1:0:0:0:
469,313,171504,1,0,1:0:0:0:
469,313,171575,1,6,1:2:0:0:
379,209,171718,1,2,1:2:0:0:
214,332,171860,2,0,L|333:340,1,113.999996520996,10|0,0:0|1:0,0:0:0:0:
430,78,172146,1,2,1:2:0:0:
265,201,172288,2,0,L|384:209,1,113.999996520996,2|8,1:2|0:0,0:0:0:0:
102,59,172575,6,0,P|116:151|125:238,1,170.999994781494,2|0,1:2|0:0,0:0:0:0:
125,263,172861,1,2,1:2:0:0:
223,188,173004,1,10,0:0:0:0:
12,94,173147,1,2,1:2:0:0:
9,311,173289,6,0,L|126:297,1,113.999996520996,2|2,1:2|1:2,0:0:0:0:
326,268,173575,2,0,P|343:310|317:354,1,85.4999973907472,10|0,0:0|0:0,0:0:0:0:
313,358,173861,5,14,0:0:0:0:
223,188,174004,1,0,1:0:0:0:
436,241,174147,1,8,0:0:0:0:
471,46,174289,5,2,1:2:0:0:
341,168,174432,1,8,0:0:0:0:
425,336,174575,1,0,1:0:0:0:
104,226,174718,5,10,0:0:0:0:
104,226,174789,1,0,1:0:0:0:
104,226,174861,2,0,P|95:124|80:19,1,199.499993911743,6|0,1:2|0:0,0:0:0:0:
67,8,175147,1,2,1:2:0:0:
0,202,175289,1,8,0:0:0:0:
264,122,175432,1,0,1:0:0:0:
425,336,175575,5,2,1:2:0:0:
411,337,175647,1,0,1:0:0:0:
391,332,175718,1,8,0:0:0:0:
369,316,175789,1,0,1:0:0:0:
352,287,175861,1,8,0:3:0:0:
358,240,175932,1,8,0:3:0:0:
404,203,176004,1,4,0:3:0:0:
469,215,176075,1,4,0:3:0:0:
494,283,176147,5,6,1:2:0:0:
227,188,176289,1,2,1:2:0:0:
350,353,176432,2,0,L|358:234,1,113.999996520996,10|0,0:0|1:0,0:0:0:0:
96,137,176717,1,2,1:2:0:0:
219,302,176861,2,0,L|227:183,1,113.999996520996,2|8,1:2|0:0,0:0:0:0:
26,57,177147,6,0,P|-17:130|31:212,1,170.999994781494,2|0,1:2|0:0,0:0:0:0:
40,214,177432,1,2,1:2:0:0:
202,96,177575,1,10,0:0:0:0:
219,302,177718,1,2,1:2:0:0:
445,165,177861,5,2,1:2:0:0:
370,175,178004,1,2,1:2:0:0:
294,187,178146,1,10,0:0:0:0:
396,295,178289,5,0,1:0:0:0:
396,295,178361,1,0,1:0:0:0:
396,295,178432,1,6,1:2:0:0:
211,198,178575,1,2,1:2:0:0:
465,12,178718,2,0,L|470:142,1,123.499994346619,10|0,0:0|1:0,0:0:0:0:
375,211,178932,1,0,1:0:0:0:
375,211,179004,2,0,L|370:81,1,123.499994346619,2|0,1:2|1:0,0:0:0:0:
493,259,179289,5,10,0:0:0:0:
295,369,179432,2,0,P|232:378|176:336,1,123.499994346619,2|0,1:2|1:2,0:0:0:0:
264,107,179718,1,2,1:2:0:0:
294,187,179861,1,10,0:0:0:0:
375,211,180004,1,2,1:2:0:0:
81,41,180147,5,2,1:2:0:0:
53,191,180290,1,2,1:2:0:0:
24,341,180432,1,10,0:0:0:0:
256,304,180575,5,0,1:0:0:0:
256,304,180647,1,0,1:0:0:0:
256,304,180718,1,14,0:0:0:0:
53,191,180861,1,2,1:2:0:0:
156,82,181004,2,0,L|279:77,1,123.499994346619,10|0,0:0|1:0,0:0:0:0:
345,190,181218,1,0,1:0:0:0:
345,190,181290,2,0,L|221:194,1,123.499994346619,10|2,0:0|1:2,0:0:0:0:
479,26,181575,5,8,0:0:0:0:
472,87,181647,1,8,0:0:0:0:
467,148,181718,2,0,L|460:220,1,61.7499971733095,2|0,1:2|1:0,0:0:0:0:
332,324,181861,5,14,0:0:0:0:
199,68,182004,1,2,1:2:0:0:
467,148,182147,1,10,0:0:0:0:
132,261,182289,1,2,1:2:0:0:
424,351,182432,5,2,1:2:0:0:
421,289,182503,1,0,1:2:0:0:
382,243,182574,1,2,1:2:0:0:
322,231,182646,1,0,1:2:0:0:
266,259,182718,5,10,0:0:0:0:
199,228,182789,1,8,0:0:0:0:
206,157,182861,1,8,0:0:0:0:
277,141,182932,1,8,0:0:0:0:
314,204,183004,5,2,1:2:0:0:
277,141,183432,1,2,0:0:0:0:
206,157,183861,1,2,0:0:0:0:
199,228,184289,1,2,0:0:0:0:
266,259,184718,1,2,0:0:0:0:
55,351,185147,5,0,1:0:0:0:
55,351,185218,1,0,1:0:0:0:
55,351,185289,2,0,L|48:283,1,61.7499971733095,10|8,0:3|0:3,0:0:0:0:
199,228,185432,2,0,L|206:160,1,61.7499971733095,10|0,0:3|0:0,0:0:0:0:
21,96,185575,2,0,L|15:35,1,61.7499971733095,6|0,0:3|0:0,0:0:0:0:
279,18,185718,5,10,0:3:0:0:
279,18,185789,1,8,0:3:0:0:
279,18,185861,2,0,L|347:25,1,61.7499971733095,10|0,0:3|0:0,0:0:0:0:
512,178,186004,2,0,L|444:171,1,61.7499971733095,6|0,0:3|0:0,0:0:0:0:
199,228,186147,2,0,L|267:235,1,61.7499971733095,10|8,0:0|0:0,0:0:0:0:
434,378,186289,5,10,0:3:0:0:
388,368,186360,1,8,0:3:0:0:
360,333,186431,1,0,1:0:0:0:
361,287,186503,1,0,1:0:0:0:
390,253,186575,1,10,0:0:0:0:
440,205,186647,1,8,0:0:0:0:
435,135,186718,1,10,0:0:0:0:
377,96,186790,1,8,0:0:0:0:
312,122,186861,2,0,L|319:197,1,61.7499971733095,2|0,1:2|1:0,0:0:0:0:
55,351,187004,1,10,0:0:0:0:
55,351,187575,6,0,L|60:291,1,59.375,6|0,1:2|0:0,0:0:0:0:
436,60,188575,6,0,L|444:149,1,76,2|0,1:2|0:0,0:0:0:0:
325,316,188861,2,0,L|317:227,1,76,2|0,1:2|0:0,0:0:0:0:
468,216,189147,2,0,B|363:234|397:138|289:163,1,190,2|2,1:2|1:2,0:0:0:0:
296,161,189504,1,0,1:0:0:0:
296,161,189575,1,2,1:2:0:0:
43,159,189718,6,0,P|134:143|123:24,1,213.750008153916,6|0,1:2|0:0,0:0:0:0:
43,13,190004,1,2,1:2:0:0:
189,234,190147,1,10,0:0:0:0:
304,169,190289,1,2,0:0:0:0:
304,169,190361,1,2,0:0:0:0:
304,169,190432,1,2,1:2:0:0:
184,344,190575,2,0,L|75:334,1,104.500003189087,2|8,1:2|0:0,0:0:0:0:
475,354,190861,6,0,P|431:350|419:233,1,156.750004783631,2|0,1:2|0:0,0:0:0:0:
476,217,191147,1,0,1:0:0:0:
182,100,191289,1,8,0:0:0:0:
289,286,191432,1,0,1:0:0:0:
170,236,191575,5,0,1:0:0:0:
445,129,191718,1,2,1:2:0:0:
445,129,191789,1,2,0:0:0:0:
445,129,191861,1,10,0:0:0:0:
322,25,192004,1,2,0:0:0:0:
170,236,192147,6,0,P|120:223|97:178,1,104.500003189087,6|2,1:2|0:0,0:0:0:0:
122,102,192361,1,2,0:0:0:0:
122,102,192432,1,10,0:0:0:0:
263,183,192575,1,2,0:0:0:0:
74,294,192718,5,0,1:2:0:0:
266,283,192861,1,2,1:2:0:0:
267,309,192932,1,2,0:0:0:0:
269,336,193003,1,10,0:0:0:0:
170,236,193147,1,2,0:0:0:0:
317,0,193289,6,0,P|339:44|403:53,1,104.500003189087,0|2,1:2|0:0,0:0:0:0:
469,33,193503,1,2,0:0:0:0:
469,33,193574,1,10,0:0:0:0:
406,256,193718,1,2,0:0:0:0:
512,175,193861,5,0,1:2:0:0:
288,285,194004,1,2,1:2:0:0:
287,259,194075,1,2,0:0:0:0:
286,231,194147,1,10,0:0:0:0:
406,256,194289,1,2,1:2:0:0:
132,356,194432,5,14,0:0:0:0:
317,92,194575,1,0,1:0:0:0:
0,70,194718,1,0,1:0:0:0:
227,332,194861,5,10,0:0:0:0:
276,23,195004,1,0,1:0:0:0:
0,172,195147,1,0,1:0:0:0:
322,307,195290,5,10,0:0:0:0:
136,92,195433,1,0,1:0:0:0:
4,353,195575,5,8,0:3:0:0:
49,309,195646,1,8,0:3:0:0:
100,274,195717,1,10,0:3:0:0:
156,247,195789,1,8,0:3:0:0:
215,227,195860,1,8,0:3:0:0:
277,218,195932,1,8,0:3:0:0:
340,216,196003,1,8,0:3:0:0:
401,224,196075,1,8,0:3:0:0:
443,264,196147,5,6,0:3:0:0:
452,281,196218,1,4,0:3:0:0:
445,299,196289,1,4,0:3:0:0:
425,305,196361,1,4,0:3:0:0:
407,294,196432,2,0,L|403:241,1,47.5,6|0,1:3|1:0,0:0:0:0:
480,197,196647,1,0,1:0:0:0:
480,197,196718,6,0,L|489:100,1,95,2|0,1:2|1:0,0:0:0:0:
379,32,196932,6,0,L|382:55,1,23.75,0|0,1:0|0:0,0:0:0:0:
385,75,197004,6,0,B|296:99|323:21|203:51,1,161.500003080368,6|2,1:2|0:0,0:0:0:0:
201,74,197218,1,2,0:0:0:0:
201,74,197289,1,2,1:2:0:0:
285,261,197432,2,0,L|167:251,1,104.500003189087,2|8,1:2|0:0,0:0:0:0:
66,5,197718,6,0,B|154:4|123:82|226:73,1,156.750004783631,2|0,1:2|0:0,0:0:0:0:
266,37,198004,1,0,1:0:0:0:
52,233,198147,5,10,0:0:0:0:
252,182,198289,1,2,1:2:0:0:
180,252,198432,1,2,0:0:0:0:
155,89,198575,1,2,1:2:0:0:
105,317,198718,1,10,0:0:0:0:
504,323,198861,6,0,P|457:231|359:237,1,199.499993911743,6|0,1:2|0:0,0:0:0:0:
286,262,199147,1,2,1:2:0:0:
511,163,199289,1,10,0:0:0:0:
383,382,199432,1,2,0:0:0:0:
383,382,199504,1,2,0:0:0:0:
383,382,199575,1,2,1:2:0:0:
209,266,199718,6,0,P|247:273|267:326,1,85.4999973907472,2|8,1:2|0:0,0:0:0:0:
52,360,199932,1,2,0:0:0:0:
45,351,200004,6,0,L|35:120,1,213.750008153916,2|0,1:2|0:0,0:0:0:0:
31,49,200289,1,0,1:0:0:0:
286,175,200432,2,0,P|236:186|196:155,1,104.500003189087,8|0,0:0|0:0,0:0:0:0:
374,10,200718,5,0,1:0:0:0:
117,99,200861,1,2,1:2:0:0:
117,99,200932,1,2,0:0:0:0:
117,99,201004,1,10,0:0:0:0:
283,227,201147,2,0,L|286:155,1,52.2500015945435,2|0,0:0|0:0,0:0:0:0:
454,293,201289,6,0,P|418:346|348:347,1,123.499994346619,4|2,1:2|0:0,0:0:0:0:
285,312,201504,1,2,0:0:0:0:
285,312,201575,1,10,0:0:0:0:
470,208,201718,1,2,0:0:0:0:
289,92,201861,5,0,1:2:0:0:
201,278,202004,1,2,1:2:0:0:
201,278,202075,1,2,0:0:0:0:
201,278,202147,1,10,0:0:0:0:
100,203,202289,1,2,1:2:0:0:
82,305,202432,5,10,0:0:0:0:
289,92,202575,1,0,1:0:0:0:
159,360,202718,5,10,0:0:0:0:
194,21,202861,1,0,1:0:0:0:
354,292,203004,5,10,0:0:0:0:
0,245,203147,1,0,1:0:0:0:
289,92,203289,1,10,0:0:0:0:
487,304,203432,6,0,P|393:293|389:200,1,199.499993911743,6|0,1:2|0:0,0:0:0:0:
472,150,203718,1,0,1:0:0:0:
262,371,203861,2,0,L|146:358,1,104.500003189087,8|0,0:0|1:0,0:0:0:0:
82,305,204147,5,8,0:0:0:0:
291,144,204289,1,0,1:0:0:0:
194,280,204432,5,8,0:0:0:0:
59,71,204575,1,0,1:0:0:0:
262,371,204718,5,14,0:0:0:0:
390,24,204861,1,0,1:0:0:0:
390,24,204932,1,0,1:0:0:0:
390,24,205004,1,14,0:0:0:0:
178,109,205147,1,0,1:0:0:0:
436,278,205289,5,8,0:0:0:0:
436,278,205361,1,0,1:0:0:0:
436,278,205432,1,2,1:2:0:0:
262,371,205575,1,14,0:0:0:0:
459,191,205718,1,2,1:2:0:0:
206,38,205861,5,14,0:0:0:0:
376,341,206004,1,0,1:0:0:0:
376,341,206075,1,2,1:2:0:0:
376,341,206147,1,8,0:0:0:0:
144,230,206289,1,2,1:2:0:0:
32,348,206432,5,10,0:0:0:0:
296,192,206575,1,0,1:0:0:0:
296,192,206647,1,2,1:2:0:0:
296,192,206718,1,8,0:0:0:0:
0,5,206861,1,2,1:2:0:0:
0,5,206932,1,0,1:0:0:0:
0,5,207004,6,0,L|8:170,1,156.74999521637,14|0,0:0|0:0,0:0:0:0:
13,239,207861,1,10,0:0:0:0:
256,192,208004,1,10,0:0:0:0:
256,192,208075,12,0,209075,0:0:0:0:
443,41,209147,5,0,1:0:0:0:
443,41,209218,1,0,1:0:0:0:
443,41,209289,1,8,0:0:0:0:
381,284,209432,1,0,1:0:0:0:
187,121,209575,1,8,0:0:0:0:
306,343,209718,5,0,1:0:0:0:
306,343,209789,1,0,1:0:0:0:
306,343,209861,1,2,1:2:0:0:
356,373,209932,1,10,0:0:0:0:
414,369,210003,1,10,0:0:0:0:
459,331,210075,1,10,0:0:0:0:
471,275,210147,2,0,L|463:214,1,47.5,10|2,0:0|1:2,0:0:0:0:
351,75,210289,6,0,P|264:102|164:125,1,170.999994781494,6|0,1:2|0:0,0:0:0:0:
120,72,210575,1,2,1:2:0:0:
60,238,210718,1,10,0:0:0:0:
11,148,210861,1,2,0:0:0:0:
159,237,211004,2,0,P|186:235|215:232,1,47.5,2|0,1:2|0:0,0:0:0:0:
18,331,211147,1,2,1:2:0:0:
18,331,211289,1,8,0:0:0:0:
356,373,211432,6,0,P|365:290|377:194,1,170.999994781494,2|0,1:2|0:0,0:0:0:0:
440,154,211718,1,2,1:2:0:0:
257,82,211861,1,10,0:0:0:0:
304,173,212004,1,2,0:0:0:0:
507,102,212147,2,0,L|498:35,1,47.5,2|0,1:2|0:0,0:0:0:0:
451,235,212289,1,2,1:2:0:0:
451,235,212432,1,8,0:0:0:0:
198,192,212575,6,0,P|135:208|127:138,1,142.5,6|0,1:2|0:0,0:0:0:0:
33,192,212861,1,2,1:2:0:0:
198,96,213004,1,10,0:0:0:0:
67,67,213147,1,2,0:0:0:0:
67,67,213218,1,2,0:0:0:0:
67,67,213289,1,2,1:2:0:0:
198,192,213432,1,2,1:2:0:0:
55,282,213575,1,8,0:0:0:0:
290,170,213718,6,0,B|284:236|284:236|300:270|300:270|292:348,1,170.999994781494,6|0,1:2|0:0,0:0:0:0:
201,369,214004,1,2,1:2:0:0:
375,223,214147,1,10,0:0:0:0:
198,192,214289,1,2,0:0:0:0:
394,372,214432,6,0,L|399:324,1,47.5,2|0,1:2|0:0,0:0:0:0:
436,158,214575,1,2,1:2:0:0:
465,157,214647,1,2,0:0:0:0:
484,179,214718,1,10,0:0:0:0:
282,256,214861,1,2,0:0:0:0:
314,16,215004,5,6,1:2:0:0:
375,223,215147,1,2,0:0:0:0:
452,77,215289,1,10,0:0:0:0:
224,170,215432,1,2,0:0:0:0:
192,72,215575,6,0,L|123:66,1,47.5,2|0,1:2|0:0,0:0:0:0:
327,140,215718,1,2,1:2:0:0:
327,140,215861,1,8,0:0:0:0:
73,283,216004,6,0,P|149:274|255:247,1,170.999994781494,2|0,1:2|0:0,0:0:0:0:
191,180,216290,1,2,1:2:0:0:
117,357,216433,1,10,0:0:0:0:
42,281,216575,1,2,0:0:0:0:
222,278,216718,2,0,L|215:325,1,47.5,2|0,1:2|0:0,0:0:0:0:
109,155,216861,1,2,1:2:0:0:
109,155,217004,1,8,0:0:0:0:
310,34,217147,6,0,P|327:101|339:196,1,142.5,6|0,1:2|0:0,0:0:0:0:
291,241,217432,1,2,1:2:0:0:
438,90,217575,1,10,0:0:0:0:
237,187,217718,5,2,0:0:0:0:
237,187,217789,1,2,0:0:0:0:
237,187,217861,2,0,L|179:178,1,47.5,10|0,0:0|0:0,0:0:0:0:
424,319,218004,5,2,1:2:0:0:
424,319,218075,1,0,1:0:0:0:
424,319,218147,2,0,L|482:310,1,47.5,0|0,1:0|0:0,0:0:0:0:
189,379,218289,6,0,B|83:380|145:314|21:320,1,170.999994781494,6|0,1:2|0:0,0:0:0:0:
80,179,218575,1,10,0:3:0:0:
80,179,218647,1,8,0:3:0:0:
80,179,218718,5,10,0:3:0:0:
135,157,218789,1,8,0:3:0:0:
190,179,218861,1,10,0:3:0:0:
213,234,218932,1,8,0:3:0:0:
190,289,219004,1,10,0:0:0:0:
477,233,219147,1,10,0:0:0:0:
477,233,219218,1,2,0:0:0:0:
477,233,219289,1,10,0:0:0:0:
356,373,219432,1,10,0:0:0:0:
477,233,219718,5,2,0:0:0:0:
356,373,219861,1,2,0:0:0:0:
190,289,220004,1,2,0:0:0:0:
298,237,220147,5,2,0:0:0:0:
190,179,220290,1,2,0:0:0:0:
92,246,220433,1,2,1:2:0:0:
92,246,220504,1,0,1:0:0:0:
92,246,220575,2,0,L|106:376,1,113.999996520996,14|0,0:0|0:0,0:0:0:0:
190,179,220789,1,0,1:0:0:0:
190,179,220861,2,0,L|196:116,1,56.9999982604981,10|0,0:0|0:0,0:0:0:0:
42,63,221004,6,0,B|81:12|150:-49|271:-7|302:89|201:136|126:105|156:32,1,380,14|0,0:0|0:0,0:0:0:0:
