osu file format v14

[General]
AudioFilename: audio.mp3
AudioLeadIn: 0
PreviewTime: 118504
Countdown: 0
SampleSet: Soft
StackLeniency: 0.8
Mode: 0
LetterboxInBreaks: 0
WidescreenStoryboard: 1

[Editor]
DistanceSpacing: 1.3
BeatDivisor: 4
GridSize: 8
TimelineZoom: 2.499999

[Metadata]
Title:Sacrifice
TitleUnicode:Sacrifice
Artist:Ouse Akira
ArtistUnicode:逢瀬アキラ
Creator:Poyoyo
Version:GfMRT's Very Hard
Source:ふゆから​、くるる。
Tags:ふゆくる fuyu kara kururu fuyukuru シルキーズプラス silky's plus galgame eroge visual novel opening rock japanese -yua cclemon LeeGod bongo GfMRT wei_0921
BeatmapID:3949675
BeatmapSetID:1877093

[Difficulty]
HPDrainRate:4
CircleSize:4
OverallDifficulty:6.5
ApproachRate:8
SliderMultiplier:1.20000000596046
SliderTickRate:1

[Events]
//Background and Video events
0,0,"mrt.jpg",0,0
//Break Periods
//Storyboard Layer 0 (Background)
//Storyboard Layer 1 (Fail)
//Storyboard Layer 2 (Pass)
//Storyboard Layer 3 (Foreground)
//Storyboard Layer 4 (Overlay)
//Storyboard Sound Samples

[TimingPoints]
147,285.714285714286,4,2,1,70,1,0
4718,-166.666666666667,4,2,1,70,0,0
6861,-166.666666666667,4,2,2,70,0,0
7147,-166.666666666667,4,2,1,70,0,0
8004,-166.666666666667,4,2,3,70,0,0
8289,-166.666666666667,4,2,1,70,0,0
9289,-133.333333333333,4,2,1,70,0,0
11575,-250,4,2,1,70,0,0
13718,-250,4,2,1,5,0,0
13861,-166.666666666667,4,2,1,70,0,0
14861,-166.666666666667,4,2,1,5,0,0
15004,-166.666666666667,4,2,1,70,0,0
15147,-166.666666666667,4,2,2,70,0,0
15289,-166.666666666667,4,2,1,70,0,0
15575,-166.666666666667,4,2,1,70,0,0
16004,-100,4,2,1,80,0,0
25289,-125,4,2,1,60,0,0
34432,-100,4,2,1,70,0,0
43575,-125,4,2,1,70,0,0
57289,-100,4,2,1,70,0,0
61575,-100,4,2,2,70,0,0
61718,-100,4,2,1,70,0,0
61861,-200,4,2,1,70,0,0
64004,-200,4,2,1,80,0,0
65147,-100,4,2,1,80,0,0
66432,-83.3333333333333,4,2,1,90,0,1
85147,-83.3333333333333,4,2,2,90,0,1
85432,-83.3333333333333,4,2,1,90,0,1
85861,-83.3333333333333,4,2,1,90,0,0
86861,-100,4,2,1,80,0,0
90147,-100,4,2,2,80,0,0
90432,-100,4,2,1,70,0,0
90789,-100,4,2,1,5,0,0
90861,-100,4,2,1,70,0,0
91075,-100,4,2,1,5,0,0
91147,-100,4,2,1,70,0,0
91504,-100,4,2,1,5,0,0
91575,-200,4,2,1,60,0,0
98432,-153.846153846154,4,2,1,70,0,0
100004,-133.333333333333,4,2,1,70,0,0
100432,-133.333333333333,4,2,1,70,0,0
100575,-133.333333333333,4,2,2,70,0,0
100720,-133.333333333333,4,2,1,70,0,0
112147,-117.647058823529,4,2,1,70,0,0
114432,-100,4,2,1,80,0,0
119004,-83.3333333333333,4,2,1,80,0,1
137718,-83.3333333333333,4,2,2,80,0,1
138004,-83.3333333333333,4,2,1,90,0,1
138432,-90.9090909090909,4,2,1,90,0,0
139575,-117.647058823529,4,2,1,75,0,0
157718,-117.647058823529,4,2,1,85,0,0
166432,-117.647058823529,4,2,2,85,0,0
166718,-117.647058823529,4,2,1,85,0,0
167004,-100,4,2,1,85,0,0
173861,-83.3333333333333,4,2,1,85,0,0
176147,-100,4,2,1,90,0,0
183004,-200,4,2,1,70,0,0
185147,-200,4,2,1,80,0,0
185289,-100,4,2,1,80,0,0
185718,-100,4,2,2,80,0,0
186004,-100,4,2,1,80,0,0
189718,-83.3333333333333,4,2,1,90,0,1
195861,-83.3333333333333,4,2,2,90,0,1
196147,-83.3333333333333,4,2,1,90,0,1
196718,-83.3333333333333,4,2,1,90,0,1
207004,-100,4,2,1,90,0,0
209147,-100,4,2,1,80,0,0
218861,-100,4,2,2,80,0,0

[Colours]
Combo1 : 159,159,223
Combo2 : 219,149,149
Combo3 : 223,159,223
Combo4 : 159,223,159

[HitObjects]
256,192,147,12,0,4147,0:0:0:0:
109,206,4718,6,0,B|141:167|141:167|239:194,1,143.999996320724,6|0,1:2|0:0,0:0:0:0:
356,320,5718,2,0,B|256:340|256:340|217:326|216:284|229:267,1,179.999995400905,6|0,1:2|0:0,0:0:0:0:
299,226,6718,1,8,0:0:0:0:
299,226,6861,2,0,P|343:211|358:143,1,107.999997240543,2|0,1:2|0:0,0:0:0:0:
248,71,7575,2,0,L|243:25,2,35.999999080181,10|8|6,0:0|0:3|0:3,0:0:0:0:
331,77,8004,2,0,B|278:91|260:153|194:131,1,143.999996320724,2|0,1:2|1:0,0:0:0:0:
125,79,8861,2,0,L|121:26,2,35.999999080181,2|2|2,1:2|1:2|0:0,0:0:0:0:
34,162,9289,6,0,L|18:262,1,90.0000038802622,10|0,0:0|1:2,0:0:0:0:
79,325,9718,1,2,1:2:0:0:
79,325,9861,2,0,P|141:307|179:324,1,90.0000038802622,10|0,0:0|1:2,0:0:0:0:
234,366,10289,1,2,0:2:0:0:
234,366,10432,6,0,L|288:349,1,45.0000019401311,8|0,0:0|1:2,0:0:0:0:
356,371,10718,2,0,L|410:354,1,45.0000019401311,2|2,1:2|1:2,0:0:0:0:
402,276,11004,2,0,L|347:259,1,45.0000019401311,10|10,0:0|0:0,0:0:0:0:
277,267,11290,2,0,L|222:250,1,45.0000019401311,2|2,1:2|1:2,0:0:0:0:
171,176,11575,6,0,B|152:142|152:142|236:130|236:130|265:158|265:158|304:180|346:142|346:90|273:67|250:115,1,336.000001668929,6|0,1:2|0:0,0:0:0:0:
188,45,13861,2,0,P|85:53|125:122,1,215.999994481086,2|0,0:0|0:0,0:0:0:0:
187,177,15004,2,0,L|181:207,3,17.9999995400905,8|8|8|8,0:0|0:3|0:3|0:3,0:0:0:0:
204,227,15289,2,0,L|198:257,3,17.9999995400905,8|8|4|4,0:3|0:3|0:3|0:3,0:0:0:0:
269,175,15575,2,0,P|311:172|336:205,1,71.999998160362,10|10,0:0|0:0,0:0:0:0:
405,283,16004,6,0,L|274:315,1,120.000000596046,6|2,1:2|1:2,0:0:0:0:
231,373,16432,2,0,L|161:355,1,60.000000298023,10|2,0:0|0:0,0:0:0:0:
113,298,16718,2,0,P|80:314|54:341,2,60.000000298023,2|2|8,1:2|1:2|0:0,0:0:0:0:
137,192,17147,6,0,L|267:224,1,120.000000596046,2|2,1:2|1:2,0:0:0:0:
330,253,17575,2,0,L|400:236,1,60.000000298023,10|2,0:0|0:0,0:0:0:0:
460,195,17861,2,0,P|480:137|490:130,2,60.000000298023,2|2|8,1:2|1:2|0:0,0:0:0:0:
366,123,18289,6,0,B|351:89|345:33|345:33|307:61,1,120.000000596046,6|2,1:2|1:2,0:0:0:0:
250,95,18718,2,0,P|208:60|201:33,1,60.000000298023,10|2,0:0|0:0,0:0:0:0:
140,11,19004,1,2,1:2:0:0:
140,11,19147,2,0,P|103:11|110:50,1,60.000000298023,2|8,1:2|0:0,0:0:0:0:
43,117,19432,6,0,P|118:151|157:184,1,120.000000596046,6|2,1:2|1:2,0:0:0:0:
178,259,19861,2,0,P|203:242|234:238,1,60.000000298023,10|2,0:0|0:0,0:0:0:0:
311,208,20147,2,0,P|337:222|356:247,1,60.000000298023,2|2,1:2|1:2,0:0:0:0:
342,287,20361,1,2,0:0:0:0:
342,287,20432,2,0,L|346:352,1,60.000000298023,10|2,0:0|0:0,0:0:0:0:
445,313,20718,6,0,B|485:287|485:287|458:192,1,120.000000596046,6|10,1:2|0:0,0:0:0:0:
502,138,21147,1,2,0:0:0:0:
502,138,21289,2,0,P|459:119|420:125,1,60.000000298023,2|2,1:2|1:2,0:0:0:0:
384,48,21575,1,8,0:0:0:0:
384,48,21718,6,0,L|243:75,1,120.000000596046,2|2,1:2|1:2,0:0:0:0:
194,16,22147,2,0,P|152:35|142:55,1,60.000000298023,10|2,0:0|0:0,0:0:0:0:
83,117,22432,2,0,P|56:97|28:89,2,60.000000298023,2|2|8,1:2|1:2|0:0,0:0:0:0:
134,217,22861,6,0,B|166:236|166:236|269:210,1,120.000000596046,6|2,1:2|1:2,0:0:0:0:
296,141,23289,2,0,P|320:158|333:186,1,60.000000298023,10|2,0:0|0:0,0:0:0:0:
380,261,23575,2,0,L|367:328,2,60.000000298023,2|2|8,1:2|1:2|0:0,0:0:0:0:
457,164,24004,6,0,B|423:143|423:143|321:168,1,120.000000596046,6|10,1:2|0:0,0:0:0:0:
274,217,24432,1,10,0:0:0:0:
274,217,24575,2,0,B|180:198|180:198|215:224,1,120.000000596046,10|10,0:0|0:0,0:0:0:0:
344,58,25289,5,0,1:0:0:0:
368,62,25575,1,2,1:2:0:0:
379,83,25861,1,2,1:2:0:0:
403,87,26147,1,0,1:0:0:0:
415,109,26432,1,0,1:0:0:0:
439,113,26718,1,2,1:2:0:0:
451,135,27004,1,2,1:2:0:0:
449,221,27289,2,0,P|424:244|391:247,1,48.0000002384184,2|0,1:2|1:0,0:0:0:0:
315,219,27575,6,0,L|293:112,1,96.0000004768368,0|2,1:0|1:2,0:0:0:0:
226,73,28147,1,2,1:2:0:0:
202,77,28433,1,0,1:0:0:0:
190,98,28719,1,0,1:0:0:0:
166,102,29005,1,2,1:2:0:0:
154,124,29290,1,2,1:2:0:0:
74,155,29575,2,0,B|69:173|69:173|78:212,1,48.0000002384184,2|0,1:2|1:0,0:0:0:0:
17,266,29861,6,0,P|61:250|124:243,1,96.0000004768368,0|2,1:0|1:2,0:0:0:0:
200,279,30432,1,2,1:2:0:0:
223,271,30718,1,0,1:0:0:0:
240,288,31004,1,0,1:0:0:0:
263,280,31290,1,2,1:2:0:0:
345,315,31575,2,0,L|354:377,1,48.0000002384184,2|2,1:2|0:0,0:0:0:0:
435,311,31861,2,0,L|444:248,1,48.0000002384184,2|2,1:2|0:0,0:0:0:0:
427,167,32147,6,0,B|402:142|402:142|325:176,1,96.0000004768368,2|0,1:2|1:0,0:0:0:0:
296,97,32575,2,0,B|273:75|273:75|256:156,1,96.0000004768368,2|0,0:0|0:0,0:0:0:0:
206,207,33004,2,0,B|161:233|161:233|118:188,1,96.0000004768368,2|0,1:2|1:0,0:0:0:0:
67,142,33432,2,0,P|55:112|44:94,2,48.0000002384184,10|10|2,0:0|0:0|1:2,0:0:0:0:
148,105,33861,1,2,1:2:0:0:
148,105,34004,2,0,B|179:41|179:41|208:57,1,96.0000004768368,10|8,0:0|0:0,0:0:0:0:
235,65,34361,1,8,0:0:0:0:
248,64,34432,5,2,1:2:0:0:
410,76,34718,2,0,B|385:96|385:96|398:141,1,60.000000298023,10|0,0:0|0:0,0:0:0:0:
465,149,35004,2,0,P|410:158|332:191,1,120.000000596046,2|8,1:2|0:0,0:0:0:0:
261,169,35432,2,0,P|281:233|287:301,1,120.000000596046,2|2,0:0|0:0,0:0:0:0:
220,345,35861,1,10,0:0:0:0:
220,345,36004,1,2,0:0:0:0:
302,381,36147,2,0,L|373:366,2,60.000000298023,2|2|10,1:2|0:0|0:0,0:0:0:0:
97,256,36718,1,0,1:0:0:0:
97,256,37004,6,0,B|117:231|117:231|162:244,1,60.000000298023,10|0,0:0|0:0,0:0:0:0:
178,310,37290,2,0,P|187:255|220:177,1,120.000000596046,2|8,1:2|0:0,0:0:0:0:
144,133,37718,2,0,P|208:153|276:159,1,120.000000596046,2|2,0:0|0:0,0:0:0:0:
319,91,38147,1,10,0:0:0:0:
319,91,38290,1,2,0:0:0:0:
395,138,38433,2,0,L|380:209,2,60.000000298023,2|2|10,1:2|0:0|0:0,0:0:0:0:
509,35,39004,6,0,B|481:9|481:9|377:30,2,120.000000596046,0|10|2,1:0|0:0|1:2,0:0:0:0:
509,35,39718,1,2,0:0:0:0:
497,214,40004,2,0,L|355:238,1,120.000000596046,2|0,0:0|0:0,0:0:0:0:
296,197,40432,2,0,P|291:127|326:78,2,120.000000596046,10|2|10,0:0|1:2|0:0,0:0:0:0:
154,338,41289,6,0,L|10:308,1,120.000000596046,2|8,1:2|0:0,0:0:0:0:
100,238,41718,2,0,L|243:208,1,120.000000596046,2|0,0:0|0:0,0:0:0:0:
164,138,42147,2,0,L|20:108,1,120.000000596046,10|0,0:0|1:0,0:0:0:0:
123,34,42576,2,0,L|266:5,1,120.000000596046,10|0,0:2|0:0,0:0:0:0:
348,0,43004,2,0,P|369:27|370:60,1,60.000000298023,2|8,1:2|0:2,0:0:0:0:
457,80,43289,2,0,P|443:113|415:130,1,60.000000298023,2|8,1:2|0:0,0:0:0:0:
336,177,43575,6,0,B|315:160|315:160|326:246,1,96.0000004768368,6|8,1:2|0:0,0:0:0:0:
381,301,44004,1,0,0:0:0:0:
381,301,44147,2,0,L|330:329,1,48.0000002384184,0|0,1:0|1:0,0:0:0:0:
256,297,44432,2,0,L|205:325,1,48.0000002384184,2|8,0:0|0:0,0:0:0:0:
139,365,44718,2,0,B|117:342|117:342|127:275,1,96.0000004768368,2|8,1:2|0:0,0:0:0:0:
149,196,45147,1,0,0:0:0:0:
149,196,45290,2,0,L|199:224,1,48.0000002384184,0|0,1:0|1:0,0:0:0:0:
267,179,45575,2,0,L|317:207,1,48.0000002384184,10|0,0:0|1:0,0:0:0:0:
406,188,45861,6,0,B|456:164|456:164|433:137|428:73,1,144.000000715255,2|2,1:2|0:0,0:0:0:0:
490,21,46432,1,2,1:2:0:0:
490,21,46575,1,2,1:2:0:0:
307,23,46861,2,0,L|199:47,1,96.0000004768368,10|2,0:0|0:0,0:0:0:0:
134,7,47289,2,0,P|120:26|125:68,1,48.0000002384184,10|2,0:0|0:0,0:0:0:0:
169,120,47575,2,0,L|237:132,2,48.0000002384184,2|0|10,1:2|1:0|0:0,0:0:0:0:
19,32,48147,6,0,B|-1:15|-1:15|9:101,1,96.0000004768368,6|8,1:2|0:0,0:0:0:0:
25,173,48576,1,0,0:0:0:0:
25,173,48719,2,0,L|75:201,1,48.0000002384184,0|0,1:0|1:0,0:0:0:0:
140,173,49004,2,0,L|190:201,1,48.0000002384184,2|8,0:0|0:0,0:0:0:0:
251,249,49290,2,0,B|272:226|272:226|262:159,1,96.0000004768368,2|8,1:2|0:0,0:0:0:0:
252,76,49719,1,0,0:0:0:0:
252,76,49862,2,0,L|302:47,1,48.0000002384184,0|2,1:0|1:2,0:0:0:0:
385,15,50147,2,0,L|430:34,1,48.0000002384184,10|0,0:0|0:0,0:0:0:0:
508,111,50432,6,0,P|487:162|463:262,1,144.000000715255,2|0,1:2|0:0,0:0:0:0:
511,328,51004,1,2,1:2:0:0:
511,328,51147,1,0,1:2:0:0:
375,239,51432,2,0,B|353:228|353:228|270:258,1,96.0000004768368,10|2,0:0|1:2,0:0:0:0:
217,306,51861,2,0,P|202:287|202:245,1,48.0000002384184,10|2,0:0|0:0,0:0:0:0:
135,203,52147,2,0,L|67:215,2,48.0000002384184,2|0|10,1:2|1:0|0:0,0:0:0:0:
253,39,52718,6,0,B|273:22|273:22|262:108,1,96.0000004768368,6|8,1:2|0:0,0:0:0:0:
216,165,53147,1,0,0:0:0:0:
216,165,53290,2,0,L|266:193,1,48.0000002384184,0|0,1:0|1:0,0:0:0:0:
339,159,53575,2,0,L|389:187,1,48.0000002384184,10|2,0:0|0:0,0:0:0:0:
456,226,53861,2,0,B|477:203|477:203|467:136,1,96.0000004768368,2|8,1:2|0:0,0:0:0:0:
442,61,54290,1,0,0:0:0:0:
442,61,54433,2,0,L|391:89,1,48.0000002384184,0|0,1:0|1:0,0:0:0:0:
345,22,54718,2,0,L|294:50,1,48.0000002384184,10|0,0:0|0:0,0:0:0:0:
220,137,55004,6,0,B|188:140|165:116|165:116|136:125|136:125|114:99|80:107,4,144.000000715255,2|2|10|2|2,1:2|0:0|0:0|0:0|1:2,0:0:0:0:
220,137,57004,2,0,L|230:206,1,48.0000002384184,8|8,0:0|0:0,0:0:0:0:
233,223,57218,1,8,0:0:0:0:
233,223,57289,6,0,P|282:223|308:230,1,60.000000298023,14|2,0:0|0:0,0:0:0:0:
340,309,57575,2,0,P|370:313|401:311,1,60.000000298023,10|2,0:0|0:0,0:0:0:0:
456,233,57861,2,0,P|453:201|458:170,1,60.000000298023,10|0,0:0|1:0,0:0:0:0:
392,109,58147,1,10,0:0:0:0:
392,109,58289,6,0,L|263:128,1,120.000000596046,2|0,1:2|1:0,0:0:0:0:
188,173,58718,2,0,L|178:96,1,60.000000298023,10|0,0:0|1:0,0:0:0:0:
192,20,59004,1,10,0:0:0:0:
192,20,59147,2,0,P|137:27|132:50,1,60.000000298023,2|8,1:2|0:0,0:0:0:0:
76,107,59432,1,2,1:2:0:0:
76,107,59504,1,0,1:0:0:0:
76,107,59575,6,0,L|6:119,1,60.000000298023,14|10,0:0|0:0,0:0:0:0:
193,194,60004,2,0,L|262:206,1,60.000000298023,10|10,0:0|0:0,0:0:0:0:
73,276,60432,2,0,L|3:288,1,60.000000298023,10|10,0:0|0:0,0:0:0:0:
186,372,60861,2,0,L|255:384,1,60.000000298023,10|10,0:0|0:0,0:0:0:0:
390,243,61289,2,0,L|378:190,7,30.0000001490115,8|8|4|4|8|8|0|0,0:3|0:3|0:3|0:3|0:3|0:3|1:0|1:0,0:0:0:0:
354,184,61861,6,0,P|414:174|453:161,4,90.0000004470345,10|2|2|2|2,0:0|0:0|0:0|0:0|0:0,0:0:0:0:
93,271,65147,6,0,B|134:257|134:257|216:306,1,120.000000596046,14|10,0:0|0:0,0:0:0:0:
275,344,65575,1,10,0:0:0:0:
275,344,65718,1,10,0:0:0:0:
421,191,66004,1,10,0:0:0:0:
421,191,66147,2,0,P|463:234|451:259,1,90.0000004470345,2|0,1:2|1:0,0:0:0:0:
426,277,66432,6,0,P|364:266|258:260,1,143.999996320724,6|10,1:2|0:0,0:0:0:0:
230,145,67004,1,2,1:2:0:0:
230,145,67147,2,0,P|205:176|202:224,1,71.999998160362,2|8,1:2|0:0,0:0:0:0:
109,244,67432,2,0,L|62:19,1,215.999994481086,2|10,1:2|0:0,0:0:0:0:
263,50,68147,2,0,L|244:129,2,71.999998160362,2|2|10,1:2|1:2|0:0,0:0:0:0:
339,8,68575,6,0,P|388:1|414:91,1,143.999996320724,6|2,1:2|1:2,0:0:0:0:
387,155,69004,2,0,L|396:233,1,71.999998160362,8|2,0:0|0:0,0:0:0:0:
469,280,69289,1,2,1:2:0:0:
469,280,69432,1,2,1:2:0:0:
279,269,69718,6,0,B|184:261|235:315|118:301,1,143.999996320724,2|0,1:2|1:0,0:0:0:0:
57,312,70147,2,0,B|37:277|37:277|62:164,1,143.999996320724,8|0,0:0|1:0,0:0:0:0:
81,88,70575,1,2,1:2:0:0:
81,88,70718,2,0,P|114:103|138:132,1,71.999998160362,10|2,0:0|0:0,0:0:0:0:
246,109,71004,6,0,L|345:18,2,107.999997240543,4|2|2,1:2|0:0|0:0,0:0:0:0:
253,195,71575,2,0,L|384:165,2,107.999997240543,0|2|2,1:2|0:0|0:0,0:0:0:0:
207,269,72147,2,0,L|335:308,2,107.999997240543,0|2|2,1:2|0:0|0:0,0:0:0:0:
123,291,72718,5,0,1:2:0:0:
44,210,72932,1,2,0:0:0:0:
152,179,73147,1,2,1:2:0:0:
81,130,73289,6,0,B|107:25|107:25|138:66,1,143.999996320724,14|0,0:0|1:0,0:0:0:0:
213,78,73718,2,0,B|316:48|316:48|296:95,1,143.999996320724,10|0,0:0|1:0,0:0:0:0:
360,146,74147,2,0,B|436:220|436:220|385:226,1,143.999996320724,10|0,0:0|1:0,0:0:0:0:
316,247,74575,2,0,B|289:350|289:350|258:309,1,143.999996320724,10|0,0:0|1:0,0:0:0:0:
220,246,75004,5,10,0:0:0:0:
48,351,75289,1,10,0:0:0:0:
95,175,75575,6,0,L|263:157,1,143.999996320724,6|10,1:2|0:0,0:0:0:0:
415,156,76147,1,2,1:2:0:0:
415,156,76290,2,0,P|390:187|387:235,1,71.999998160362,2|8,1:2|0:0,0:0:0:0:
459,263,76575,2,0,B|510:213|510:213|478:53,1,215.999994481086,2|10,1:2|0:0,0:0:0:0:
307,18,77290,2,0,P|266:20|224:9,2,71.999998160362,2|2|10,1:2|1:2|0:0,0:0:0:0:
392,61,77718,6,0,L|369:212,1,143.999996320724,6|2,1:2|1:2,0:0:0:0:
390,288,78147,2,0,P|343:290|303:257,1,71.999998160362,10|2,0:0|0:0,0:0:0:0:
268,199,78432,1,2,1:2:0:0:
268,199,78575,1,2,1:2:0:0:
140,337,78861,6,0,B|45:329|96:383|-20:369,1,143.999996320724,2|0,1:2|1:0,0:0:0:0:
6,284,79290,2,0,B|33:130,1,143.999996320724,8|0,0:0|1:0,0:0:0:0:
101,78,79718,1,2,1:2:0:0:
101,78,79861,2,0,P|133:79|162:123,1,71.999998160362,10|2,0:0|0:0,0:0:0:0:
249,155,80147,6,0,L|386:134,2,107.999997240543,6|2|2,1:2|0:0|0:0,0:0:0:0:
201,231,80718,2,0,L|62:211,2,107.999997240543,2|2|2,1:2|1:2|1:2,0:0:0:0:
291,279,81290,6,0,P|337:264|380:259,1,71.999998160362,10|0,0:0|1:0,0:0:0:0:
317,360,81575,2,0,P|352:354|386:343,1,71.999998160362,10|0,0:0|1:0,0:0:0:0:
231,348,81861,2,0,L|156:363,1,71.999998160362,10|0,0:0|1:0,0:0:0:0:
65,305,82147,1,10,0:0:0:0:
65,305,82289,6,0,B|31:280|31:280|135:253,1,143.999996320724,6|0,1:2|1:0,0:0:0:0:
135,167,82718,2,0,P|146:94|210:94,1,143.999996320724,8|0,0:0|1:0,0:0:0:0:
288,132,83147,1,0,1:0:0:0:
288,132,83289,2,0,L|298:212,1,71.999998160362,8|0,0:0|1:0,0:0:0:0:
387,244,83575,6,0,P|467:229|443:165,1,143.999996320724,0|8,1:0|0:0,0:0:0:0:
502,104,84004,2,0,B|475:82|475:82|347:122,1,143.999996320724,0|2,1:0|1:2,0:0:0:0:
309,50,84432,1,10,0:0:0:0:
309,50,84575,1,2,0:0:0:0:
209,0,84718,6,0,P|175:25|157:61,1,71.999998160362,6|0,1:2|0:0,0:0:0:0:
125,70,84932,1,10,0:3:0:0:
125,70,85004,2,0,P|130:111|152:145,1,71.999998160362,0|10,0:0|0:3,0:0:0:0:
203,208,85289,5,10,0:3:0:0:
186,347,85504,1,6,0:3:0:0:
312,287,85718,1,2,1:2:0:0:
296,196,85861,6,0,P|327:178|385:194,1,71.999998160362,10|8,0:0|0:0,0:0:0:0:
443,237,86147,1,2,0:0:0:0:
443,237,86432,1,2,0:0:0:0:
290,344,86718,1,2,0:0:0:0:
223,287,86861,6,0,B|169:275|93:272,1,120.000000596046,2|2,1:2|0:0,0:0:0:0:
55,210,87289,1,10,0:0:0:0:
55,210,87432,2,0,B|45:163|58:116|58:116|103:91,1,120.000000596046,2|2,0:0|1:2,0:0:0:0:
120,86,87789,1,2,0:0:0:0:
120,86,87861,2,0,P|152:86|174:109,1,60.000000298023,10|2,0:0|1:2,0:0:0:0:
255,129,88147,2,0,L|243:205,2,60.000000298023,2|2|10,0:0|1:2|0:0,0:0:0:0:
322,65,88575,2,0,B|369:40|369:40|491:114,1,180.000000894069,2|8,0:0|0:0,0:0:0:0:
472,210,89147,6,0,P|417:219|382:286,1,120.000000596046,6|2,1:2|1:2,0:0:0:0:
368,311,89504,1,2,1:2:0:0:
368,311,89575,2,0,L|290:298,1,60.000000298023,10|2,0:0|1:2,0:0:0:0:
247,242,89861,2,0,L|169:229,1,60.000000298023,10|2,0:3|1:2,0:0:0:0:
149,315,90146,2,0,L|71:302,1,60.000000298023,10|0,0:3|1:3,0:0:0:0:
21,197,90432,5,6,0:3:0:0:
21,197,90575,2,0,L|43:57,2,120.000000596046,2|2|2,1:2|1:2|1:2,0:0:0:0:
263,100,91575,6,0,P|344:92|330:176,1,180.000000894069,2|8,1:2|0:0,0:0:0:0:
278,223,92575,2,0,L|179:207,1,90.0000004470345,2|10,1:2|0:0,0:0:0:0:
135,273,93289,2,0,L|140:309,1,30.0000001490115,2|2,0:0|0:0,0:0:0:0:
145,335,93575,1,10,0:0:0:0:
58,215,93861,6,0,B|66:156|66:156|62:148|62:148|70:88|70:88|70:108|85:127|109:129,1,180.000000894069,0|8,1:0|0:0,0:0:0:0:
183,139,94861,2,0,L|280:126,1,90.0000004470345,2|10,1:2|0:0,0:0:0:0:
342,74,95575,2,0,L|350:31,1,30.0000001490115,2|2,0:0|0:0,0:0:0:0:
355,11,95861,1,10,0:0:0:0:
374,151,96147,6,0,P|380:184|410:198,1,60.000000298023,0|10,1:0|0:0,0:0:0:0:
478,264,96718,1,2,0:0:0:0:
478,264,96861,2,0,L|437:273,1,30.0000001490115,2|8,0:0|0:0,0:0:0:0:
376,308,97147,2,0,B|355:283|355:283|319:297|286:299,1,90.0000004470345,2|10,1:2|0:0,0:0:0:0:
177,363,97861,2,0,P|211:347|215:315,1,60.000000298023,2|10,0:0|0:0,0:0:0:0:
164,215,98432,6,0,P|105:206|36:187,3,116.99999522531,6|6|6|14,1:2|1:2|1:2|0:2,0:0:0:0:
116,54,100147,2,0,L|170:64,1,45.0000019401311,10|8,0:0|0:3,0:0:0:0:
244,23,100432,2,0,L|298:33,1,45.0000019401311,6|8,0:3|0:3,0:0:0:0:
375,71,100718,6,0,B|400:56|400:56|389:130,1,90.0000038802622,2|0,1:2|0:0,0:0:0:0:
478,139,101147,1,0,1:0:0:0:
478,139,101289,2,0,B|421:139|443:163|388:163,1,90.0000038802622,8|2,0:0|1:2,0:0:0:0:
326,293,101861,2,0,L|313:190,1,90.0000038802622,2|0,0:0|1:0,0:0:0:0:
253,141,102289,1,0,1:0:0:0:
253,141,102432,2,0,P|189:135|173:159,1,90.0000038802622,10|2,0:0|0:0,0:0:0:0:
61,254,103004,6,0,L|162:272,1,90.0000038802622,2|2,1:2|0:0,0:0:0:0:
222,324,103432,1,2,1:2:0:0:
222,324,103575,2,0,L|323:305,1,90.0000038802622,10|2,0:0|0:0,0:0:0:0:
384,262,104004,2,0,P|397:201|419:158,2,90.0000038802622,2|10|0,1:2|0:0|1:0,0:0:0:0:
298,216,104718,2,0,L|288:156,1,45.0000019401311,10|2,0:0|1:2,0:0:0:0:
276,91,105004,1,2,0:0:0:0:
151,196,105289,6,0,P|116:167|133:113,1,90.0000038802622,2|0,1:2|0:0,0:0:0:0:
64,68,105718,1,0,1:0:0:0:
64,68,105861,2,0,B|99:82|99:82|158:58,1,90.0000038802622,8|2,0:0|0:0,0:0:0:0:
316,25,106432,1,2,0:0:0:0:
316,25,106575,2,0,P|279:43|271:58,1,45.0000019401311,0|0,0:0|1:0,0:0:0:0:
228,117,106861,1,0,1:0:0:0:
228,117,107004,2,0,L|323:139,1,90.0000038802622,8|2,0:0|0:0,0:0:0:0:
478,190,107575,6,0,L|437:229,1,45.0000019401311,2|0,1:2|1:0,0:0:0:0:
437,306,107861,2,0,L|382:290,1,45.0000019401311,2|0,0:0|0:0,0:0:0:0:
320,335,108147,1,10,0:0:0:0:
320,335,108289,2,0,L|309:290,1,45.0000019401311,2|0,0:0|0:0,0:0:0:0:
349,215,108575,2,0,L|252:188,1,90.0000038802622,2|10,1:2|0:3,0:0:0:0:
186,232,109004,2,0,P|176:255|174:290,1,45.0000019401311,6|2,0:3|1:2,0:0:0:0:
100,318,109289,2,0,L|42:303,2,45.0000019401311,10|2|0,0:0|1:2|0:0,0:0:0:0:
180,147,109861,6,0,B|155:133|155:133|75:156,1,90.0000038802622,6|8,1:2|0:0,0:0:0:0:
43,83,110289,1,0,0:0:0:0:
107,26,110432,2,0,L|162:41,1,45.0000019401311,0|0,1:0|1:0,0:0:0:0:
230,6,110718,2,0,L|285:21,1,45.0000019401311,10|2,0:0|0:0,0:0:0:0:
313,94,111004,2,0,B|337:107|337:107|417:84,1,90.0000038802622,2|8,1:2|0:0,0:0:0:0:
468,136,111432,1,0,1:0:0:0:
420,207,111575,2,0,L|364:222,1,45.0000019401311,0|0,1:0|1:0,0:0:0:0:
295,209,111861,1,10,0:0:0:0:
295,209,112004,1,0,0:0:0:0:
213,270,112147,6,0,P|190:201|142:123,4,153.000003678202,2|2|10|2|2,1:2|0:0|0:0|1:2|0:0,0:0:0:0:
213,270,114147,2,0,P|236:271|272:280,1,51.0000012260674,8|8,0:0|0:0,0:0:0:0:
335,222,114432,6,0,L|348:142,1,60.000000298023,14|2,0:0|0:0,0:0:0:0:
433,183,114718,2,0,L|418:262,1,60.000000298023,10|2,0:0|0:0,0:0:0:0:
359,307,115004,2,0,P|308:316|245:354,1,120.000000596046,10|10,0:0|0:0,0:0:0:0:
161,369,115432,2,0,B|132:348|132:348|155:249,1,120.000000596046,2|0,1:2|0:0,0:0:0:0:
231,222,115861,2,0,L|213:142,1,60.000000298023,10|0,0:0|1:0,0:0:0:0:
174,89,116147,1,10,0:0:0:0:
174,89,116289,2,0,P|221:77|258:14,1,120.000000596046,2|2,1:2|1:2,0:0:0:0:
352,22,116718,5,14,0:0:0:0:
352,22,116861,1,10,0:0:0:0:
311,219,117147,5,10,0:0:0:0:
311,219,117290,1,10,0:0:0:0:
160,22,117575,5,10,0:0:0:0:
160,22,117718,1,10,0:0:0:0:
200,219,118004,5,10,0:0:0:0:
200,219,118147,2,0,P|152:238|140:134,1,180.000000894069,10|4,0:0|0:3,0:0:0:0:
200,101,118718,2,0,L|265:114,1,60.000000298023,2|0,1:2|1:0,0:0:0:0:
334,193,119004,6,0,P|346:129|372:46,1,143.999996320724,6|10,1:2|0:0,0:0:0:0:
512,26,119576,1,2,1:2:0:0:
512,26,119719,2,0,P|479:3|430:2,1,71.999998160362,2|8,1:2|0:0,0:0:0:0:
451,97,120004,2,0,L|485:266,1,143.999996320724,2|0,1:2|1:0,0:0:0:0:
437,318,120432,1,10,0:0:0:0:
259,340,120719,2,0,B|232:318|232:318|178:338,2,71.999998160362,2|2|10,1:2|1:2|0:0,0:0:0:0:
346,267,121147,6,0,P|352:217|258:187,1,143.999996320724,6|2,1:2|1:2,0:0:0:0:
195,196,121576,2,0,P|156:192|106:175,1,71.999998160362,10|2,0:0|1:2,0:0:0:0:
71,122,121861,1,2,1:2:0:0:
71,122,122004,1,2,1:2:0:0:
222,10,122290,6,0,B|316:2|265:56|382:42,1,143.999996320724,2|0,1:2|1:0,0:0:0:0:
432,0,122719,2,0,B|400:29|400:29|426:157,1,143.999996320724,8|0,0:0|1:0,0:0:0:0:
472,203,123147,1,2,1:2:0:0:
472,203,123290,2,0,P|437:217|399:215,1,71.999998160362,10|2,0:0|0:0,0:0:0:0:
312,269,123576,6,0,L|279:400,2,107.999997240543,4|2|2,1:2|0:0|0:0,0:0:0:0:
248,193,124147,2,0,L|215:61,2,107.999997240543,0|2|2,1:2|0:0|0:0,0:0:0:0:
175,261,124718,2,0,L|142:392,2,107.999997240543,0|2|2,1:2|0:0|0:0,0:0:0:0:
115,187,125290,1,0,1:2:0:0:
63,50,125504,1,2,0:0:0:0:
207,74,125718,1,2,1:2:0:0:
126,104,125861,6,0,B|19:87|19:87|62:121,1,143.999996320724,14|0,0:0|1:0,0:0:0:0:
115,187,126289,2,0,B|221:170|221:170|178:204,1,143.999996320724,10|0,0:0|1:0,0:0:0:0:
132,279,126718,2,0,B|25:262|25:262|68:296,1,143.999996320724,10|0,0:0|1:0,0:0:0:0:
148,371,127146,2,0,B|256:333|256:333|295:355,1,143.999996320724,10|0,0:0|1:0,0:0:0:0:
360,384,127575,5,10,0:0:0:0:
334,198,127861,1,10,0:0:0:0:
483,273,128147,6,0,L|456:100,1,143.999996320724,6|10,1:2|0:0,0:0:0:0:
317,99,128719,1,2,1:2:0:0:
317,99,128862,2,0,P|285:75|237:72,1,71.999998160362,2|8,1:2|0:0,0:0:0:0:
203,139,129147,2,0,B|242:212|242:212|377:163,1,215.999994481086,2|10,1:2|0:0,0:0:0:0:
458,0,129862,2,0,P|482:28|512:44,2,71.999998160362,2|2|10,1:2|1:2|0:0,0:0:0:0:
338,53,130290,6,0,L|315:204,1,143.999996320724,6|2,1:2|1:2,0:0:0:0:
267,266,130719,2,0,P|300:280|337:276,1,71.999998160362,10|2,0:0|0:0,0:0:0:0:
403,224,131004,1,2,1:2:0:0:
403,224,131147,1,2,1:2:0:0:
243,155,131433,6,0,B|148:147|199:201|82:187,1,143.999996320724,2|0,1:2|1:0,0:0:0:0:
62,115,131862,2,0,B|91:16|91:16|136:69,1,143.999996320724,8|0,0:0|1:0,0:0:0:0:
206,70,132290,1,2,1:2:0:0:
206,70,132433,2,0,P|235:60|266:29,1,71.999998160362,10|2,0:0|0:0,0:0:0:0:
321,109,132719,6,0,L|303:233,2,107.999997240543,6|2|2,1:2|0:0|0:0,0:0:0:0:
404,127,133289,2,0,L|386:251,2,107.999997240543,2|2|2,1:2|1:2|1:2,0:0:0:0:
453,44,133862,6,0,P|421:26|378:34,1,71.999998160362,14|0,0:0|1:0,0:0:0:0:
316,79,134147,2,0,P|279:83|246:65,1,71.999998160362,10|0,0:0|1:0,0:0:0:0:
154,71,134432,2,0,L|145:-9,2,71.999998160362,10|0|10,0:0|1:0|0:0,0:0:0:0:
72,146,134861,6,0,B|42:301,1,143.999996320724,6|0,1:2|1:0,0:0:0:0:
114,371,135290,2,0,B|151:366|151:366|203:395,1,71.999998160362,8|0,0:0|0:0,0:0:0:0:
269,351,135575,2,0,B|272:314|272:314|251:282,2,71.999998160362,0|0|8,1:0|1:0|0:0,0:0:0:0:
455,328,136147,6,0,P|475:261|409:240,1,143.999996320724,0|8,1:0|0:0,0:0:0:0:
339,188,136575,2,0,L|365:24,1,143.999996320724,0|2,1:0|1:2,0:0:0:0:
272,7,137004,1,10,0:0:0:0:
209,87,137147,1,2,0:0:0:0:
209,87,137290,6,0,P|161:80|120:64,1,71.999998160362,6|0,1:2|0:0,0:0:0:0:
99,87,137504,1,10,0:3:0:0:
99,87,137575,2,0,P|87:120|69:152,1,71.999998160362,0|10,0:0|0:3,0:0:0:0:
16,230,137861,5,10,0:3:0:0:
101,328,138075,1,6,0:3:0:0:
152,198,138289,1,2,1:2:0:0:
207,131,138433,6,0,P|244:128|273:131,1,66.0000023419855,14|8,0:0|0:0,0:0:0:0:
338,194,138718,1,2,0:0:0:0:
338,194,139004,1,2,0:0:0:0:
301,363,139289,1,2,0:0:0:0:
340,288,139432,1,2,0:0:0:0:
340,288,139575,6,0,P|389:263|458:251,1,102.000002452135,6|2,1:2|0:0,0:0:0:0:
458,174,140004,2,0,P|412:143|366:89,1,102.000002452135,2|0,1:2|1:0,0:0:0:0:
299,120,140432,2,0,L|288:194,1,51.0000012260674,2|2,0:0|1:2,0:0:0:0:
224,215,140718,1,0,0:0:0:0:
224,215,140861,2,0,P|172:195|154:195,2,51.0000012260674,2|0|2,1:2|1:0|1:2,0:0:0:0:
226,319,141289,6,0,B|163:337|163:337|148:354|148:354|66:376,1,153.000003678202,8|2,0:0|1:2,0:0:0:0:
40,277,141861,6,0,P|51:240|52:171,1,102.000002452135,2|2,1:2|0:0,0:0:0:0:
132,155,142289,2,0,P|156:183|216:218,1,102.000002452135,2|0,1:2|1:0,0:0:0:0:
274,163,142718,2,0,L|339:148,1,51.0000012260674,2|2,0:2|1:2,0:0:0:0:
393,204,143004,5,2,0:0:0:0:
393,204,143147,2,0,L|381:265,2,51.0000012260674,2|2|2,1:2|0:0|1:2,0:0:0:0:
465,164,143575,1,8,0:0:0:0:
465,164,143718,1,2,1:2:0:0:
446,81,143861,2,0,B|387:68,1,51.0000012260674,2|0,0:0|1:2,0:0:0:0:
304,124,144147,6,0,P|209:131|179:139,1,102.000002452135,6|2,1:2|0:0,0:0:0:0:
169,207,144575,2,0,P|222:284|243:306,1,102.000002452135,2|0,1:2|1:0,0:0:0:0:
309,299,145004,2,0,L|328:245,1,51.0000012260674,2|2,1:2|1:2,0:0:0:0:
398,210,145289,1,0,1:0:0:0:
398,210,145432,2,0,P|441:203|467:204,2,51.0000012260674,2|0|2,1:2|1:0|1:2,0:0:0:0:
358,113,145861,6,0,B|294:93|294:93|273:100|273:100|190:78,1,153.000003678202,8|2,0:0|1:2,0:0:0:0:
133,160,146432,6,0,P|143:210|165:279,1,102.000002452135,2|2,1:2|0:0,0:0:0:0:
202,327,146861,2,0,P|240:291|289:237,1,102.000002452135,2|0,1:2|1:0,0:0:0:0:
359,264,147289,1,2,1:2:0:0:
359,264,147432,6,0,P|320:235|313:178,1,102.000002452135,2|2,1:2|1:2,0:0:0:0:
450,97,148004,2,0,P|488:125|495:182,1,102.000002452135,2|8,1:2|0:0,0:0:0:0:
497,176,148718,6,0,B|471:166|471:166|420:181|420:181|391:169,1,102.000002452135,6|2,1:2|0:0,0:0:0:0:
319,157,149147,1,2,1:2:0:0:
319,157,149289,2,0,P|304:95|381:101,1,153.000003678202,10|2,0:0|1:2,0:0:0:0:
400,173,149861,5,0,1:0:0:0:
400,173,150004,2,0,L|390:237,1,51.0000012260674,2|0,1:2|1:0,0:0:0:0:
332,286,150289,1,2,1:2:0:0:
332,286,150432,2,0,B|302:298|302:298|270:257|232:238|232:238|193:253,1,153.000003678202,10|2,0:0|1:2,0:0:0:0:
125,282,151004,6,0,P|177:273|176:214,1,102.000002452135,2|2,1:2|0:0,0:0:0:0:
124,179,151432,1,2,1:2:0:0:
124,179,151575,2,0,L|142:57,1,102.000002452135,10|2,0:0|0:0,0:0:0:0:
274,50,152147,5,0,1:0:0:0:
229,126,152289,1,2,1:2:0:0:
229,126,152432,2,0,L|288:135,1,51.0000012260674,0|2,1:0|1:2,0:0:0:0:
346,189,152718,2,0,L|405:198,1,51.0000012260674,8|2,0:0|1:2,0:0:0:0:
414,111,153004,2,0,L|363:103,1,51.0000012260674,0|0,1:0|1:0,0:0:0:0:
310,23,153289,6,0,L|192:44,1,102.000002452135,6|0,1:2|1:0,0:0:0:0:
153,108,153718,1,0,1:2:0:0:
153,108,153861,2,0,P|164:157|170:226,1,102.000002452135,10|2,0:0|0:0,0:0:0:0:
231,276,154289,1,2,1:2:0:0:
231,276,154432,2,0,L|348:254,1,102.000002452135,0|0,1:0|1:0,0:0:0:0:
379,186,154861,1,0,1:2:0:0:
379,186,155004,2,0,P|367:136|362:68,1,102.000002452135,10|2,0:0|1:2,0:0:0:0:
286,49,155432,1,2,1:2:0:0:
286,49,155575,6,0,L|226:59,1,51.0000012260674,14|0,0:0|1:0,0:0:0:0:
151,34,155861,2,0,P|127:30|139:52,1,51.0000012260674,10|0,0:0|1:0,0:0:0:0:
148,136,156147,2,0,L|142:175,3,25.5000006130337,10|2|2|2,0:0|0:0|1:2|0:0,0:0:0:0:
165,198,156432,2,0,L|159:237,3,25.5000006130337,10|2|6|2,0:0|0:0|1:2|0:0,0:0:0:0:
181,261,156718,5,0,1:0:0:0:
276,297,156861,2,0,P|304:283|395:277,2,102.000002452135,2|2|10,1:2|1:2|0:0,0:0:0:0:
240,100,157718,5,2,1:2:0:0:
240,100,157861,2,0,L|260:-5,1,102.000002452135,6|8,1:2|0:0,0:0:0:0:
355,0,158289,1,2,0:0:0:0:
355,0,158432,2,0,P|411:24|428:67,1,102.000002452135,2|8,1:2|0:0,0:0:0:0:
375,136,158861,1,2,1:2:0:0:
375,136,159004,6,0,P|318:160|301:203,1,102.000002452135,2|8,0:0|0:0,0:0:0:0:
366,267,159432,1,2,0:0:0:0:
366,267,159575,2,0,L|352:374,1,102.000002452135,2|8,1:2|0:0,0:0:0:0:
273,322,160004,1,6,1:2:0:0:
193,368,160147,6,0,L|179:262,1,102.000002452135,2|10,0:0|0:0,0:0:0:0:
110,206,160575,2,0,B|83:199|83:199|64:180,1,51.0000012260674,2|0,0:0|1:0,0:0:0:0:
136,122,160861,2,0,L|200:140,1,51.0000012260674,2|8,1:2|0:0,0:0:0:0:
269,200,161147,6,0,B|298:219|298:219|338:214|362:189,1,102.000002452135,2|2,1:2|1:2,0:0:0:0:
407,114,161575,2,0,P|396:83|394:57,1,51.0000012260674,10|2,0:0|0:0,0:0:0:0:
321,15,161861,2,0,P|299:10|261:-7,2,51.0000012260674,0|0|8,1:0|1:0|0:0,0:0:0:0:
321,15,162432,6,0,P|262:38|229:78,1,102.000002452135,14|10,0:0|0:0,0:0:0:0:
152,40,162861,1,2,1:2:0:0:
152,40,163004,2,0,P|142:101|160:150,1,102.000002452135,10|2,0:0|1:2,0:0:0:0:
78,231,163432,1,12,0:0:0:0:
78,231,163575,6,0,B|114:220|114:220|172:260,1,102.000002452135,2|10,1:2|0:0,0:0:0:0:
233,192,164004,1,0,1:2:0:0:
233,192,164147,2,0,B|260:217|260:217|253:288,1,102.000002452135,10|2,0:0|1:2,0:0:0:0:
345,341,164575,6,0,P|415:303|409:281,1,102.000002452135,14|2,0:0|1:2,0:0:0:0:
392,263,164932,1,2,0:0:0:0:
392,263,165004,2,0,L|400:202,1,51.0000012260674,10|2,0:0|1:2,0:0:0:0:
330,148,165289,2,0,L|338:87,1,51.0000012260674,10|2,0:0|1:2,0:0:0:0:
418,47,165575,1,2,1:2:0:0:
461,138,165718,1,14,0:0:0:0:
461,138,165861,6,0,P|518:154|504:192,1,102.000002452135,0|6,1:0|0:3,0:0:0:0:
425,222,166289,2,0,B|379:263|418:267|362:311,1,102.000002452135,6|8,0:3|0:3,0:0:0:0:
280,340,166718,2,0,L|250:345,3,25.5000006130337,4|4|4|4,0:3|0:3|0:3|0:3,0:0:0:0:
214,360,167004,6,0,L|150:345,1,60.000000298023,6|2,1:2|1:2,0:0:0:0:
95,271,167289,2,0,L|31:256,1,60.000000298023,10|0,0:0|1:0,0:0:0:0:
95,181,167575,1,2,1:2:0:0:
95,181,167718,2,0,L|158:166,1,60.000000298023,2|8,1:2|0:0,0:0:0:0:
200,82,168004,6,0,P|236:52|265:67,1,60.000000298023,2|0,1:2|0:0,0:0:0:0:
323,110,168289,2,0,L|304:247,1,120.000000596046,2|2,1:2|1:2,0:0:0:0:
322,324,168718,2,0,P|286:327|251:305,2,60.000000298023,2|2|10,1:2|1:2|0:0,0:0:0:0:
455,238,169289,6,0,L|538:216,1,60.000000298023,6|2,1:2|1:2,0:0:0:0:
428,153,169575,2,0,L|511:131,1,60.000000298023,10|0,0:0|1:0,0:0:0:0:
347,97,169861,1,2,1:2:0:0:
347,97,170004,2,0,L|263:75,1,60.000000298023,2|8,1:2|0:0,0:0:0:0:
228,7,170289,6,0,P|193:6|183:41,1,60.000000298023,2|0,1:2|0:0,0:0:0:0:
197,124,170575,2,0,B|98:99|98:99|117:124,1,120.000000596046,2|2,1:2|1:2,0:0:0:0:
152,212,171004,1,2,1:2:0:0:
54,230,171147,1,0,1:0:0:0:
54,230,171289,2,0,L|45:314,1,60.000000298023,10|0,0:0|1:0,0:0:0:0:
141,361,171575,6,0,L|214:373,1,60.000000298023,6|2,1:2|1:2,0:0:0:0:
284,324,171861,2,0,L|357:336,1,60.000000298023,10|0,0:0|1:0,0:0:0:0:
418,273,172147,1,2,1:2:0:0:
418,273,172289,2,0,P|415:234|396:206,1,60.000000298023,2|8,1:2|0:0,0:0:0:0:
460,136,172575,6,0,P|425:118|390:121,1,60.000000298023,2|0,1:2|0:0,0:0:0:0:
314,82,172861,2,0,P|299:27|289:1,2,60.000000298023,2|10|2,1:2|0:0|1:2,0:0:0:0:
222,112,173289,2,0,P|220:156|226:190,1,60.000000298023,2|2,1:2|1:2,0:0:0:0:
233,265,173575,2,0,P|232:281|225:259,1,60.000000298023,10|0,0:0|0:0,0:0:0:0:
94,186,173861,6,0,B|42:31|42:31|-6:-5,4,215.999994481086,14|2|10|2|2,0:0|1:2|0:0|1:2|1:2,0:0:0:0:
263,344,175861,1,8,0:3:0:0:
263,344,176004,1,4,0:3:0:0:
316,264,176147,6,0,L|379:249,1,60.000000298023,6|2,1:2|1:2,0:0:0:0:
437,177,176432,2,0,L|500:162,1,60.000000298023,10|0,0:0|1:0,0:0:0:0:
411,85,176718,1,2,1:2:0:0:
411,85,176861,2,0,L|347:70,1,60.000000298023,2|8,1:2|0:0,0:0:0:0:
281,136,177147,6,0,P|250:132|232:108,1,60.000000298023,2|0,1:2|0:0,0:0:0:0:
170,44,177432,1,2,1:2:0:0:
170,44,177575,2,0,P|186:19|217:15,1,60.000000298023,10|2,0:0|1:2,0:0:0:0:
303,52,177861,2,0,L|310:123,2,60.000000298023,2|2|10,1:2|1:2|0:0,0:0:0:0:
410,15,178290,1,0,1:0:0:0:
410,15,178432,6,0,L|493:36,1,60.000000298023,6|2,1:2|1:2,0:0:0:0:
419,105,178718,2,0,L|502:126,1,60.000000298023,10|0,0:0|1:0,0:0:0:0:
371,182,179004,2,0,B|327:172|327:172|262:246,1,120.000000596046,2|10,1:2|0:0,0:0:0:0:
245,325,179432,6,0,P|215:328|197:303,1,60.000000298023,2|0,1:2|1:2,0:0:0:0:
103,325,179718,2,0,B|93:394|93:394,2,60.000000298023,2|10|2,1:2|0:0|1:2,0:0:0:0:
38,226,180147,2,0,P|56:191|90:189,1,60.000000298023,2|2,1:2|1:2,0:0:0:0:
169,135,180432,2,0,P|208:150|214:183,1,60.000000298023,10|0,0:0|1:0,0:0:0:0:
233,200,180647,1,0,1:0:0:0:
233,200,180718,6,0,L|306:212,1,60.000000298023,14|2,0:0|1:2,0:0:0:0:
361,130,181004,2,0,L|299:119,1,60.000000298023,10|0,0:0|1:0,0:0:0:0:
265,38,181290,1,10,0:0:0:0:
265,38,181432,2,0,P|226:40|198:59,1,60.000000298023,2|8,1:2|0:0,0:0:0:0:
111,54,181718,6,0,P|93:88|96:122,1,60.000000298023,2|14,1:2|0:0,0:0:0:0:
57,198,182004,2,0,P|9:183|-19:183,2,60.000000298023,2|10|2,1:2|0:0|1:2,0:0:0:0:
112,276,182432,2,0,P|113:320|112:347,1,60.000000298023,2|2,1:2|1:2,0:0:0:0:
209,335,182718,2,0,P|207:290|209:263,1,60.000000298023,10|8,0:0|0:0,0:0:0:0:
301,303,183004,6,0,B|366:278|366:278|395:293,4,90.0000004470345,2|2|2|2|2,1:2|0:0|0:0|0:0|0:0,0:0:0:0:
512,384,185147,5,0,1:0:0:0:
512,384,185218,1,0,1:0:0:0:
512,384,185289,2,0,L|502:314,1,60.000000298023,10|10,0:3|0:3,0:0:0:0:
458,254,185575,2,0,L|468:184,1,60.000000298023,6|10,0:3|0:3,0:0:0:0:
428,111,185861,2,0,B|453:92|453:92|489:106,2,60.000000298023,10|6|10,0:3|0:3|0:0,0:0:0:0:
317,159,186289,6,0,B|271:171|271:171|196:131,1,120.000000596046,10|10,0:3|0:0,0:0:0:0:
153,71,186718,2,0,P|136:63|118:59,3,30.0000001490115,10|8|2|0,0:0|0:0|1:2|1:0,0:0:0:0:
94,68,187004,1,10,0:0:0:0:
0,192,187575,5,6,1:2:0:0:
512,192,188575,5,2,1:2:0:0:
403,79,188861,1,2,1:2:0:0:
281,182,189147,2,0,P|221:189|215:134,1,120.000000596046,2|2,1:2|1:2,0:0:0:0:
286,101,189575,1,2,1:2:0:0:
286,101,189718,6,0,L|135:66,1,143.999996320724,6|2,1:2|1:2,0:0:0:0:
62,23,190147,2,0,B|40:51|40:51|57:91,1,71.999998160362,10|2,0:0|0:0,0:0:0:0:
112,164,190432,1,2,1:2:0:0:
112,164,190575,1,2,1:2:0:0:
0,299,190861,6,0,B|94:291|43:345|160:331,1,143.999996320724,2|0,1:2|1:0,0:0:0:0:
207,384,191290,2,0,B|187:349|187:349|212:236,1,143.999996320724,8|0,0:0|1:0,0:0:0:0:
268,175,191718,1,2,1:2:0:0:
268,175,191861,2,0,P|312:175|346:205,1,71.999998160362,10|2,0:0|0:0,0:0:0:0:
401,256,192147,6,0,L|428:379,2,107.999997240543,4|2|2,1:2|0:0|0:0,0:0:0:0:
431,168,192718,2,0,L|523:82,2,107.999997240543,0|2|2,1:2|0:0|0:0,0:0:0:0:
334,189,193289,2,0,L|213:150,2,107.999997240543,0|2|2,1:2|0:0|0:0,0:0:0:0:
398,252,193861,5,0,1:2:0:0:
504,160,194075,1,2,0:0:0:0:
373,105,194290,1,2,1:2:0:0:
334,189,194432,6,0,B|363:343,1,143.999996320724,14|0,0:0|1:0,0:0:0:0:
267,346,194861,2,0,B|237:198,1,143.999996320724,10|0,0:0|1:0,0:0:0:0:
157,161,195290,2,0,B|54:192|54:192|97:220,1,143.999996320724,10|8,0:0|0:3,0:0:0:0:
169,259,195718,2,0,B|270:226|270:226|228:198,1,143.999996320724,10|8,0:3|0:3,0:0:0:0:
157,161,196147,5,6,0:3:0:0:
67,325,196432,1,2,1:3:0:0:
268,353,196718,5,2,1:2:0:0:
268,353,197004,6,0,L|343:362,1,71.999998160362,6|2,1:2|0:0,0:0:0:0:
420,312,197289,1,2,1:2:0:0:
420,312,197433,2,0,P|429:267|456:227,1,71.999998160362,2|8,1:2|0:0,0:0:0:0:
337,213,197718,2,0,B|171:194|171:194|131:142,1,215.999994481086,2|10,1:2|0:0,0:0:0:0:
175,58,198289,1,2,0:0:0:0:
175,58,198433,2,0,P|215:55|252:75,1,71.999998160362,2|2,1:2|1:2,0:0:0:0:
350,70,198718,1,10,0:0:0:0:
350,70,198861,6,0,L|336:233,1,143.999996320724,6|2,1:2|1:2,0:0:0:0:
285,291,199290,2,0,P|321:308|358:303,1,71.999998160362,10|2,0:0|0:0,0:0:0:0:
429,251,199575,1,2,1:2:0:0:
429,251,199718,1,2,1:2:0:0:
252,166,200004,6,0,B|157:158|208:212|91:198,1,143.999996320724,2|0,1:2|1:0,0:0:0:0:
43,141,200433,2,0,B|70:-12,1,143.999996320724,8|0,0:0|1:0,0:0:0:0:
160,33,200861,1,2,1:2:0:0:
160,33,201004,2,0,P|192:31|221:-12,1,71.999998160362,10|2,0:0|0:0,0:0:0:0:
316,34,201290,6,0,L|347:153,2,107.999997240543,4|2|2,1:2|0:0|0:0,0:0:0:0:
256,129,201861,2,0,L|256:270,2,107.999997240543,0|2|2,1:2|0:0|1:2,0:0:0:0:
194,36,202432,6,0,L|172:116,1,71.999998160362,10|0,0:0|1:0,0:0:0:0:
87,112,202718,2,0,L|65:192,1,71.999998160362,10|0,0:0|1:0,0:0:0:0:
107,265,203004,2,0,P|154:252|181:247,2,71.999998160362,10|0|10,0:0|1:0|0:0,0:0:0:0:
67,354,203432,6,0,B|154:385|154:385|202:344,1,143.999996320724,6|0,1:2|1:0,0:0:0:0:
263,289,203861,2,0,L|352:313,1,71.999998160362,8|0,0:0|1:0,0:0:0:0:
384,231,204147,1,8,0:0:0:0:
384,231,204290,2,0,P|422:263|414:306,2,71.999998160362,0|8|0,1:0|0:0|1:0,0:0:0:0:
358,134,204718,6,0,B|293:124|293:124|280:112|280:112|199:100,1,143.999996320724,14|14,0:0|0:0,0:0:0:0:
137,149,205147,2,0,B|154:181|154:181|221:193,1,71.999998160362,0|8,1:0|0:0,0:0:0:0:
279,154,205432,1,2,1:2:0:0:
279,154,205575,2,0,B|288:118|288:118|274:74,1,71.999998160362,14|2,0:0|1:2,0:0:0:0:
212,16,205861,6,0,B|171:17|171:17|138:56,1,71.999998160362,14|0,0:0|0:0,0:0:0:0:
110,52,206075,1,2,1:2:0:0:
110,52,206147,2,0,L|128:148,1,71.999998160362,0|2,0:0|1:2,0:0:0:0:
42,188,206432,2,0,P|73:204|99:229,1,71.999998160362,10|0,0:0|0:0,0:0:0:0:
120,274,206647,1,2,1:2:0:0:
120,274,206718,2,0,L|207:254,1,71.999998160362,0|2,0:0|1:2,0:0:0:0:
269,191,207004,6,0,B|318:199|318:199|335:216|335:216|394:226,2,120.000000596046,14|2|2,0:0|0:0|0:0,0:0:0:0:
181,0,207861,1,10,0:0:0:0:
181,0,208004,5,10,0:0:0:0:
302,181,209147,5,0,1:0:0:0:
302,181,209289,2,0,B|311:116,1,60.000000298023,8|0,0:0|1:0,0:0:0:0:
255,49,209575,1,8,0:0:0:0:
197,118,209718,2,0,B|203:150|203:150|170:159|128:139|141:125|104:104|57:129,1,180.000000894069,0|10,1:0|0:0,0:0:0:0:
0,201,210289,6,0,L|21:329,1,120.000000596046,6|2,1:2|1:2,0:0:0:0:
97,366,210718,2,0,P|157:337|176:337,1,60.000000298023,10|2,0:0|0:0,0:0:0:0:
222,285,211004,2,0,P|199:263|171:251,2,60.000000298023,2|2|8,1:2|1:2|0:0,0:0:0:0:
322,323,211433,6,0,L|349:185,1,120.000000596046,2|2,1:2|1:2,0:0:0:0:
415,148,211861,2,0,P|369:123|341:119,1,60.000000298023,10|2,0:0|0:0,0:0:0:0:
284,73,212147,2,0,P|306:51|334:38,2,60.000000298023,2|2|8,1:2|1:2|0:0,0:0:0:0:
196,120,212575,6,0,B|160:112|111:84|111:84|111:130,1,120.000000596046,6|2,1:2|1:2,0:0:0:0:
31,155,213004,2,0,P|35:163|75:195,1,60.000000298023,10|2,0:0|0:0,0:0:0:0:
119,279,213290,1,2,1:2:0:0:
119,279,213433,2,0,P|144:291|138:261,1,60.000000298023,2|8,1:2|0:0,0:0:0:0:
232,203,213718,6,0,B|319:166|319:166|356:183,1,120.000000596046,6|2,1:2|1:2,0:0:0:0:
423,216,214147,2,0,P|433:186|456:165,1,60.000000298023,10|2,0:0|0:0,0:0:0:0:
469,77,214433,2,0,P|438:77|409:65,1,60.000000298023,2|2,1:2|1:2,0:0:0:0:
379,41,214647,1,2,0:0:0:0:
379,41,214718,2,0,L|313:45,1,60.000000298023,10|2,0:0|0:0,0:0:0:0:
221,10,215004,6,0,B|181:35|181:35|207:130,1,120.000000596046,6|10,1:2|0:0,0:0:0:0:
116,208,215433,1,2,0:0:0:0:
116,208,215575,2,0,P|158:189|197:195,1,60.000000298023,2|2,1:2|1:2,0:0:0:0:
243,262,215861,1,8,0:0:0:0:
243,262,216004,6,0,L|383:236,1,120.000000596046,2|2,1:2|1:2,0:0:0:0:
389,154,216433,2,0,P|418:161|438:185,1,60.000000298023,10|2,0:0|0:0,0:0:0:0:
443,273,216718,2,0,L|433:340,2,60.000000298023,2|2|8,1:2|1:2|0:0,0:0:0:0:
360,240,217147,6,0,B|327:220|327:220|220:243,1,120.000000596046,6|2,1:2|1:2,0:0:0:0:
182,182,217575,1,10,0:0:0:0:
182,182,217718,1,2,0:0:0:0:
113,240,217861,2,0,L|126:308,2,60.000000298023,10|2|0,0:0|1:2|1:0,0:0:0:0:
43,155,218290,6,0,P|43:103|119:104,1,120.000000596046,6|10,1:2|0:3,0:0:0:0:
177,40,218718,2,0,L|221:48,3,30.0000001490115,10|8|10|8,0:3|0:3|0:3|0:3,0:0:0:0:
241,74,219004,2,0,L|285:82,3,30.0000001490115,10|0|10|2,0:0|0:0|0:0|0:0,0:0:0:0:
308,56,219289,1,10,0:0:0:0:
395,75,219432,1,10,0:0:0:0:
285,232,220432,6,0,L|275:279,2,30.0000001490115,2|0|14,1:2|1:0|0:0,0:0:0:0:
457,291,220861,1,10,0:0:0:0:
381,354,221004,6,0,B|284:323|284:323|275:293|275:293|159:254,1,240.000001192092,14|0,0:0|0:0,0:0:0:0:
