osu file format v14

[General]
AudioFilename: audio.ogg
AudioLeadIn: 0
PreviewTime: 118427
Countdown: 0
SampleSet: Drum
StackLeniency: 0.4
Mode: 3
LetterboxInBreaks: 0
SpecialStyle: 0
WidescreenStoryboard: 1

[Editor]
Bookmarks: 4696,15982,25267,34410,43553,57267,66410,86839,91553,100696,109839,118982,139553,148696,157839,166982,182982,187553,189839,210267,221553
DistanceSpacing: 1
BeatDivisor: 4
GridSize: 32
TimelineZoom: 2.5

[Metadata]
Title:Sacrifice
TitleUnicode:Sacrifice
Artist:Ouse Akira
ArtistUnicode:逢瀬アキラ
Creator:Antipole
Version:Nothing's gonna change with you in the world
Source:ふゆから​、くるる。
Tags:シルキーズプラス silky's plus eroge visual novel vn japanese rock jrock j-rock video game videogame opening op ふゆくる Hidden is fun Hidden_is_fun fuyu kara fuyukara kururu
BeatmapID:3992097
BeatmapSetID:1932206

[Difficulty]
HPDrainRate:8.5
CircleSize:4
OverallDifficulty:8
ApproachRate:9.7
SliderMultiplier:1.76
SliderTickRate:1

[Events]
//Background and Video events
0,0,"bg.jpg",0,0
//Break Periods
//Storyboard Layer 0 (Background)
//Storyboard Layer 1 (Fail)
//Storyboard Layer 2 (Pass)
//Storyboard Layer 3 (Foreground)
//Storyboard Layer 4 (Overlay)
//Storyboard Sound Samples

[TimingPoints]
142,285.714285714286,4,3,1,70,1,0
66427,-100,4,3,1,70,0,1
74999,-100,4,3,1,70,0,0
75570,-100,4,3,1,70,0,1
86856,-100,4,3,1,70,0,0
118999,-100,4,3,1,70,0,1
127570,-100,4,3,1,70,0,0
128142,-100,4,3,1,70,0,1
139570,-100,4,3,1,70,0,0
157856,-100,4,3,1,70,0,1
166999,-100,4,3,1,70,0,0
189713,-100,4,3,1,70,0,1
196142,-100,4,3,1,70,0,0
196999,-100,4,3,1,70,0,1
210284,-100,4,3,1,70,0,0

[HitObjects]
64,192,142,5,0,0:0:0:0:
192,192,284,1,0,0:0:0:0:
320,192,427,1,0,0:0:0:0:
192,192,570,128,0,642:0:0:0:0:
320,192,713,128,0,784:0:0:0:0:
448,192,856,128,0,927:0:0:0:0:
448,192,999,128,0,1070:0:0:0:0:
192,192,1142,128,0,1213:0:0:0:0:
64,192,1284,128,0,1356:0:0:0:0:
320,192,1427,128,0,1570:0:0:0:0:
64,192,1570,128,0,1713:0:0:0:0:
448,192,1713,128,0,1856:0:0:0:0:
192,192,1856,128,0,1999:0:0:0:0:
320,192,1999,128,0,2142:0:0:0:0:
448,192,2142,128,0,2284:0:0:0:0:
64,192,2284,128,0,2427:0:0:0:0:
320,192,2427,128,0,2642:0:0:0:0:
192,192,2570,128,0,2784:0:0:0:0:
64,192,2713,128,0,2999:0:0:0:0:
448,192,2856,128,0,3284:0:0:0:0:
320,192,2999,128,0,3642:0:0:0:0:
64,192,3142,128,0,3427:0:0:0:0:
192,192,3284,128,0,3784:0:0:0:0:
448,192,3427,128,0,4070:0:0:0:0:
64,192,3570,128,0,3927:0:0:0:0:
320,192,3713,128,0,4499:0:0:0:0:
192,192,3856,128,0,4427:0:0:0:0:
64,192,3999,128,0,4356:0:0:0:0:
448,192,4142,128,0,4213:0:0:0:0:
448,192,4284,128,0,4356:0:0:0:0:
448,192,4427,128,0,4570:0:0:0:0:
192,192,4570,128,0,4713:0:0:0:0:
64,192,4713,1,2,0:0:0:0:
320,192,4713,128,4,5070:0:0:0:0:
448,192,4713,128,0,5642:0:0:0:0:
192,192,4999,128,0,5142:0:0:0:0:
64,192,5070,128,0,5284:0:0:0:0:
320,192,5284,128,0,5356:0:0:0:0:
64,192,5427,128,0,5642:0:0:0:0:
192,192,5499,128,0,5642:0:0:0:0:
64,192,5713,128,2,6642:0:0:0:0:
192,192,5713,128,4,6142:0:0:0:0:
448,192,5713,1,0,0:0:0:0:
320,192,6070,128,0,6213:0:0:0:0:
448,192,6142,128,0,6356:0:0:0:0:
192,192,6427,128,0,6499:0:0:0:0:
320,192,6570,128,0,6713:0:0:0:0:
64,192,6713,1,8,0:0:0:0:
192,192,6713,1,0,0:0:0:0:
448,192,6713,1,0,0:0:0:0:
64,192,6856,1,2,0:0:0:0:
320,192,6856,128,4,7070:0:0:0:0:
448,192,6856,128,0,7499:0:0:0:0:
192,192,7142,128,0,7213:0:0:0:0:
64,192,7284,128,0,7427:0:0:0:0:
320,192,7356,128,0,7499:0:0:0:0:
64,192,7570,1,8,0:0:0:0:
320,192,7570,1,0,0:0:0:0:
448,192,7570,128,0,7713:0:0:0:0:
64,192,7713,1,0,0:0:0:70:tom2.wav
192,192,7713,1,0,0:0:0:0:
320,192,7784,128,0,7927:0:0:0:0:
192,192,7856,1,0,0:0:0:70:tom3.wav
448,192,7856,1,0,0:0:0:0:
64,192,7999,128,4,8927:0:0:0:0:
320,192,7999,1,2,0:0:0:0:
448,192,7999,128,0,8213:0:0:0:0:
192,192,8284,1,8,0:0:0:0:
320,192,8284,1,0,0:0:0:0:
448,192,8284,1,0,0:0:0:0:
320,192,8427,1,0,0:0:0:0:
448,192,8499,1,2,0:0:0:0:
192,192,8570,1,0,0:0:0:70:tom1.wav
320,192,8642,1,0,0:0:0:0:
192,192,8713,1,0,0:0:0:70:tom1.wav
320,192,8903,1,2,0:0:0:0:
448,192,8951,1,2,0:0:0:0:
64,192,8999,1,8,0:0:0:0:
192,192,8999,1,0,0:0:0:0:
192,192,9142,1,0,0:0:0:0:
320,192,9142,1,0,0:0:0:0:
64,192,9284,1,2,0:0:0:0:
448,192,9284,1,8,0:0:0:20:drum-hitclap.wav
320,192,9356,1,8,0:0:0:20:drum-hitclap.wav
64,192,9427,1,8,0:0:0:20:drum-hitclap.wav
192,192,9427,1,0,0:0:0:0:
448,192,9499,1,8,0:0:0:20:drum-hitclap.wav
192,192,9570,1,2,0:0:0:0:
320,192,9570,1,8,0:0:0:20:drum-hitclap.wav
64,192,9642,1,8,0:0:0:20:drum-hitclap.wav
320,192,9713,1,8,0:0:0:20:drum-hitclap.wav
448,192,9713,1,0,0:0:0:0:
192,192,9784,1,8,0:0:0:20:drum-hitclap.wav
64,192,9856,1,2,0:0:0:0:
448,192,9856,1,8,0:0:0:20:drum-hitclap.wav
320,192,9927,1,8,0:0:0:20:drum-hitclap.wav
64,192,9999,1,8,0:0:0:20:drum-hitclap.wav
192,192,9999,1,0,0:0:0:0:
448,192,10070,1,8,0:0:0:20:drum-hitclap.wav
192,192,10142,1,2,0:0:0:0:
320,192,10142,1,8,0:0:0:20:drum-hitclap.wav
64,192,10213,1,8,0:0:0:20:drum-hitclap.wav
320,192,10284,1,8,0:0:0:20:drum-hitclap.wav
448,192,10284,1,0,0:0:0:0:
192,192,10356,1,8,0:0:0:20:drum-hitclap.wav
64,192,10427,1,2,0:0:0:0:
448,192,10427,1,8,0:0:0:30:drum-hitclap.wav
192,192,10499,1,8,0:0:0:30:drum-hitclap.wav
320,192,10570,1,8,0:0:0:30:drum-hitclap.wav
448,192,10570,1,0,0:0:0:0:
64,192,10642,1,8,0:0:0:30:drum-hitclap.wav
192,192,10713,1,2,0:0:0:0:
320,192,10713,1,8,0:0:0:30:drum-hitclap.wav
448,192,10784,1,8,0:0:0:30:drum-hitclap.wav
64,192,10856,1,8,0:0:0:30:drum-hitclap.wav
192,192,10856,1,0,0:0:0:0:
320,192,10927,1,8,0:0:0:30:drum-hitclap.wav
64,192,10999,1,2,0:0:0:0:
448,192,10999,1,8,0:0:0:30:drum-hitclap.wav
192,192,11070,1,8,0:0:0:30:drum-hitclap.wav
320,192,11142,1,8,0:0:0:30:drum-hitclap.wav
448,192,11142,1,0,0:0:0:0:
64,192,11213,1,8,0:0:0:30:drum-hitclap.wav
192,192,11284,1,2,0:0:0:0:
320,192,11284,1,8,0:0:0:30:drum-hitclap.wav
448,192,11356,1,8,0:0:0:30:drum-hitclap.wav
64,192,11427,1,8,0:0:0:30:drum-hitclap.wav
192,192,11427,1,0,0:0:0:0:
320,192,11499,1,8,0:0:0:30:drum-hitclap.wav
64,192,11570,128,2,13784:0:0:0:0:
192,192,11570,128,4,12999:0:0:0:0:
448,192,11570,1,0,0:0:0:0:
320,192,13284,128,0,13427:0:0:0:0:
192,192,13356,128,0,13642:0:0:0:0:
192,192,13713,128,0,13856:0:0:0:0:
320,192,13784,128,0,13927:0:0:0:0:
448,192,13856,128,0,14713:0:0:0:0:
192,192,14070,128,0,14284:0:0:0:0:
64,192,14142,128,0,14999:0:0:0:0:
320,192,14999,1,8,0:0:0:0:
448,192,14999,1,0,0:0:0:0:
64,192,15070,1,0,0:0:0:70:tom1.wav
192,192,15070,1,0,0:0:0:0:
320,192,15142,1,0,0:0:0:70:tom2.wav
192,192,15213,1,0,0:0:0:70:tom3.wav
64,192,15284,1,2,0:0:0:0:
448,192,15284,1,0,0:0:0:0:
320,192,15356,1,2,0:0:0:0:
64,192,15427,1,2,0:0:0:0:
192,192,15427,1,0,0:0:0:0:
320,192,15499,1,2,0:0:0:0:
64,192,15570,1,8,0:0:0:0:
192,192,15570,1,0,0:0:0:0:
448,192,15570,1,0,0:0:0:0:
64,192,15713,1,8,0:0:0:0:
192,192,15713,1,0,0:0:0:0:
448,192,15713,1,0,0:0:0:0:
64,192,15856,1,8,0:0:0:0:
320,192,15856,1,0,0:0:0:0:
448,192,15856,1,0,0:0:0:0:
64,192,15999,128,2,16142:0:0:0:0:
320,192,15999,128,4,16284:0:0:0:0:
448,192,15999,128,0,16284:0:0:0:0:
64,192,16284,1,2,0:0:0:0:
192,192,16284,128,0,16356:0:0:0:0:
64,192,16427,1,8,0:0:0:0:
320,192,16427,128,0,16499:0:0:0:0:
448,192,16427,1,0,0:0:0:0:
448,192,16570,128,0,16642:0:0:0:0:
64,192,16713,1,2,0:0:0:0:
320,192,16713,128,0,16856:0:0:0:0:
192,192,16856,128,2,16999:0:0:0:0:
448,192,16856,1,0,0:0:0:0:
64,192,16999,1,8,0:0:0:0:
320,192,16999,1,0,0:0:0:0:
448,192,16999,1,0,0:0:0:0:
64,192,17142,128,2,17427:0:0:0:0:
192,192,17142,128,0,17284:0:0:0:0:
320,192,17427,128,2,17499:0:0:0:0:
448,192,17427,1,0,0:0:0:0:
64,192,17570,1,8,0:0:0:0:
192,192,17570,128,0,17642:0:0:0:0:
448,192,17570,1,0,0:0:0:0:
64,192,17713,128,0,17784:0:0:0:0:
192,192,17856,128,2,17999:0:0:0:0:
320,192,17856,1,0,0:0:0:0:
64,192,17999,1,2,0:0:0:0:
320,192,17999,128,0,18142:0:0:0:0:
64,192,18142,1,8,0:0:0:0:
192,192,18142,1,0,0:0:0:0:
448,192,18142,1,0,0:0:0:0:
64,192,18284,128,2,18427:0:0:0:0:
320,192,18284,128,4,18570:0:0:0:0:
448,192,18284,128,0,18570:0:0:0:0:
64,192,18570,1,2,0:0:0:0:
192,192,18570,128,0,18642:0:0:0:0:
64,192,18713,1,8,0:0:0:0:
320,192,18713,128,0,18784:0:0:0:0:
448,192,18713,1,0,0:0:0:0:
192,192,18856,128,0,18927:0:0:0:0:
64,192,18999,1,2,0:0:0:0:
448,192,18999,128,0,19142:0:0:0:0:
64,192,19142,128,2,19284:0:0:0:0:
320,192,19142,1,0,0:0:0:0:
192,192,19284,1,8,0:0:0:0:
320,192,19284,1,0,0:0:0:0:
448,192,19284,1,0,0:0:0:0:
64,192,19427,128,2,19713:0:0:0:0:
192,192,19427,128,4,19713:0:0:0:0:
448,192,19427,128,0,19570:0:0:0:0:
320,192,19713,128,2,19784:0:0:0:0:
448,192,19713,1,0,0:0:0:0:
64,192,19856,128,8,19927:0:0:0:0:
192,192,19856,1,0,0:0:0:0:
448,192,19856,1,0,0:0:0:0:
64,192,19999,128,0,20070:0:0:0:0:
320,192,20142,128,2,20213:0:0:0:0:
448,192,20142,1,0,0:0:0:0:
64,192,20284,1,2,0:0:0:0:
320,192,20284,128,0,20356:0:0:0:0:
192,192,20356,128,0,20427:0:0:0:0:
64,192,20427,1,8,0:0:0:0:
320,192,20427,1,0,0:0:0:0:
448,192,20427,128,0,20570:0:0:0:0:
192,192,20570,128,0,20856:0:0:0:0:
64,192,20713,128,2,20856:0:0:0:0:
320,192,20713,1,4,0:0:0:0:
448,192,20713,128,0,20856:0:0:0:0:
320,192,20856,128,0,20927:0:0:0:0:
64,192,20999,1,8,0:0:0:0:
192,192,20999,128,0,21070:0:0:0:0:
448,192,20999,1,0,0:0:0:0:
64,192,21142,128,0,21213:0:0:0:0:
192,192,21284,128,2,21427:0:0:0:0:
448,192,21284,1,0,0:0:0:0:
64,192,21427,1,2,0:0:0:0:
320,192,21427,128,0,21570:0:0:0:0:
64,192,21570,1,8,0:0:0:0:
192,192,21570,1,0,0:0:0:0:
448,192,21570,1,0,0:0:0:0:
320,192,21713,128,2,21856:0:0:0:0:
448,192,21713,128,0,21999:0:0:0:0:
64,192,21999,1,2,0:0:0:0:
192,192,21999,128,0,22070:0:0:0:0:
64,192,22142,1,8,0:0:0:0:
320,192,22142,128,0,22213:0:0:0:0:
448,192,22142,1,0,0:0:0:0:
448,192,22284,128,0,22356:0:0:0:0:
192,192,22427,1,2,0:0:0:0:
320,192,22427,128,0,22570:0:0:0:0:
192,192,22570,128,2,22713:0:0:0:0:
448,192,22570,1,0,0:0:0:0:
64,192,22713,1,8,0:0:0:0:
320,192,22713,1,0,0:0:0:0:
448,192,22713,1,0,0:0:0:0:
64,192,22856,128,2,23142:0:0:0:0:
192,192,22856,128,4,23142:0:0:0:0:
448,192,22856,128,0,22999:0:0:0:0:
320,192,23142,128,2,23213:0:0:0:0:
448,192,23142,1,0,0:0:0:0:
64,192,23284,1,8,0:0:0:0:
192,192,23284,128,0,23356:0:0:0:0:
448,192,23284,1,0,0:0:0:0:
320,192,23427,128,0,23499:0:0:0:0:
64,192,23570,128,2,23713:0:0:0:0:
448,192,23570,1,0,0:0:0:0:
192,192,23713,1,2,0:0:0:0:
448,192,23713,128,0,23856:0:0:0:0:
64,192,23856,1,8,0:0:0:0:
192,192,23856,1,0,0:0:0:0:
320,192,23856,1,0,0:0:0:0:
64,192,23999,128,2,24213:0:0:0:0:
320,192,23999,128,4,24213:0:0:0:0:
448,192,23999,128,0,24213:0:0:0:0:
64,192,24284,1,8,0:0:0:0:
320,192,24284,1,0,0:0:0:0:
448,192,24284,1,0,0:0:0:0:
64,192,24427,1,8,0:0:0:0:
320,192,24427,1,0,0:0:0:0:
448,192,24427,1,0,0:0:0:0:
64,192,24570,1,8,0:0:0:0:
192,192,24570,1,0,0:0:0:0:
448,192,24570,1,0,0:0:0:0:
192,192,24713,1,2,0:0:0:0:
320,192,24713,1,0,0:0:0:0:
64,192,24856,128,8,25070:0:0:0:0:
320,192,24856,128,4,25142:0:0:0:0:
448,192,24856,128,0,25213:0:0:0:0:
64,192,25284,128,2,25356:0:0:0:0:
320,192,25284,128,4,25499:0:0:0:0:
64,192,25427,128,0,25499:0:0:0:0:
192,192,25570,1,2,0:0:0:0:
448,192,25570,128,0,25642:0:0:0:0:
448,192,25713,128,0,25784:0:0:0:0:
64,192,25856,1,2,0:0:0:0:
192,192,25856,128,0,25927:0:0:0:0:
192,192,25999,128,0,26070:0:0:0:0:
192,192,26142,128,2,26213:0:0:0:0:
448,192,26142,1,0,0:0:0:0:
320,192,26284,128,0,26356:0:0:0:0:
64,192,26427,1,2,0:0:0:0:
320,192,26427,128,0,26499:0:0:0:0:
192,192,26570,128,0,26642:0:0:0:0:
64,192,26713,128,2,26784:0:0:0:0:
448,192,26713,1,0,0:0:0:0:
320,192,26856,128,0,26927:0:0:0:0:
64,192,26999,1,2,0:0:0:0:
192,192,26999,128,0,27070:0:0:0:0:
448,192,27142,128,0,27213:0:0:0:0:
64,192,27284,128,2,27356:0:0:0:0:
320,192,27284,1,0,0:0:0:0:
64,192,27427,128,0,27499:0:0:0:0:
192,192,27570,128,2,27784:0:0:0:0:
448,192,27570,128,0,27642:0:0:0:0:
448,192,27713,128,0,27784:0:0:0:0:
64,192,27856,128,2,27927:0:0:0:0:
320,192,27856,1,0,0:0:0:0:
64,192,27999,128,0,28070:0:0:0:0:
320,192,28142,128,2,28213:0:0:0:0:
448,192,28142,1,0,0:0:0:0:
320,192,28284,128,0,28356:0:0:0:0:
64,192,28427,1,2,0:0:0:0:
320,192,28427,128,0,28499:0:0:0:0:
192,192,28570,128,0,28642:0:0:0:0:
192,192,28713,128,2,28784:0:0:0:0:
448,192,28713,1,0,0:0:0:0:
320,192,28856,128,0,28927:0:0:0:0:
64,192,28999,1,2,0:0:0:0:
448,192,28999,128,0,29070:0:0:0:0:
192,192,29142,128,0,29213:0:0:0:0:
320,192,29284,128,2,29356:0:0:0:0:
448,192,29284,1,0,0:0:0:0:
64,192,29427,128,0,29499:0:0:0:0:
192,192,29570,1,2,0:0:0:0:
448,192,29570,128,0,29642:0:0:0:0:
448,192,29713,128,0,29784:0:0:0:0:
64,192,29856,128,2,29927:0:0:0:0:
320,192,29856,128,0,30070:0:0:0:0:
64,192,29999,128,0,30070:0:0:0:0:
192,192,30142,1,2,0:0:0:0:
448,192,30142,128,0,30213:0:0:0:0:
448,192,30284,128,0,30356:0:0:0:0:
64,192,30427,1,2,0:0:0:0:
192,192,30427,128,0,30499:0:0:0:0:
192,192,30570,128,0,30642:0:0:0:0:
192,192,30713,128,2,30784:0:0:0:0:
448,192,30713,1,0,0:0:0:0:
320,192,30856,128,0,30927:0:0:0:0:
64,192,30999,1,2,0:0:0:0:
320,192,30999,128,0,31070:0:0:0:0:
192,192,31142,128,0,31213:0:0:0:0:
64,192,31284,128,2,31356:0:0:0:0:
448,192,31284,1,0,0:0:0:0:
320,192,31427,128,0,31499:0:0:0:0:
64,192,31570,1,2,0:0:0:0:
192,192,31570,128,0,31642:0:0:0:0:
448,192,31713,128,0,31784:0:0:0:0:
64,192,31856,128,2,31927:0:0:0:0:
320,192,31856,1,0,0:0:0:0:
64,192,31999,128,0,32070:0:0:0:0:
64,192,32142,128,2,32499:0:0:0:0:
320,192,32142,1,0,0:0:0:0:
320,192,32284,1,0,0:0:0:0:
192,192,32427,1,2,0:0:0:0:
448,192,32427,1,0,0:0:0:0:
192,192,32570,128,0,32927:0:0:0:0:
64,192,32713,1,2,0:0:0:0:
448,192,32713,1,0,0:0:0:0:
448,192,32856,1,0,0:0:0:0:
64,192,32999,1,2,0:0:0:0:
320,192,32999,128,0,33356:0:0:0:0:
64,192,33142,1,0,0:0:0:0:
192,192,33284,1,2,0:0:0:0:
448,192,33284,1,0,0:0:0:0:
64,192,33427,1,8,0:0:0:0:
320,192,33427,1,0,0:0:0:0:
448,192,33427,1,0,0:0:0:0:
64,192,33570,1,8,0:0:0:0:
192,192,33570,1,0,0:0:0:0:
448,192,33570,1,0,0:0:0:0:
192,192,33713,1,2,0:0:0:0:
320,192,33713,1,0,0:0:0:0:
320,192,33856,1,2,0:0:0:0:
448,192,33856,1,0,0:0:0:0:
64,192,33999,128,8,34284:0:0:0:0:
192,192,33999,128,0,34213:0:0:0:0:
448,192,33999,128,0,34142:0:0:0:0:
320,192,34284,1,8,0:0:0:0:
448,192,34284,1,0,0:0:0:0:
192,192,34356,1,8,0:0:0:0:
64,192,34427,1,2,0:0:0:0:
320,192,34427,1,4,0:0:0:0:
448,192,34427,1,0,0:0:0:0:
320,192,34570,1,0,0:0:0:0:
64,192,34713,1,8,0:0:0:0:
192,192,34713,128,2,34856:0:0:0:0:
448,192,34713,1,0,0:0:0:0:
448,192,34856,1,0,0:0:0:0:
64,192,34999,1,2,0:0:0:0:
320,192,34999,128,0,35070:0:0:0:0:
320,192,35142,128,0,35284:0:0:0:0:
64,192,35284,1,8,0:0:0:0:
192,192,35284,1,2,0:0:0:0:
448,192,35284,1,0,0:0:0:0:
64,192,35427,128,0,35642:0:0:0:0:
192,192,35570,1,2,0:0:0:0:
448,192,35570,1,0,0:0:0:0:
192,192,35713,128,0,35784:0:0:0:0:
64,192,35856,1,8,0:0:0:0:
320,192,35856,128,2,36070:0:0:0:0:
448,192,35856,1,0,0:0:0:0:
448,192,35999,128,0,36142:0:0:0:0:
64,192,36142,1,2,0:0:0:0:
192,192,36142,128,0,36213:0:0:0:0:
192,192,36284,128,0,36356:0:0:0:0:
64,192,36427,1,8,0:0:0:0:
320,192,36427,128,2,36713:0:0:0:0:
448,192,36427,1,0,0:0:0:0:
192,192,36570,128,0,36713:0:0:0:0:
64,192,36713,1,2,0:0:0:0:
448,192,36713,1,0,0:0:0:0:
192,192,36856,1,0,0:0:0:0:
320,192,36927,128,0,37070:0:0:0:0:
64,192,36999,1,8,0:0:0:0:
192,192,36999,1,2,0:0:0:0:
448,192,36999,128,0,37142:0:0:0:0:
64,192,37142,1,0,0:0:0:0:
192,192,37284,128,2,37427:0:0:0:0:
448,192,37284,1,0,0:0:0:0:
64,192,37356,128,0,37570:0:0:0:0:
320,192,37427,1,0,0:0:0:0:
192,192,37570,1,8,0:0:0:0:
320,192,37570,1,2,0:0:0:0:
448,192,37570,1,0,0:0:0:0:
448,192,37713,128,0,37927:0:0:0:0:
64,192,37856,1,2,0:0:0:0:
192,192,37856,1,0,0:0:0:0:
320,192,37999,128,0,38070:0:0:0:0:
64,192,38142,128,8,38213:0:0:0:0:
192,192,38142,1,2,0:0:0:0:
448,192,38142,1,0,0:0:0:0:
64,192,38284,128,0,38356:0:0:0:0:
192,192,38427,128,2,38499:0:0:0:0:
448,192,38427,1,0,0:0:0:0:
320,192,38570,128,0,38642:0:0:0:0:
64,192,38713,1,8,0:0:0:0:
192,192,38713,1,2,0:0:0:0:
448,192,38713,128,0,38999:0:0:0:0:
64,192,38856,128,0,38999:0:0:0:0:
192,192,38999,1,2,0:0:0:0:
320,192,38999,1,0,0:0:0:0:
448,192,39142,1,0,0:0:0:0:
64,192,39284,128,8,39427:0:0:0:0:
192,192,39284,1,2,0:0:0:0:
320,192,39284,1,0,0:0:0:0:
320,192,39427,1,0,0:0:0:0:
192,192,39570,1,2,0:0:0:0:
448,192,39570,128,0,39642:0:0:0:0:
192,192,39713,128,0,39856:0:0:0:0:
64,192,39856,1,8,0:0:0:0:
320,192,39856,1,2,0:0:0:0:
448,192,39856,1,0,0:0:0:0:
320,192,39999,128,0,40142:0:0:0:0:
448,192,40070,128,0,40356:0:0:0:0:
64,192,40142,1,2,0:0:0:0:
192,192,40142,1,0,0:0:0:0:
192,192,40284,1,0,0:0:0:0:
64,192,40427,1,8,0:0:0:0:
320,192,40427,128,2,40642:0:0:0:0:
448,192,40427,1,0,0:0:0:0:
64,192,40570,1,0,0:0:0:0:
192,192,40713,128,2,40927:0:0:0:0:
320,192,40713,1,0,0:0:0:0:
320,192,40856,1,0,0:0:0:0:
64,192,40999,128,8,41213:0:0:0:0:
192,192,40999,1,2,0:0:0:0:
448,192,40999,1,0,0:0:0:0:
448,192,41142,1,0,0:0:0:0:
64,192,41284,1,2,0:0:0:0:
448,192,41284,128,0,41570:0:0:0:0:
192,192,41427,1,0,0:0:0:0:
64,192,41570,1,8,0:0:0:0:
192,192,41570,1,2,0:0:0:0:
320,192,41570,1,0,0:0:0:0:
320,192,41713,128,0,42284:0:0:0:0:
64,192,41856,1,2,0:0:0:0:
448,192,41856,1,0,0:0:0:0:
192,192,41999,1,0,0:0:0:0:
64,192,42142,1,8,0:0:0:0:
192,192,42142,1,2,0:0:0:0:
448,192,42142,128,0,42427:0:0:0:0:
64,192,42284,1,0,0:0:0:0:
192,192,42427,1,2,0:0:0:0:
320,192,42427,1,0,0:0:0:0:
64,192,42570,1,8,0:0:0:0:
192,192,42570,128,0,42642:0:0:0:0:
448,192,42570,1,0,0:0:0:0:
64,192,42713,128,8,42927:0:0:0:0:
320,192,42713,1,0,0:0:0:0:
448,192,42713,1,0,0:0:0:0:
320,192,42856,1,0,0:0:0:0:
64,192,42999,1,8,0:0:0:0:
192,192,42999,1,0,0:0:0:0:
448,192,42999,128,0,43213:0:0:0:0:
192,192,43142,1,0,0:0:0:0:
64,192,43284,1,8,0:0:0:0:
320,192,43284,1,0,0:0:0:0:
448,192,43284,1,0,0:0:0:0:
64,192,43427,1,8,0:0:0:0:
448,192,43427,1,0,0:0:0:0:
192,192,43499,1,8,0:0:0:0:
64,192,43570,128,2,43856:0:0:0:0:
320,192,43570,128,4,43713:0:0:0:0:
448,192,43570,128,0,43713:0:0:0:0:
192,192,43856,1,8,0:0:0:0:
320,192,43856,1,0,0:0:0:0:
448,192,43856,128,0,43927:0:0:0:0:
448,192,43999,128,0,44070:0:0:0:0:
192,192,44142,1,2,0:0:0:0:
448,192,44142,128,0,44213:0:0:0:0:
64,192,44284,1,2,0:0:0:0:
448,192,44284,128,0,44356:0:0:0:0:
448,192,44427,128,0,44642:0:0:0:0:
64,192,44570,1,8,0:0:0:0:
192,192,44570,128,0,44784:0:0:0:0:
320,192,44570,1,0,0:0:0:0:
64,192,44713,128,2,44927:0:0:0:0:
320,192,44713,1,0,0:0:0:0:
64,192,44999,128,8,45070:0:0:0:0:
192,192,44999,1,0,0:0:0:0:
448,192,44999,1,0,0:0:0:0:
64,192,45142,128,0,45213:0:0:0:0:
64,192,45284,128,2,45356:0:0:0:0:
320,192,45284,1,0,0:0:0:0:
64,192,45427,128,2,45499:0:0:0:0:
448,192,45427,1,0,0:0:0:0:
64,192,45570,128,8,45713:0:0:0:0:
320,192,45570,1,0,0:0:0:0:
448,192,45570,1,0,0:0:0:0:
192,192,45642,128,0,45784:0:0:0:0:
320,192,45713,128,0,45927:0:0:0:0:
192,192,45856,128,2,45999:0:0:0:0:
448,192,45856,1,0,0:0:0:0:
64,192,45927,128,0,46142:0:0:0:0:
448,192,45999,128,0,46070:0:0:0:0:
192,192,46142,128,8,46213:0:0:0:0:
320,192,46142,1,0,0:0:0:0:
448,192,46142,1,0,0:0:0:0:
64,192,46284,1,0,0:0:0:0:
320,192,46427,128,2,46499:0:0:0:0:
448,192,46427,1,0,0:0:0:0:
192,192,46570,1,2,0:0:0:0:
320,192,46570,128,0,46713:0:0:0:0:
64,192,46713,1,0,0:0:0:0:
192,192,46713,1,0,0:0:0:0:
64,192,46856,128,8,46999:0:0:0:0:
320,192,46856,1,0,0:0:0:0:
448,192,46856,1,0,0:0:0:0:
192,192,46999,1,2,0:0:0:0:
448,192,46999,1,0,0:0:0:0:
192,192,47142,128,0,47284:0:0:0:0:
64,192,47284,1,8,0:0:0:0:
320,192,47284,1,0,0:0:0:0:
448,192,47284,1,0,0:0:0:0:
192,192,47427,1,0,0:0:0:0:
448,192,47427,128,0,47499:0:0:0:0:
64,192,47570,1,2,0:0:0:0:
320,192,47570,128,0,47642:0:0:0:0:
192,192,47713,128,2,47784:0:0:0:0:
448,192,47713,1,0,0:0:0:0:
64,192,47856,128,8,48070:0:0:0:0:
320,192,47856,128,0,47999:0:0:0:0:
448,192,47856,1,0,0:0:0:0:
64,192,48142,128,2,48284:0:0:0:0:
192,192,48142,128,4,48284:0:0:0:0:
448,192,48142,128,0,48427:0:0:0:0:
64,192,48427,128,8,48499:0:0:0:0:
192,192,48427,1,0,0:0:0:0:
320,192,48427,1,0,0:0:0:0:
64,192,48570,128,0,48642:0:0:0:0:
64,192,48713,128,2,48784:0:0:0:0:
320,192,48713,1,0,0:0:0:0:
64,192,48856,128,2,48927:0:0:0:0:
448,192,48856,1,0,0:0:0:0:
64,192,48999,128,0,49213:0:0:0:0:
192,192,49142,1,8,0:0:0:0:
320,192,49142,128,0,49356:0:0:0:0:
448,192,49142,1,0,0:0:0:0:
192,192,49284,1,2,0:0:0:0:
448,192,49284,128,0,49499:0:0:0:0:
64,192,49570,1,8,0:0:0:0:
320,192,49570,1,0,0:0:0:0:
448,192,49570,128,0,49642:0:0:0:0:
448,192,49713,128,0,49784:0:0:0:0:
192,192,49856,1,2,0:0:0:0:
448,192,49856,128,0,49927:0:0:0:0:
64,192,49999,1,2,0:0:0:0:
448,192,49999,128,0,50070:0:0:0:0:
64,192,50142,1,8,0:0:0:0:
192,192,50142,1,0,0:0:0:0:
448,192,50142,128,0,50284:0:0:0:0:
320,192,50213,128,0,50356:0:0:0:0:
192,192,50284,128,0,50499:0:0:0:0:
64,192,50427,1,2,0:0:0:0:
320,192,50427,128,0,50570:0:0:0:0:
448,192,50499,128,0,50713:0:0:0:0:
64,192,50570,128,0,50642:0:0:0:0:
64,192,50713,1,8,0:0:0:0:
192,192,50713,1,0,0:0:0:0:
320,192,50713,128,0,50784:0:0:0:0:
448,192,50856,1,0,0:0:0:0:
64,192,50999,1,2,0:0:0:0:
192,192,50999,128,0,51070:0:0:0:0:
192,192,51142,1,2,0:0:0:0:
320,192,51142,1,0,0:0:0:0:
320,192,51284,128,0,51356:0:0:0:0:
448,192,51284,1,0,0:0:0:0:
64,192,51427,1,8,0:0:0:0:
192,192,51427,1,0,0:0:0:0:
448,192,51427,128,0,51570:0:0:0:0:
64,192,51570,1,2,0:0:0:0:
320,192,51570,1,0,0:0:0:0:
320,192,51713,128,0,51856:0:0:0:0:
64,192,51856,1,8,0:0:0:0:
192,192,51856,1,0,0:0:0:0:
448,192,51856,128,0,51999:0:0:0:0:
64,192,51999,128,0,52070:0:0:0:0:
320,192,51999,1,0,0:0:0:0:
192,192,52142,128,2,52213:0:0:0:0:
448,192,52142,1,0,0:0:0:0:
64,192,52284,1,2,0:0:0:0:
320,192,52284,128,0,52356:0:0:0:0:
64,192,52427,1,8,0:0:0:0:
192,192,52427,128,0,52570:0:0:0:0:
448,192,52427,128,0,52642:0:0:0:0:
64,192,52713,128,2,52856:0:0:0:0:
192,192,52713,128,4,52856:0:0:0:0:
448,192,52713,128,0,52999:0:0:0:0:
64,192,52999,128,8,53070:0:0:0:0:
192,192,52999,1,0,0:0:0:0:
320,192,52999,1,0,0:0:0:0:
64,192,53142,128,0,53213:0:0:0:0:
64,192,53284,128,2,53356:0:0:0:0:
448,192,53284,1,0,0:0:0:0:
64,192,53427,128,2,53499:0:0:0:0:
320,192,53427,1,0,0:0:0:0:
64,192,53570,128,8,53784:0:0:0:0:
192,192,53570,1,0,0:0:0:0:
448,192,53570,1,0,0:0:0:0:
320,192,53713,128,0,53927:0:0:0:0:
192,192,53856,1,2,0:0:0:0:
448,192,53856,128,0,54070:0:0:0:0:
64,192,54142,1,8,0:0:0:0:
320,192,54142,1,0,0:0:0:0:
448,192,54142,128,0,54213:0:0:0:0:
448,192,54284,128,0,54356:0:0:0:0:
64,192,54427,1,2,0:0:0:0:
448,192,54427,128,0,54499:0:0:0:0:
192,192,54570,1,2,0:0:0:0:
448,192,54570,128,0,54642:0:0:0:0:
64,192,54713,1,8,0:0:0:0:
320,192,54713,1,0,0:0:0:0:
448,192,54713,128,0,54927:0:0:0:0:
192,192,54856,128,0,55070:0:0:0:0:
64,192,54999,128,2,55213:0:0:0:0:
320,192,54999,1,0,0:0:0:0:
320,192,55142,128,0,55356:0:0:0:0:
64,192,55284,1,8,0:0:0:0:
192,192,55284,128,0,55570:0:0:0:0:
448,192,55284,1,0,0:0:0:0:
320,192,55499,128,0,55642:0:0:0:0:
64,192,55570,1,2,0:0:0:0:
448,192,55570,128,0,55784:0:0:0:0:
64,192,55713,1,2,0:0:0:0:
192,192,55713,1,0,0:0:0:0:
64,192,55856,128,8,56070:0:0:0:0:
320,192,55856,1,0,0:0:0:0:
448,192,55856,1,0,0:0:0:0:
448,192,55999,128,0,56284:0:0:0:0:
64,192,56142,1,2,0:0:0:0:
192,192,56142,1,0,0:0:0:0:
192,192,56284,128,0,56499:0:0:0:0:
64,192,56427,128,8,56713:0:0:0:0:
320,192,56427,1,0,0:0:0:0:
448,192,56427,1,0,0:0:0:0:
192,192,56642,128,0,56784:0:0:0:0:
320,192,56713,128,2,56927:0:0:0:0:
448,192,56713,1,0,0:0:0:0:
64,192,56856,1,2,0:0:0:0:
192,192,56856,1,0,0:0:0:0:
64,192,56999,1,8,0:0:0:0:
320,192,56999,1,0,0:0:0:0:
448,192,56999,1,0,0:0:0:0:
192,192,57142,1,8,0:0:0:0:
448,192,57142,1,0,0:0:0:0:
320,192,57213,1,8,0:0:0:0:
64,192,57284,1,2,0:0:0:0:
192,192,57284,1,4,0:0:0:0:
448,192,57284,1,0,0:0:0:0:
64,192,57427,1,0,0:0:0:0:
192,192,57570,1,8,0:0:0:0:
320,192,57570,1,0,0:0:0:0:
448,192,57570,1,0,0:0:0:0:
320,192,57713,1,0,0:0:0:0:
64,192,57856,1,8,0:0:0:0:
320,192,57856,1,0,0:0:0:0:
448,192,57856,1,0,0:0:0:0:
192,192,57999,1,2,0:0:0:0:
448,192,57999,1,0,0:0:0:0:
64,192,58142,1,8,0:0:0:0:
192,192,58142,1,0,0:0:0:0:
320,192,58142,1,0,0:0:0:0:
64,192,58284,1,2,0:0:0:0:
320,192,58284,1,0,0:0:0:0:
64,192,58427,1,8,0:0:0:0:
192,192,58427,1,0,0:0:0:0:
448,192,58427,1,0,0:0:0:0:
320,192,58570,1,0,0:0:0:0:
64,192,58713,1,8,0:0:0:0:
320,192,58713,1,0,0:0:0:0:
448,192,58713,1,0,0:0:0:0:
192,192,58856,1,2,0:0:0:0:
448,192,58856,1,0,0:0:0:0:
64,192,58999,1,8,0:0:0:0:
192,192,58999,1,0,0:0:0:0:
320,192,58999,1,0,0:0:0:0:
64,192,59142,1,2,0:0:0:0:
320,192,59142,1,0,0:0:0:0:
192,192,59284,1,8,0:0:0:0:
320,192,59284,1,0,0:0:0:0:
448,192,59284,1,0,0:0:0:0:
64,192,59427,1,2,0:0:0:0:
192,192,59427,1,0,0:0:0:0:
64,192,59570,1,8,0:0:0:0:
320,192,59570,1,2,0:0:0:0:
448,192,59570,1,0,0:0:0:0:
64,192,59713,1,2,0:0:0:0:
320,192,59713,1,8,0:0:0:0:
448,192,59713,1,0,0:0:0:0:
192,192,59856,1,2,0:0:0:0:
320,192,59927,1,2,0:0:0:0:
64,192,59999,1,2,0:0:0:0:
192,192,59999,1,8,0:0:0:0:
448,192,59999,1,0,0:0:0:0:
64,192,60142,1,2,0:0:0:0:
192,192,60142,1,8,0:0:0:0:
448,192,60142,1,0,0:0:0:0:
320,192,60284,1,2,0:0:0:0:
192,192,60356,1,2,0:0:0:0:
64,192,60427,1,2,0:0:0:0:
320,192,60427,1,8,0:0:0:0:
448,192,60427,1,0,0:0:0:0:
64,192,60570,1,2,0:0:0:0:
320,192,60570,1,8,0:0:0:0:
448,192,60570,1,0,0:0:0:0:
192,192,60713,1,2,0:0:0:0:
320,192,60784,1,2,0:0:0:0:
64,192,60856,1,2,0:0:0:0:
192,192,60856,1,8,0:0:0:0:
448,192,60856,1,0,0:0:0:0:
64,192,60999,1,2,0:0:0:0:
192,192,60999,1,8,0:0:0:0:
448,192,60999,1,0,0:0:0:0:
320,192,61142,1,2,0:0:0:0:
192,192,61213,1,2,0:0:0:0:
320,192,61284,1,8,0:0:0:0:
448,192,61284,1,0,0:0:0:0:
64,192,61356,1,8,0:0:0:0:
192,192,61356,1,0,0:0:0:0:
448,192,61427,1,2,0:0:0:0:
320,192,61499,1,2,0:0:0:0:
64,192,61570,1,0,0:0:0:70:tom1.wav
192,192,61570,1,0,0:0:0:0:
320,192,61642,1,0,0:0:0:70:tom2.wav
448,192,61642,1,0,0:0:0:0:
64,192,61713,1,0,0:0:0:70:tom3.wav
192,192,61713,1,0,0:0:0:0:
320,192,61784,1,0,0:0:0:0:
64,192,61856,128,8,62213:0:0:0:0:
192,192,61856,1,2,0:0:0:0:
448,192,61856,128,0,62213:0:0:0:0:
64,192,62284,128,0,62642:0:0:0:0:
448,192,62284,128,0,62642:0:0:0:0:
192,192,62713,128,0,63070:0:0:0:0:
448,192,62713,128,0,63070:0:0:0:0:
192,192,63142,128,0,63499:0:0:0:0:
448,192,63142,128,0,63499:0:0:0:0:
320,192,63570,128,0,63999:0:0:0:0:
448,192,63570,128,0,63999:0:0:0:0:
192,192,64046,1,2,0:0:0:0:
320,192,64094,1,2,0:0:0:0:
64,192,64142,128,8,64261:0:0:0:0:
192,192,64142,1,0,0:0:0:0:
448,192,64142,1,0,0:0:0:0:
320,192,64261,128,0,64374:0:0:0:0:
192,192,64374,128,0,64481:0:0:0:0:
448,192,64427,128,0,64570:0:0:0:0:
64,192,64570,1,0,0:0:0:0:
320,192,64618,1,2,0:0:0:0:
192,192,64665,1,2,0:0:0:0:
64,192,64713,128,8,64808:0:0:0:0:
320,192,64713,1,0,0:0:0:0:
448,192,64713,1,0,0:0:0:0:
192,192,64903,128,0,64999:0:0:0:0:
320,192,65046,128,0,65142:0:0:0:0:
64,192,65142,128,8,65356:0:0:0:0:
192,192,65142,128,4,65356:0:0:0:0:
448,192,65142,128,0,65356:0:0:0:0:
64,192,65427,1,8,0:0:0:0:
192,192,65427,1,0,0:0:0:0:
448,192,65427,1,0,0:0:0:0:
64,192,65570,1,8,0:0:0:0:
192,192,65570,1,0,0:0:0:0:
448,192,65570,1,0,0:0:0:0:
64,192,65713,128,8,65856:0:0:0:0:
320,192,65713,128,0,65856:0:0:0:0:
448,192,65713,128,0,65856:0:0:0:0:
192,192,65856,1,0,0:0:0:0:
64,192,65999,128,8,66284:0:0:0:0:
448,192,65999,128,0,66284:0:0:0:0:
192,192,66142,128,2,66284:0:0:0:0:
320,192,66142,128,0,66284:0:0:0:0:
64,192,66427,128,2,66713:0:0:0:0:
320,192,66427,128,4,66570:0:0:0:0:
448,192,66427,1,0,0:0:0:0:
192,192,66713,1,8,0:0:0:0:
320,192,66713,128,0,66999:0:0:0:0:
448,192,66713,1,0,0:0:0:0:
448,192,66856,128,0,67142:0:0:0:0:
64,192,66999,128,2,67070:0:0:0:0:
192,192,66999,1,0,0:0:0:0:
192,192,67142,128,2,67284:0:0:0:0:
320,192,67142,1,0,0:0:0:0:
64,192,67284,1,8,0:0:0:0:
320,192,67284,1,0,0:0:0:0:
448,192,67284,1,0,0:0:0:0:
192,192,67427,128,2,67713:0:0:0:0:
448,192,67427,128,0,67570:0:0:0:0:
320,192,67713,1,2,0:0:0:0:
448,192,67713,1,0,0:0:0:0:
64,192,67856,1,8,0:0:0:0:
192,192,67856,128,0,68142:0:0:0:0:
448,192,67856,1,0,0:0:0:0:
64,192,67999,128,0,68284:0:0:0:0:
320,192,68142,1,2,0:0:0:0:
448,192,68142,128,0,68213:0:0:0:0:
192,192,68284,1,2,0:0:0:0:
320,192,68284,128,0,68356:0:0:0:0:
64,192,68427,1,8,0:0:0:0:
192,192,68427,128,0,68499:0:0:0:0:
448,192,68427,1,0,0:0:0:0:
64,192,68570,1,2,0:0:0:0:
320,192,68570,128,0,68713:0:0:0:0:
448,192,68642,128,0,68784:0:0:0:0:
192,192,68713,1,0,0:0:0:0:
192,192,68856,128,2,68999:0:0:0:0:
320,192,68856,1,0,0:0:0:0:
64,192,68927,128,0,69070:0:0:0:0:
320,192,68999,1,8,0:0:0:0:
448,192,68999,1,0,0:0:0:0:
448,192,69142,128,0,69284:0:0:0:0:
192,192,69284,128,2,69427:0:0:0:0:
320,192,69284,1,0,0:0:0:0:
64,192,69427,1,2,0:0:0:0:
320,192,69427,128,0,69570:0:0:0:0:
64,192,69570,1,8,0:0:0:0:
192,192,69570,1,0,0:0:0:0:
448,192,69570,1,0,0:0:0:0:
64,192,69713,128,2,69856:0:0:0:0:
320,192,69713,128,0,69999:0:0:0:0:
448,192,69713,128,0,69999:0:0:0:0:
64,192,69999,1,2,0:0:0:0:
192,192,69999,1,0,0:0:0:0:
64,192,70142,1,8,0:0:0:0:
320,192,70142,1,0,0:0:0:0:
448,192,70142,1,0,0:0:0:0:
192,192,70427,1,2,0:0:0:0:
448,192,70427,1,0,0:0:0:0:
64,192,70570,1,2,0:0:0:0:
192,192,70570,128,0,70642:0:0:0:0:
64,192,70713,1,8,0:0:0:0:
320,192,70713,128,0,70784:0:0:0:0:
448,192,70713,1,0,0:0:0:0:
192,192,70856,1,0,0:0:0:0:
448,192,70856,128,0,70927:0:0:0:0:
64,192,70999,1,2,0:0:0:0:
192,192,70999,128,4,71284:0:0:0:0:
320,192,70999,128,0,71142:0:0:0:0:
64,192,71213,128,0,71427:0:0:0:0:
320,192,71284,1,8,0:0:0:0:
448,192,71284,1,0,0:0:0:0:
448,192,71427,128,0,71499:0:0:0:0:
192,192,71570,128,2,71713:0:0:0:0:
320,192,71570,128,0,71856:0:0:0:0:
64,192,71713,1,2,0:0:0:0:
448,192,71784,128,0,71999:0:0:0:0:
64,192,71856,1,8,0:0:0:0:
192,192,71856,1,0,0:0:0:0:
192,192,71999,128,0,72070:0:0:0:0:
64,192,72142,1,2,0:0:0:0:
320,192,72142,128,0,72427:0:0:0:0:
448,192,72142,128,0,72284:0:0:0:0:
192,192,72356,128,0,72570:0:0:0:0:
64,192,72427,1,8,0:0:0:0:
448,192,72427,1,0,0:0:0:0:
448,192,72570,128,0,72642:0:0:0:0:
64,192,72713,128,2,72856:0:0:0:0:
192,192,72713,128,0,72999:0:0:0:0:
448,192,72856,1,2,0:0:0:0:
320,192,72927,128,0,73142:0:0:0:0:
64,192,72999,1,8,0:0:0:0:
448,192,72999,1,0,0:0:0:0:
64,192,73142,128,2,73213:0:0:0:0:
192,192,73142,1,0,0:0:0:0:
64,192,73284,1,8,0:0:0:0:
320,192,73284,128,4,73570:0:0:0:0:
448,192,73284,128,0,73570:0:0:0:0:
192,192,73427,1,2,0:0:0:0:
192,192,73570,1,2,0:0:0:0:
64,192,73713,128,8,73999:0:0:0:0:
192,192,73713,128,4,73999:0:0:0:0:
448,192,73713,1,0,0:0:0:0:
320,192,73856,1,2,0:0:0:0:
320,192,73999,1,2,0:0:0:0:
192,192,74142,1,8,0:0:0:0:
320,192,74142,128,4,74427:0:0:0:0:
448,192,74142,128,0,74427:0:0:0:0:
64,192,74284,1,2,0:0:0:0:
64,192,74427,1,2,0:0:0:0:
64,192,74570,128,8,74856:0:0:0:0:
192,192,74570,128,4,74856:0:0:0:0:
320,192,74570,1,0,0:0:0:0:
448,192,74713,1,2,0:0:0:0:
448,192,74856,1,2,0:0:0:0:
64,192,74999,128,8,75070:0:0:0:0:
192,192,74999,128,4,75070:0:0:0:0:
448,192,74999,128,0,75142:0:0:0:0:
64,192,75142,1,2,0:0:0:0:
192,192,75142,1,0,0:0:0:0:
64,192,75284,128,8,75427:0:0:0:0:
320,192,75284,128,4,75356:0:0:0:0:
448,192,75284,128,0,75356:0:0:0:0:
320,192,75427,1,2,0:0:0:0:
448,192,75427,1,0,0:0:0:0:
64,192,75570,1,2,0:0:0:0:
192,192,75570,128,4,75713:0:0:0:0:
448,192,75570,128,0,75856:0:0:0:0:
64,192,75856,1,8,0:0:0:0:
192,192,75856,128,0,76142:0:0:0:0:
320,192,75856,1,0,0:0:0:0:
64,192,75999,128,0,76284:0:0:0:0:
320,192,76142,1,2,0:0:0:0:
448,192,76142,128,0,76213:0:0:0:0:
192,192,76284,1,2,0:0:0:0:
320,192,76284,128,0,76427:0:0:0:0:
64,192,76427,1,8,0:0:0:0:
192,192,76427,1,0,0:0:0:0:
448,192,76427,1,0,0:0:0:0:
64,192,76570,128,2,76713:0:0:0:0:
320,192,76570,128,0,76856:0:0:0:0:
64,192,76856,1,2,0:0:0:0:
192,192,76856,1,0,0:0:0:0:
64,192,76999,1,8,0:0:0:0:
320,192,76999,128,0,77284:0:0:0:0:
448,192,76999,1,0,0:0:0:0:
448,192,77142,128,0,77427:0:0:0:0:
64,192,77284,128,2,77356:0:0:0:0:
192,192,77284,1,0,0:0:0:0:
192,192,77427,128,2,77499:0:0:0:0:
320,192,77427,1,0,0:0:0:0:
64,192,77570,1,8,0:0:0:0:
320,192,77570,128,0,77642:0:0:0:0:
448,192,77570,1,0,0:0:0:0:
192,192,77713,128,2,77856:0:0:0:0:
448,192,77713,1,0,0:0:0:0:
64,192,77784,128,0,78070:0:0:0:0:
320,192,77856,1,0,0:0:0:0:
320,192,77999,128,2,78070:0:0:0:0:
448,192,77999,1,0,0:0:0:0:
64,192,78142,1,8,0:0:0:0:
192,192,78142,128,0,78213:0:0:0:0:
448,192,78142,1,0,0:0:0:0:
64,192,78284,128,0,78356:0:0:0:0:
192,192,78427,1,2,0:0:0:0:
320,192,78427,128,0,78570:0:0:0:0:
192,192,78570,128,2,78713:0:0:0:0:
448,192,78570,1,0,0:0:0:0:
64,192,78713,1,8,0:0:0:0:
320,192,78713,1,0,0:0:0:0:
448,192,78713,1,0,0:0:0:0:
64,192,78856,128,2,79142:0:0:0:0:
192,192,78856,128,0,79142:0:0:0:0:
448,192,78856,128,0,78999:0:0:0:0:
320,192,79142,1,2,0:0:0:0:
448,192,79142,1,0,0:0:0:0:
64,192,79284,1,8,0:0:0:0:
192,192,79284,1,0,0:0:0:0:
448,192,79284,1,0,0:0:0:0:
64,192,79570,1,2,0:0:0:0:
320,192,79570,1,0,0:0:0:0:
320,192,79713,128,2,79784:0:0:0:0:
448,192,79713,1,0,0:0:0:0:
64,192,79856,1,8,0:0:0:0:
192,192,79856,128,0,79927:0:0:0:0:
448,192,79856,1,0,0:0:0:0:
64,192,79999,128,0,80070:0:0:0:0:
320,192,79999,1,0,0:0:0:0:
192,192,80142,128,2,80284:0:0:0:0:
320,192,80142,128,4,80427:0:0:0:0:
448,192,80142,1,0,0:0:0:0:
448,192,80356,128,0,80570:0:0:0:0:
64,192,80427,1,8,0:0:0:0:
192,192,80427,1,0,0:0:0:0:
64,192,80570,128,0,80642:0:0:0:0:
192,192,80713,128,2,80999:0:0:0:0:
320,192,80713,128,0,80856:0:0:0:0:
448,192,80856,1,2,0:0:0:0:
64,192,80927,128,0,81142:0:0:0:0:
320,192,80999,1,8,0:0:0:0:
448,192,80999,1,0,0:0:0:0:
320,192,81142,128,2,81213:0:0:0:0:
64,192,81284,128,8,81427:0:0:0:0:
192,192,81284,128,0,81427:0:0:0:0:
448,192,81284,128,0,81356:0:0:0:0:
320,192,81427,1,2,0:0:0:0:
448,192,81427,1,0,0:0:0:0:
64,192,81570,128,8,81642:0:0:0:0:
320,192,81570,128,0,81713:0:0:0:0:
448,192,81570,128,0,81713:0:0:0:0:
64,192,81713,1,2,0:0:0:0:
192,192,81713,1,0,0:0:0:0:
64,192,81856,128,8,81999:0:0:0:0:
192,192,81856,128,0,81999:0:0:0:0:
448,192,81856,128,0,81927:0:0:0:0:
320,192,81999,1,2,0:0:0:0:
448,192,81999,1,0,0:0:0:0:
64,192,82142,1,8,0:0:0:0:
192,192,82142,1,0,0:0:0:0:
320,192,82142,128,0,82427:0:0:0:0:
64,192,82284,1,2,0:0:0:0:
192,192,82284,1,4,0:0:0:0:
448,192,82284,128,0,83570:0:0:0:0:
64,192,82570,1,2,0:0:0:0:
192,192,82570,1,0,0:0:0:0:
64,192,82713,1,8,0:0:0:0:
320,192,82713,1,0,0:0:0:0:
64,192,82999,1,2,0:0:0:0:
192,192,82999,1,0,0:0:0:0:
192,192,83142,1,2,0:0:0:0:
320,192,83142,1,0,0:0:0:0:
64,192,83284,1,8,0:0:0:0:
320,192,83284,1,0,0:0:0:0:
64,192,83570,1,2,0:0:0:0:
192,192,83570,1,0,0:0:0:0:
64,192,83713,1,2,0:0:0:0:
320,192,83713,1,0,0:0:0:0:
192,192,83856,1,8,0:0:0:0:
320,192,83856,1,0,0:0:0:0:
448,192,83856,1,0,0:0:0:0:
64,192,84142,1,2,0:0:0:0:
320,192,84142,1,0,0:0:0:0:
320,192,84284,128,2,84356:0:0:0:0:
448,192,84284,1,0,0:0:0:0:
64,192,84427,1,8,0:0:0:0:
192,192,84427,128,0,84499:0:0:0:0:
448,192,84427,1,0,0:0:0:0:
64,192,84570,128,0,84642:0:0:0:0:
192,192,84713,1,2,0:0:0:0:
320,192,84713,1,4,0:0:0:0:
448,192,84713,1,0,0:0:0:0:
64,192,84856,1,0,0:0:0:70:tom3.wav
320,192,84927,1,0,0:0:0:70:tom2.wav
448,192,84927,1,0,0:0:0:0:
64,192,84999,1,0,0:0:0:70:tom1.wav
192,192,84999,1,0,0:0:0:0:
448,192,85070,1,2,0:0:0:0:
320,192,85142,1,2,0:0:0:0:
64,192,85213,1,0,0:0:0:70:tom1.wav
192,192,85213,1,0,0:0:0:0:
320,192,85284,1,2,0:0:0:0:
448,192,85284,1,0,0:0:0:70:tom2.wav
64,192,85356,1,0,0:0:0:0:
192,192,85427,1,0,0:0:0:0:
448,192,85499,1,0,0:0:0:0:
64,192,85570,1,2,0:0:0:0:
192,192,85570,1,0,0:0:0:0:
320,192,85642,1,0,0:0:0:0:
64,192,85713,1,2,0:0:0:0:
448,192,85713,1,0,0:0:0:0:
192,192,85784,1,0,0:0:0:0:
64,192,85856,1,8,0:0:0:0:
320,192,85856,128,0,85999:0:0:0:0:
448,192,85856,1,0,0:0:0:0:
64,192,85999,1,8,0:0:0:0:
192,192,85999,1,2,0:0:0:0:
448,192,85999,1,0,0:0:0:0:
320,192,86142,128,0,86284:0:0:0:0:
320,192,86427,128,0,86570:0:0:0:0:
192,192,86713,128,0,86856:0:0:0:0:
64,192,86856,128,2,86999:0:0:0:0:
320,192,86856,128,4,87142:0:0:0:0:
448,192,86856,128,0,87142:0:0:0:0:
64,192,87142,1,2,0:0:0:0:
192,192,87142,128,0,87213:0:0:0:0:
64,192,87284,1,8,0:0:0:0:
320,192,87284,128,0,87356:0:0:0:0:
448,192,87284,1,0,0:0:0:0:
448,192,87427,128,0,87642:0:0:0:0:
64,192,87570,1,2,0:0:0:0:
192,192,87570,1,0,0:0:0:0:
64,192,87713,1,2,0:0:0:0:
320,192,87713,128,0,87784:0:0:0:0:
192,192,87784,128,0,87856:0:0:0:0:
64,192,87856,1,8,0:0:0:0:
320,192,87856,128,0,87927:0:0:0:0:
448,192,87856,1,0,0:0:0:0:
192,192,87999,1,2,0:0:0:0:
448,192,87999,128,0,88070:0:0:0:0:
320,192,88142,128,0,88213:0:0:0:0:
64,192,88284,128,2,88356:0:0:0:0:
192,192,88284,1,0,0:0:0:0:
64,192,88427,1,8,0:0:0:0:
320,192,88427,128,0,88499:0:0:0:0:
448,192,88427,1,0,0:0:0:0:
192,192,88570,128,0,88784:0:0:0:0:
64,192,88713,128,2,88927:0:0:0:0:
448,192,88713,1,0,0:0:0:0:
192,192,88856,128,2,88927:0:0:0:0:
320,192,88856,1,0,0:0:0:0:
64,192,88999,1,8,0:0:0:0:
320,192,88999,1,0,0:0:0:0:
448,192,88999,1,0,0:0:0:0:
64,192,89142,128,2,89427:0:0:0:0:
192,192,89142,128,4,89427:0:0:0:0:
448,192,89142,128,0,89284:0:0:0:0:
320,192,89427,1,2,0:0:0:0:
448,192,89427,1,0,0:0:0:0:
64,192,89570,1,8,0:0:0:0:
192,192,89570,1,0,0:0:0:0:
448,192,89570,1,0,0:0:0:0:
64,192,89713,1,2,0:0:0:0:
320,192,89713,1,0,0:0:0:0:
192,192,89784,1,2,0:0:0:0:
320,192,89856,1,8,0:0:0:0:
448,192,89856,1,2,0:0:0:0:
64,192,89927,1,8,0:0:0:0:
192,192,89927,1,0,0:0:0:0:
448,192,89999,1,2,0:0:0:0:
320,192,90070,1,2,0:0:0:0:
64,192,90142,1,2,0:0:0:0:
192,192,90142,1,0,0:0:0:0:
320,192,90213,1,2,0:0:0:0:
448,192,90213,1,0,0:0:0:0:
64,192,90284,1,2,0:0:0:0:
192,192,90284,1,0,0:0:0:0:
320,192,90356,1,2,0:0:0:0:
64,192,90427,128,8,90499:0:0:0:0:
192,192,90427,128,0,90499:0:0:0:0:
448,192,90427,128,0,90499:0:0:0:0:
64,192,90570,128,8,90713:0:0:0:0:
192,192,90570,128,2,90713:0:0:0:0:
448,192,90570,128,0,90713:0:0:0:0:
64,192,90856,128,2,90999:0:0:0:0:
192,192,90856,128,8,90999:0:0:0:0:
448,192,90856,128,0,90999:0:0:0:0:
64,192,91142,128,8,91427:0:0:0:0:
192,192,91142,128,4,91427:0:0:0:0:
320,192,91142,128,0,91427:0:0:0:0:
448,192,91142,128,0,91427:0:0:0:0:
64,192,91570,1,2,0:0:0:0:
320,192,91570,1,4,0:0:0:0:
448,192,91570,1,0,0:0:0:0:
192,192,91713,1,2,0:0:0:0:
320,192,91713,1,0,0:0:0:0:
64,192,91856,1,8,0:0:0:0:
192,192,91856,128,0,91999:0:0:0:0:
448,192,91856,1,0,0:0:0:0:
448,192,91999,1,0,0:0:0:0:
192,192,92070,128,0,92213:0:0:0:0:
64,192,92142,128,0,92356:0:0:0:0:
320,192,92142,1,0,0:0:0:0:
320,192,92284,1,0,0:0:0:0:
64,192,92427,1,8,0:0:0:0:
192,192,92427,1,0,0:0:0:0:
448,192,92427,128,0,92499:0:0:0:0:
64,192,92570,1,2,0:0:0:0:
448,192,92570,128,0,92784:0:0:0:0:
192,192,92713,1,0,0:0:0:0:
192,192,92856,128,2,92999:0:0:0:0:
320,192,92856,1,0,0:0:0:0:
64,192,92999,1,8,0:0:0:0:
320,192,92999,128,0,93142:0:0:0:0:
448,192,92999,1,0,0:0:0:0:
64,192,93142,128,0,93213:0:0:0:0:
320,192,93284,128,0,93499:0:0:0:0:
192,192,93427,128,0,93642:0:0:0:0:
64,192,93570,128,8,93784:0:0:0:0:
320,192,93570,1,0,0:0:0:0:
448,192,93570,1,0,0:0:0:0:
448,192,93713,1,0,0:0:0:0:
64,192,93856,1,2,0:0:0:0:
192,192,93856,1,0,0:0:0:0:
192,192,93999,1,2,0:0:0:0:
320,192,93999,1,0,0:0:0:0:
64,192,94142,1,8,0:0:0:0:
320,192,94142,128,0,94284:0:0:0:0:
448,192,94142,1,0,0:0:0:0:
64,192,94284,1,0,0:0:0:0:
320,192,94356,128,0,94499:0:0:0:0:
192,192,94427,1,0,0:0:0:0:
448,192,94427,128,0,94642:0:0:0:0:
192,192,94570,1,0,0:0:0:0:
64,192,94713,128,8,94784:0:0:0:0:
320,192,94713,1,0,0:0:0:0:
448,192,94713,1,0,0:0:0:0:
192,192,94784,128,0,94856:0:0:0:0:
64,192,94856,128,2,95070:0:0:0:0:
448,192,94856,1,0,0:0:0:0:
320,192,94999,1,0,0:0:0:0:
192,192,95142,1,2,0:0:0:0:
320,192,95142,128,0,95284:0:0:0:0:
64,192,95284,1,8,0:0:0:0:
192,192,95284,128,0,95427:0:0:0:0:
448,192,95284,1,0,0:0:0:0:
448,192,95427,128,0,95499:0:0:0:0:
64,192,95570,128,0,95642:0:0:0:0:
192,192,95713,128,0,95784:0:0:0:0:
64,192,95856,1,8,0:0:0:0:
320,192,95856,128,0,96070:0:0:0:0:
448,192,95856,1,0,0:0:0:0:
64,192,95999,1,0,0:0:0:0:
320,192,96142,1,2,0:0:0:0:
448,192,96142,1,0,0:0:0:0:
192,192,96284,1,2,0:0:0:0:
320,192,96284,1,0,0:0:0:0:
64,192,96427,1,8,0:0:0:0:
192,192,96427,128,0,96642:0:0:0:0:
448,192,96427,1,0,0:0:0:0:
448,192,96570,1,0,0:0:0:0:
64,192,96713,1,0,0:0:0:0:
320,192,96713,128,0,96927:0:0:0:0:
64,192,96856,128,0,96999:0:0:0:0:
192,192,96999,1,8,0:0:0:0:
320,192,96999,1,0,0:0:0:0:
448,192,96999,1,0,0:0:0:0:
64,192,97142,1,2,0:0:0:0:
448,192,97142,128,0,97427:0:0:0:0:
192,192,97284,1,0,0:0:0:0:
192,192,97427,1,2,0:0:0:0:
320,192,97427,1,0,0:0:0:0:
64,192,97570,1,8,0:0:0:0:
320,192,97570,128,0,97713:0:0:0:0:
448,192,97570,1,0,0:0:0:0:
64,192,97713,1,0,0:0:0:0:
192,192,97856,128,0,97999:0:0:0:0:
320,192,97856,1,0,0:0:0:0:
320,192,97999,1,0,0:0:0:0:
64,192,98142,128,8,98284:0:0:0:0:
192,192,98142,1,0,0:0:0:0:
448,192,98142,1,0,0:0:0:0:
320,192,98284,1,0,0:0:0:0:
64,192,98427,128,8,98713:0:0:0:0:
192,192,98427,128,2,98713:0:0:0:0:
448,192,98427,128,0,99142:0:0:0:0:
64,192,98856,128,2,99427:0:0:0:0:
192,192,98856,128,8,99142:0:0:0:0:
320,192,98856,128,0,99142:0:0:0:0:
192,192,99284,128,2,99427:0:0:0:0:
320,192,99284,128,8,99570:0:0:0:0:
448,192,99284,128,0,99570:0:0:0:0:
64,192,99570,1,2,0:0:0:0:
192,192,99570,1,4,0:0:0:0:
64,192,99713,1,8,0:0:0:0:
320,192,99713,1,0,0:0:0:0:
448,192,99713,1,0,0:0:0:0:
64,192,99856,1,8,0:0:0:0:
320,192,99856,1,0,0:0:0:0:
448,192,99856,1,0,0:0:0:0:
192,192,99999,1,8,0:0:0:0:
448,192,99999,1,0,0:0:0:0:
320,192,100070,1,8,0:0:0:0:
64,192,100142,1,8,0:0:0:0:
192,192,100142,1,0,0:0:0:0:
448,192,100142,1,0,0:0:0:0:
64,192,100284,1,2,0:0:0:0:
320,192,100284,1,0,0:0:0:0:
192,192,100427,1,8,0:0:0:0:
320,192,100427,1,0,0:0:0:0:
448,192,100427,1,0,0:0:0:0:
320,192,100570,1,2,0:0:0:0:
448,192,100570,1,0,0:0:0:0:
64,192,100713,128,4,100999:0:0:0:0:
192,192,100713,1,2,0:0:0:0:
448,192,100713,1,0,0:0:0:0:
192,192,100856,1,2,0:0:0:0:
320,192,100856,1,0,0:0:0:0:
320,192,100999,1,8,0:0:0:0:
448,192,100999,1,0,0:0:0:0:
64,192,101142,1,2,0:0:0:0:
192,192,101142,1,0,0:0:0:0:
64,192,101284,128,8,101570:0:0:0:0:
320,192,101284,128,0,101427:0:0:0:0:
448,192,101284,128,0,101427:0:0:0:0:
320,192,101570,128,8,101784:0:0:0:0:
448,192,101570,1,0,0:0:0:0:
64,192,101713,1,2,0:0:0:0:
192,192,101713,1,0,0:0:0:0:
448,192,101856,128,0,102142:0:0:0:0:
64,192,101999,1,8,0:0:0:0:
192,192,101999,1,0,0:0:0:0:
64,192,102142,1,2,0:0:0:0:
320,192,102142,1,0,0:0:0:0:
320,192,102284,1,2,0:0:0:0:
448,192,102284,1,0,0:0:0:0:
64,192,102427,128,8,102570:0:0:0:0:
192,192,102427,128,0,102713:0:0:0:0:
448,192,102427,128,0,102570:0:0:0:0:
448,192,102713,128,0,102999:0:0:0:0:
64,192,102856,128,0,102927:0:0:0:0:
64,192,102999,1,2,0:0:0:0:
192,192,102999,128,0,103284:0:0:0:0:
320,192,103142,128,0,103213:0:0:0:0:
320,192,103284,128,2,103356:0:0:0:0:
448,192,103284,1,0,0:0:0:0:
64,192,103427,1,2,0:0:0:0:
192,192,103427,128,0,103499:0:0:0:0:
64,192,103570,128,8,103784:0:0:0:0:
320,192,103570,1,0,0:0:0:0:
448,192,103570,1,0,0:0:0:0:
448,192,103713,128,0,103784:0:0:0:0:
320,192,103856,128,2,103927:0:0:0:0:
448,192,103856,1,0,0:0:0:0:
192,192,103999,128,2,104070:0:0:0:0:
320,192,103999,1,0,0:0:0:0:
64,192,104142,128,0,104213:0:0:0:0:
320,192,104284,128,8,104427:0:0:0:0:
448,192,104284,1,0,0:0:0:0:
64,192,104427,1,2,0:0:0:0:
448,192,104427,128,0,104570:0:0:0:0:
64,192,104570,1,2,0:0:0:0:
192,192,104570,1,0,0:0:0:0:
192,192,104713,128,8,104784:0:0:0:0:
320,192,104713,1,0,0:0:0:0:
448,192,104713,1,0,0:0:0:0:
64,192,104856,1,2,0:0:0:0:
320,192,104856,128,4,104999:0:0:0:0:
448,192,104856,128,0,104999:0:0:0:0:
192,192,104927,128,0,105070:0:0:0:0:
64,192,104999,128,0,105213:0:0:0:0:
64,192,105284,1,2,0:0:0:0:
320,192,105284,1,4,0:0:0:0:
448,192,105284,128,0,105570:0:0:0:0:
192,192,105427,1,2,0:0:0:0:
320,192,105427,1,0,0:0:0:0:
64,192,105570,1,8,0:0:0:0:
192,192,105570,1,0,0:0:0:0:
320,192,105713,1,2,0:0:0:0:
448,192,105713,1,0,0:0:0:0:
64,192,105856,128,8,105999:0:0:0:0:
192,192,105856,128,0,105999:0:0:0:0:
448,192,105856,128,0,106142:0:0:0:0:
64,192,106142,1,8,0:0:0:0:
192,192,106142,128,0,106356:0:0:0:0:
320,192,106284,1,2,0:0:0:0:
448,192,106284,1,0,0:0:0:0:
64,192,106427,128,0,106713:0:0:0:0:
320,192,106570,1,8,0:0:0:0:
448,192,106570,1,0,0:0:0:0:
192,192,106713,1,2,0:0:0:0:
448,192,106713,1,0,0:0:0:0:
64,192,106856,1,2,0:0:0:0:
192,192,106856,1,0,0:0:0:0:
64,192,106999,128,8,107142:0:0:0:0:
320,192,106999,128,0,107284:0:0:0:0:
448,192,106999,128,0,107142:0:0:0:0:
64,192,107284,128,0,107570:0:0:0:0:
448,192,107427,128,0,107499:0:0:0:0:
320,192,107570,128,2,107856:0:0:0:0:
448,192,107570,1,0,0:0:0:0:
192,192,107713,128,0,107784:0:0:0:0:
64,192,107856,1,2,0:0:0:0:
192,192,107856,128,0,107927:0:0:0:0:
320,192,107999,128,2,108070:0:0:0:0:
448,192,107999,1,0,0:0:0:0:
64,192,108142,1,8,0:0:0:0:
192,192,108142,1,0,0:0:0:0:
448,192,108142,128,0,108356:0:0:0:0:
64,192,108284,128,0,108356:0:0:0:0:
64,192,108427,1,2,0:0:0:0:
192,192,108427,128,0,108499:0:0:0:0:
192,192,108570,1,8,0:0:0:0:
320,192,108570,1,0,0:0:0:0:
448,192,108570,128,0,108784:0:0:0:0:
64,192,108856,1,8,0:0:0:0:
192,192,108856,1,0,0:0:0:0:
320,192,108856,128,0,108927:0:0:0:0:
64,192,108999,1,2,0:0:0:0:
192,192,108999,128,0,109070:0:0:0:0:
320,192,109142,128,2,109213:0:0:0:0:
448,192,109142,1,0,0:0:0:0:
64,192,109284,1,8,0:0:0:0:
192,192,109284,1,0,0:0:0:0:
320,192,109284,128,0,109427:0:0:0:0:
64,192,109427,128,2,109570:0:0:0:0:
192,192,109427,128,4,109570:0:0:0:0:
448,192,109427,1,0,0:0:0:0:
448,192,109570,128,0,109713:0:0:0:0:
64,192,109713,1,8,0:0:0:0:
320,192,109713,1,0,0:0:0:0:
192,192,109784,1,8,0:0:0:0:
64,192,109856,128,2,110142:0:0:0:0:
320,192,109856,128,4,109999:0:0:0:0:
448,192,109856,128,0,109999:0:0:0:0:
192,192,110142,1,8,0:0:0:0:
320,192,110142,1,0,0:0:0:0:
448,192,110142,128,0,110213:0:0:0:0:
448,192,110284,128,0,110356:0:0:0:0:
64,192,110427,1,2,0:0:0:0:
448,192,110427,128,0,110499:0:0:0:0:
192,192,110570,1,2,0:0:0:0:
448,192,110570,128,0,110642:0:0:0:0:
64,192,110713,1,8,0:0:0:0:
320,192,110713,1,0,0:0:0:0:
448,192,110713,128,0,110927:0:0:0:0:
192,192,110856,128,0,111070:0:0:0:0:
64,192,110999,128,2,111213:0:0:0:0:
320,192,110999,1,0,0:0:0:0:
320,192,111142,1,2,0:0:0:0:
448,192,111142,1,0,0:0:0:0:
64,192,111284,128,8,111356:0:0:0:0:
192,192,111284,1,0,0:0:0:0:
448,192,111284,1,0,0:0:0:0:
64,192,111427,128,2,111499:0:0:0:0:
320,192,111427,1,0,0:0:0:0:
64,192,111570,128,0,111642:0:0:0:0:
64,192,111713,128,2,111784:0:0:0:0:
320,192,111713,1,0,0:0:0:0:
64,192,111856,128,8,112070:0:0:0:0:
192,192,111856,1,0,0:0:0:0:
448,192,111856,1,0,0:0:0:0:
320,192,111999,128,0,112213:0:0:0:0:
192,192,112142,1,2,0:0:0:0:
448,192,112142,128,0,112356:0:0:0:0:
192,192,112284,128,0,112427:0:0:0:0:
64,192,112427,1,8,0:0:0:0:
320,192,112427,1,0,0:0:0:0:
448,192,112427,1,0,0:0:0:0:
192,192,112570,128,0,112713:0:0:0:0:
64,192,112642,128,0,112927:0:0:0:0:
320,192,112713,1,2,0:0:0:0:
448,192,112713,1,0,0:0:0:0:
192,192,112856,1,2,0:0:0:0:
320,192,112856,1,0,0:0:0:0:
64,192,112999,1,8,0:0:0:0:
192,192,112999,128,0,113142:0:0:0:0:
448,192,112999,1,0,0:0:0:0:
320,192,113070,128,0,113284:0:0:0:0:
64,192,113284,1,2,0:0:0:0:
192,192,113284,1,0,0:0:0:0:
64,192,113427,1,2,0:0:0:0:
320,192,113427,128,0,113570:0:0:0:0:
192,192,113499,128,0,113784:0:0:0:0:
64,192,113570,1,8,0:0:0:0:
448,192,113570,1,0,0:0:0:0:
320,192,113713,1,2,0:0:0:0:
448,192,113713,1,0,0:0:0:0:
320,192,113856,128,0,113999:0:0:0:0:
448,192,113927,128,0,114142:0:0:0:0:
64,192,113999,1,2,0:0:0:0:
192,192,113999,1,0,0:0:0:0:
64,192,114142,1,8,0:0:0:0:
192,192,114142,1,0,0:0:0:0:
320,192,114142,1,0,0:0:0:0:
64,192,114427,1,4,0:0:0:0:
320,192,114427,1,2,0:0:0:0:
448,192,114427,1,0,0:0:0:0:
448,192,114570,1,0,0:0:0:0:
64,192,114713,1,8,0:0:0:0:
192,192,114713,1,0,0:0:0:0:
320,192,114713,1,0,0:0:0:0:
192,192,114856,1,0,0:0:0:0:
64,192,114999,1,8,0:0:0:0:
192,192,114999,1,0,0:0:0:0:
448,192,114999,1,0,0:0:0:0:
64,192,115142,1,2,0:0:0:0:
320,192,115142,1,0,0:0:0:0:
192,192,115284,1,8,0:0:0:0:
320,192,115284,1,0,0:0:0:0:
448,192,115284,1,0,0:0:0:0:
192,192,115427,1,2,0:0:0:0:
448,192,115427,1,0,0:0:0:0:
64,192,115570,1,8,0:0:0:0:
320,192,115570,1,0,0:0:0:0:
448,192,115570,1,0,0:0:0:0:
192,192,115713,1,0,0:0:0:0:
64,192,115856,1,8,0:0:0:0:
192,192,115856,1,0,0:0:0:0:
448,192,115856,1,0,0:0:0:0:
64,192,115999,1,2,0:0:0:0:
320,192,115999,1,0,0:0:0:0:
192,192,116142,1,8,0:0:0:0:
320,192,116142,1,0,0:0:0:0:
448,192,116142,1,0,0:0:0:0:
192,192,116284,1,2,0:0:0:0:
448,192,116284,1,0,0:0:0:0:
64,192,116427,1,8,0:0:0:0:
192,192,116427,1,0,0:0:0:0:
320,192,116427,1,0,0:0:0:0:
320,192,116570,1,2,0:0:0:0:
448,192,116570,1,0,0:0:0:0:
64,192,116713,1,8,0:0:0:0:
192,192,116713,1,2,0:0:0:0:
448,192,116713,1,0,0:0:0:0:
64,192,116856,1,2,0:0:0:0:
192,192,116856,1,8,0:0:0:0:
448,192,116856,1,0,0:0:0:0:
320,192,116999,1,2,0:0:0:0:
192,192,117070,1,2,0:0:0:0:
64,192,117142,1,2,0:0:0:0:
320,192,117142,1,8,0:0:0:0:
448,192,117142,1,0,0:0:0:0:
64,192,117284,1,2,0:0:0:0:
320,192,117284,1,8,0:0:0:0:
448,192,117284,1,0,0:0:0:0:
192,192,117427,1,2,0:0:0:0:
320,192,117499,1,2,0:0:0:0:
64,192,117570,1,2,0:0:0:0:
192,192,117570,1,8,0:0:0:0:
448,192,117570,1,0,0:0:0:0:
64,192,117713,1,2,0:0:0:0:
192,192,117713,1,8,0:0:0:0:
448,192,117713,1,0,0:0:0:0:
320,192,117856,1,2,0:0:0:0:
192,192,117927,1,2,0:0:0:0:
64,192,117999,1,2,0:0:0:0:
320,192,117999,1,8,0:0:0:0:
448,192,117999,1,0,0:0:0:0:
64,192,118142,1,2,0:0:0:0:
320,192,118142,1,8,0:0:0:0:
448,192,118142,1,0,0:0:0:0:
192,192,118284,1,2,0:0:0:0:
320,192,118356,1,2,0:0:0:0:
64,192,118427,1,8,0:0:0:0:
448,192,118427,1,0,0:0:0:0:
192,192,118499,1,8,0:0:0:0:
320,192,118570,1,0,0:0:0:70:tom1.wav
448,192,118570,1,0,0:0:0:0:
64,192,118642,1,0,0:0:0:70:tom1.wav
192,192,118713,1,0,0:0:0:70:tom2.wav
320,192,118713,1,0,0:0:0:0:
448,192,118784,1,0,0:0:0:70:tom2.wav
64,192,118856,1,0,0:0:0:70:tom3.wav
192,192,118856,1,0,0:0:0:0:
320,192,118927,1,0,0:0:0:70:tom3.wav
64,192,118999,1,2,0:0:0:0:
192,192,118999,128,4,119142:0:0:0:0:
448,192,118999,128,0,119284:0:0:0:0:
64,192,119284,1,8,0:0:0:0:
192,192,119284,128,0,119570:0:0:0:0:
320,192,119284,1,0,0:0:0:0:
64,192,119427,128,0,119713:0:0:0:0:
320,192,119570,1,2,0:0:0:0:
448,192,119570,128,0,119642:0:0:0:0:
192,192,119713,1,2,0:0:0:0:
320,192,119713,128,0,119856:0:0:0:0:
64,192,119856,1,8,0:0:0:0:
192,192,119856,1,0,0:0:0:0:
448,192,119856,1,0,0:0:0:0:
64,192,119999,128,2,120142:0:0:0:0:
320,192,119999,128,0,120284:0:0:0:0:
64,192,120284,1,2,0:0:0:0:
192,192,120284,1,0,0:0:0:0:
64,192,120427,1,8,0:0:0:0:
320,192,120427,128,0,120713:0:0:0:0:
448,192,120427,1,0,0:0:0:0:
448,192,120570,128,0,120856:0:0:0:0:
64,192,120713,128,2,120784:0:0:0:0:
192,192,120713,1,0,0:0:0:0:
192,192,120856,128,2,120927:0:0:0:0:
320,192,120856,1,0,0:0:0:0:
64,192,120999,1,8,0:0:0:0:
320,192,120999,128,0,121070:0:0:0:0:
448,192,120999,1,0,0:0:0:0:
192,192,121142,128,2,121284:0:0:0:0:
448,192,121142,1,0,0:0:0:0:
64,192,121213,128,0,121499:0:0:0:0:
320,192,121284,1,0,0:0:0:0:
320,192,121427,1,2,0:0:0:0:
448,192,121427,1,0,0:0:0:0:
64,192,121570,1,8,0:0:0:0:
192,192,121570,1,0,0:0:0:0:
448,192,121570,128,0,121713:0:0:0:0:
64,192,121713,128,0,121856:0:0:0:0:
192,192,121856,1,2,0:0:0:0:
320,192,121856,128,0,121999:0:0:0:0:
192,192,121999,128,2,122142:0:0:0:0:
448,192,121999,1,0,0:0:0:0:
64,192,122142,1,8,0:0:0:0:
320,192,122142,1,0,0:0:0:0:
448,192,122142,1,0,0:0:0:0:
64,192,122284,128,2,122570:0:0:0:0:
192,192,122284,128,0,122570:0:0:0:0:
448,192,122284,128,0,122427:0:0:0:0:
320,192,122570,1,2,0:0:0:0:
448,192,122570,1,0,0:0:0:0:
64,192,122713,1,8,0:0:0:0:
192,192,122713,1,0,0:0:0:0:
448,192,122713,1,0,0:0:0:0:
64,192,122999,1,2,0:0:0:0:
320,192,122999,1,0,0:0:0:0:
320,192,123142,128,2,123213:0:0:0:0:
448,192,123142,1,0,0:0:0:0:
64,192,123284,1,8,0:0:0:0:
192,192,123284,128,0,123356:0:0:0:0:
448,192,123284,1,0,0:0:0:0:
64,192,123427,128,0,123499:0:0:0:0:
320,192,123427,1,0,0:0:0:0:
192,192,123570,128,2,123713:0:0:0:0:
320,192,123570,128,4,123856:0:0:0:0:
448,192,123570,1,0,0:0:0:0:
448,192,123784,128,0,123999:0:0:0:0:
64,192,123856,1,8,0:0:0:0:
192,192,123856,1,0,0:0:0:0:
64,192,123999,128,0,124070:0:0:0:0:
192,192,124142,128,2,124427:0:0:0:0:
320,192,124142,128,0,124284:0:0:0:0:
448,192,124284,1,2,0:0:0:0:
64,192,124356,128,0,124570:0:0:0:0:
320,192,124427,1,8,0:0:0:0:
448,192,124427,1,0,0:0:0:0:
320,192,124570,128,0,124642:0:0:0:0:
64,192,124713,128,2,124856:0:0:0:0:
192,192,124713,128,0,124999:0:0:0:0:
448,192,124713,1,0,0:0:0:0:
320,192,124927,128,0,125142:0:0:0:0:
64,192,124999,1,8,0:0:0:0:
448,192,124999,1,0,0:0:0:0:
64,192,125142,128,0,125213:0:0:0:0:
320,192,125284,128,2,125570:0:0:0:0:
448,192,125284,128,0,125427:0:0:0:0:
64,192,125427,1,2,0:0:0:0:
192,192,125499,128,0,125713:0:0:0:0:
64,192,125570,1,8,0:0:0:0:
448,192,125570,1,0,0:0:0:0:
320,192,125713,1,2,0:0:0:0:
448,192,125713,128,0,125784:0:0:0:0:
64,192,125856,128,8,126142:0:0:0:0:
192,192,125856,128,4,126142:0:0:0:0:
448,192,125856,1,0,0:0:0:0:
320,192,125999,1,2,0:0:0:0:
320,192,126142,1,2,0:0:0:0:
64,192,126284,1,8,0:0:0:0:
320,192,126284,128,4,126570:0:0:0:0:
448,192,126284,128,0,126570:0:0:0:0:
192,192,126427,1,2,0:0:0:0:
192,192,126570,1,2,0:0:0:0:
64,192,126713,128,8,126999:0:0:0:0:
192,192,126713,128,4,126999:0:0:0:0:
320,192,126713,1,0,0:0:0:0:
448,192,126856,1,2,0:0:0:0:
448,192,126999,1,2,0:0:0:0:
192,192,127142,1,8,0:0:0:0:
320,192,127142,128,4,127427:0:0:0:0:
448,192,127142,128,0,127427:0:0:0:0:
64,192,127284,1,2,0:0:0:0:
64,192,127427,1,2,0:0:0:0:
64,192,127570,128,8,127713:0:0:0:0:
320,192,127570,128,4,127642:0:0:0:0:
448,192,127570,128,0,127642:0:0:0:0:
320,192,127713,1,2,0:0:0:0:
448,192,127713,1,0,0:0:0:0:
64,192,127856,128,8,127927:0:0:0:0:
192,192,127856,128,4,127927:0:0:0:0:
448,192,127856,128,0,127999:0:0:0:0:
64,192,127999,1,2,0:0:0:0:
192,192,127999,1,0,0:0:0:0:
64,192,128142,128,2,128427:0:0:0:0:
320,192,128142,128,4,128284:0:0:0:0:
448,192,128142,1,0,0:0:0:0:
192,192,128427,1,8,0:0:0:0:
320,192,128427,128,0,128713:0:0:0:0:
448,192,128427,1,0,0:0:0:0:
448,192,128570,128,0,128856:0:0:0:0:
64,192,128713,128,2,128784:0:0:0:0:
192,192,128713,1,0,0:0:0:0:
192,192,128856,128,2,128999:0:0:0:0:
320,192,128856,1,0,0:0:0:0:
64,192,128999,1,8,0:0:0:0:
320,192,128999,1,0,0:0:0:0:
448,192,128999,1,0,0:0:0:0:
192,192,129142,128,2,129427:0:0:0:0:
448,192,129142,128,0,129284:0:0:0:0:
320,192,129427,1,2,0:0:0:0:
448,192,129427,1,0,0:0:0:0:
64,192,129570,1,8,0:0:0:0:
192,192,129570,128,0,129856:0:0:0:0:
448,192,129570,1,0,0:0:0:0:
64,192,129713,128,0,129999:0:0:0:0:
320,192,129856,1,2,0:0:0:0:
448,192,129856,128,0,129927:0:0:0:0:
192,192,129999,1,2,0:0:0:0:
320,192,129999,128,0,130070:0:0:0:0:
64,192,130142,1,8,0:0:0:0:
192,192,130142,128,0,130213:0:0:0:0:
448,192,130142,1,0,0:0:0:0:
64,192,130284,1,2,0:0:0:0:
320,192,130284,128,0,130427:0:0:0:0:
448,192,130356,128,0,130642:0:0:0:0:
192,192,130427,1,0,0:0:0:0:
64,192,130570,1,2,0:0:0:0:
192,192,130570,128,0,130642:0:0:0:0:
64,192,130713,1,8,0:0:0:0:
320,192,130713,128,0,130784:0:0:0:0:
448,192,130713,1,0,0:0:0:0:
448,192,130856,128,0,130927:0:0:0:0:
192,192,130999,128,2,131142:0:0:0:0:
320,192,130999,1,0,0:0:0:0:
64,192,131142,1,2,0:0:0:0:
320,192,131142,128,0,131284:0:0:0:0:
64,192,131284,1,8,0:0:0:0:
192,192,131284,1,0,0:0:0:0:
448,192,131284,1,0,0:0:0:0:
64,192,131427,128,2,131570:0:0:0:0:
320,192,131427,128,0,131713:0:0:0:0:
448,192,131427,128,0,131713:0:0:0:0:
64,192,131713,1,2,0:0:0:0:
192,192,131713,1,0,0:0:0:0:
64,192,131856,1,8,0:0:0:0:
320,192,131856,1,0,0:0:0:0:
448,192,131856,1,0,0:0:0:0:
192,192,132142,1,2,0:0:0:0:
448,192,132142,1,0,0:0:0:0:
64,192,132284,1,2,0:0:0:0:
192,192,132284,128,0,132356:0:0:0:0:
64,192,132427,1,8,0:0:0:0:
320,192,132427,128,0,132499:0:0:0:0:
448,192,132427,1,0,0:0:0:0:
192,192,132570,1,0,0:0:0:0:
448,192,132570,128,0,132642:0:0:0:0:
64,192,132713,1,2,0:0:0:0:
192,192,132713,128,4,132999:0:0:0:0:
320,192,132713,128,0,132856:0:0:0:0:
64,192,132927,128,0,133142:0:0:0:0:
320,192,132999,1,8,0:0:0:0:
448,192,132999,1,0,0:0:0:0:
448,192,133142,128,0,133213:0:0:0:0:
192,192,133284,128,2,133427:0:0:0:0:
320,192,133284,128,0,133570:0:0:0:0:
64,192,133427,1,2,0:0:0:0:
448,192,133499,128,0,133713:0:0:0:0:
64,192,133570,1,8,0:0:0:0:
192,192,133570,1,0,0:0:0:0:
192,192,133713,128,2,133784:0:0:0:0:
64,192,133856,128,8,133927:0:0:0:0:
320,192,133856,128,0,133999:0:0:0:0:
448,192,133856,128,0,133999:0:0:0:0:
64,192,133999,1,2,0:0:0:0:
192,192,133999,1,0,0:0:0:0:
64,192,134142,128,8,134284:0:0:0:0:
192,192,134142,128,0,134284:0:0:0:0:
448,192,134142,128,0,134213:0:0:0:0:
320,192,134284,1,2,0:0:0:0:
448,192,134284,1,0,0:0:0:0:
64,192,134427,128,8,134499:0:0:0:0:
320,192,134427,128,0,134570:0:0:0:0:
448,192,134427,128,0,134570:0:0:0:0:
64,192,134570,1,2,0:0:0:0:
192,192,134570,1,0,0:0:0:0:
192,192,134713,128,8,134999:0:0:0:0:
320,192,134713,1,0,0:0:0:0:
448,192,134713,1,0,0:0:0:0:
64,192,134856,128,2,136142:0:0:0:0:
320,192,134856,1,4,0:0:0:0:
448,192,134856,1,0,0:0:0:0:
320,192,135142,1,2,0:0:0:0:
448,192,135142,1,0,0:0:0:0:
192,192,135284,1,8,0:0:0:0:
448,192,135284,1,0,0:0:0:0:
320,192,135570,1,2,0:0:0:0:
448,192,135570,1,0,0:0:0:0:
192,192,135713,1,2,0:0:0:0:
320,192,135713,1,0,0:0:0:0:
192,192,135856,1,8,0:0:0:0:
448,192,135856,1,0,0:0:0:0:
320,192,136142,1,2,0:0:0:0:
448,192,136142,1,0,0:0:0:0:
192,192,136284,1,2,0:0:0:0:
448,192,136284,1,0,0:0:0:0:
64,192,136427,1,8,0:0:0:0:
192,192,136427,1,0,0:0:0:0:
320,192,136427,1,0,0:0:0:0:
192,192,136713,1,2,0:0:0:0:
448,192,136713,1,0,0:0:0:0:
64,192,136856,1,2,0:0:0:0:
192,192,136856,128,0,136927:0:0:0:0:
64,192,136999,1,8,0:0:0:0:
320,192,136999,128,0,137070:0:0:0:0:
448,192,136999,1,0,0:0:0:0:
448,192,137142,128,0,137213:0:0:0:0:
64,192,137284,1,2,0:0:0:0:
192,192,137284,1,4,0:0:0:0:
320,192,137284,1,0,0:0:0:0:
448,192,137427,1,0,0:0:0:70:tom3.wav
64,192,137499,1,0,0:0:0:70:tom2.wav
192,192,137499,1,0,0:0:0:0:
320,192,137570,1,0,0:0:0:70:tom1.wav
448,192,137570,1,0,0:0:0:0:
64,192,137642,1,2,0:0:0:0:
192,192,137713,1,2,0:0:0:0:
320,192,137784,1,0,0:0:0:70:tom1.wav
448,192,137784,1,0,0:0:0:0:
64,192,137856,1,2,0:0:0:0:
192,192,137856,1,0,0:0:0:70:tom2.wav
448,192,137927,1,0,0:0:0:0:
320,192,137999,1,0,0:0:0:0:
64,192,138070,1,0,0:0:0:0:
320,192,138142,1,2,0:0:0:0:
448,192,138142,1,0,0:0:0:0:
192,192,138213,1,0,0:0:0:0:
64,192,138284,1,2,0:0:0:0:
448,192,138284,1,0,0:0:0:0:
320,192,138356,1,0,0:0:0:0:
64,192,138427,1,8,0:0:0:0:
192,192,138427,128,0,138570:0:0:0:0:
448,192,138427,1,0,0:0:0:0:
64,192,138570,1,8,0:0:0:0:
320,192,138570,1,2,0:0:0:0:
448,192,138570,1,0,0:0:0:0:
192,192,138713,128,0,138856:0:0:0:0:
64,192,138927,128,0,139427:0:0:0:0:
192,192,138999,128,0,139142:0:0:0:0:
320,192,139284,128,0,139356:0:0:0:0:
448,192,139427,128,0,139570:0:0:0:0:
64,192,139570,128,2,139856:0:0:0:0:
192,192,139570,128,4,139856:0:0:0:0:
320,192,139570,128,0,139713:0:0:0:0:
448,192,139856,128,0,139927:0:0:0:0:
64,192,139999,1,2,0:0:0:0:
320,192,139999,128,0,140070:0:0:0:0:
64,192,140142,1,8,0:0:0:0:
192,192,140142,128,0,140427:0:0:0:0:
448,192,140142,1,0,0:0:0:0:
448,192,140284,128,0,140427:0:0:0:0:
64,192,140427,128,0,140570:0:0:0:0:
320,192,140570,128,2,140713:0:0:0:0:
448,192,140570,1,0,0:0:0:0:
192,192,140713,128,0,140856:0:0:0:0:
320,192,140856,1,2,0:0:0:0:
448,192,140856,128,0,141142:0:0:0:0:
192,192,140999,1,0,0:0:0:0:
64,192,141142,1,2,0:0:0:0:
192,192,141142,1,0,0:0:0:0:
64,192,141284,1,8,0:0:0:0:
320,192,141284,128,0,141570:0:0:0:0:
448,192,141284,1,0,0:0:0:0:
192,192,141427,1,2,0:0:0:0:
448,192,141427,128,0,141856:0:0:0:0:
64,192,141713,1,2,0:0:0:0:
192,192,141713,1,0,0:0:0:0:
64,192,141856,128,2,142142:0:0:0:0:
192,192,141856,128,0,142142:0:0:0:0:
448,192,142142,128,0,142213:0:0:0:0:
64,192,142284,1,2,0:0:0:0:
320,192,142284,128,0,142356:0:0:0:0:
64,192,142427,1,8,0:0:0:0:
192,192,142427,128,0,142713:0:0:0:0:
448,192,142427,1,0,0:0:0:0:
320,192,142570,1,2,0:0:0:0:
448,192,142570,128,0,142713:0:0:0:0:
64,192,142713,1,0,0:0:0:0:
64,192,142856,1,2,0:0:0:0:
320,192,142856,128,0,142999:0:0:0:0:
192,192,142927,1,2,0:0:0:0:
448,192,142999,1,2,0:0:0:0:
192,192,143142,1,2,0:0:0:0:
320,192,143142,128,0,143284:0:0:0:0:
448,192,143284,1,0,0:0:0:0:
192,192,143427,1,2,0:0:0:0:
320,192,143427,128,0,143570:0:0:0:0:
64,192,143570,1,8,0:0:0:0:
192,192,143570,1,0,0:0:0:0:
448,192,143570,1,0,0:0:0:0:
64,192,143713,128,2,143999:0:0:0:0:
448,192,143713,128,0,143927:0:0:0:0:
192,192,143999,1,8,0:0:0:0:
320,192,143999,1,0,0:0:0:0:
448,192,143999,1,0,0:0:0:0:
64,192,144142,128,2,144284:0:0:0:0:
320,192,144142,128,4,144427:0:0:0:0:
448,192,144142,128,0,144427:0:0:0:0:
64,192,144427,128,0,144499:0:0:0:0:
192,192,144570,128,2,144642:0:0:0:0:
448,192,144570,1,0,0:0:0:0:
64,192,144713,1,8,0:0:0:0:
320,192,144713,128,0,144999:0:0:0:0:
448,192,144713,1,0,0:0:0:0:
64,192,144856,128,0,144999:0:0:0:0:
448,192,144999,128,0,145142:0:0:0:0:
64,192,145142,1,2,0:0:0:0:
192,192,145142,128,0,145284:0:0:0:0:
320,192,145284,128,0,145427:0:0:0:0:
64,192,145427,128,2,145713:0:0:0:0:
192,192,145427,1,0,0:0:0:0:
320,192,145570,1,0,0:0:0:0:
320,192,145713,1,2,0:0:0:0:
448,192,145713,1,0,0:0:0:0:
64,192,145856,1,8,0:0:0:0:
192,192,145856,128,0,146142:0:0:0:0:
448,192,145856,1,0,0:0:0:0:
64,192,145999,128,2,146427:0:0:0:0:
320,192,145999,1,0,0:0:0:0:
320,192,146284,1,2,0:0:0:0:
448,192,146284,1,0,0:0:0:0:
320,192,146427,128,2,146713:0:0:0:0:
448,192,146427,128,0,146713:0:0:0:0:
64,192,146713,128,0,146784:0:0:0:0:
192,192,146856,128,2,146927:0:0:0:0:
448,192,146856,1,0,0:0:0:0:
64,192,146999,1,8,0:0:0:0:
320,192,146999,128,0,147284:0:0:0:0:
448,192,146999,1,0,0:0:0:0:
64,192,147142,128,2,147284:0:0:0:0:
192,192,147142,1,0,0:0:0:0:
448,192,147284,1,0,0:0:0:0:
192,192,147427,128,2,147570:0:0:0:0:
448,192,147427,1,0,0:0:0:0:
320,192,147499,1,2,0:0:0:0:
64,192,147570,1,2,0:0:0:0:
192,192,147713,128,2,147856:0:0:0:0:
320,192,147713,1,0,0:0:0:0:
64,192,147856,1,0,0:0:0:0:
192,192,147999,128,2,148142:0:0:0:0:
320,192,147999,1,0,0:0:0:0:
320,192,148142,1,8,0:0:0:0:
448,192,148142,1,0,0:0:0:0:
64,192,148213,1,8,0:0:0:0:
192,192,148213,1,0,0:0:0:0:
448,192,148284,1,2,0:0:0:0:
192,192,148356,1,0,0:0:0:0:
320,192,148427,1,2,0:0:0:0:
448,192,148427,1,0,0:0:0:0:
64,192,148499,1,2,0:0:0:0:
320,192,148570,1,2,0:0:0:0:
448,192,148570,1,0,0:0:0:0:
64,192,148642,1,2,0:0:0:0:
192,192,148713,128,2,148856:0:0:0:0:
320,192,148713,128,4,148999:0:0:0:0:
448,192,148713,128,0,148999:0:0:0:0:
64,192,148999,128,0,149070:0:0:0:0:
320,192,149142,128,2,149213:0:0:0:0:
448,192,149142,1,0,0:0:0:0:
192,192,149213,1,0,0:0:0:0:
64,192,149284,1,8,0:0:0:0:
320,192,149284,128,0,149570:0:0:0:0:
448,192,149284,1,0,0:0:0:0:
64,192,149427,128,0,149570:0:0:0:0:
448,192,149570,1,0,0:0:0:0:
192,192,149713,128,2,149856:0:0:0:0:
320,192,149713,1,0,0:0:0:0:
448,192,149856,1,0,0:0:0:0:
64,192,149999,128,2,150284:0:0:0:0:
320,192,149999,128,0,150142:0:0:0:0:
192,192,150142,1,0,0:0:0:0:
320,192,150284,1,2,0:0:0:0:
448,192,150284,1,0,0:0:0:0:
64,192,150427,128,8,150499:0:0:0:0:
192,192,150427,1,0,0:0:0:0:
448,192,150427,1,0,0:0:0:0:
192,192,150570,128,2,150642:0:0:0:0:
320,192,150570,1,0,0:0:0:0:
320,192,150713,128,0,150784:0:0:0:0:
192,192,150856,1,2,0:0:0:0:
448,192,150856,128,0,150927:0:0:0:0:
64,192,150999,128,2,151284:0:0:0:0:
192,192,150999,128,0,151284:0:0:0:0:
448,192,151284,128,0,151356:0:0:0:0:
64,192,151427,1,2,0:0:0:0:
320,192,151427,128,0,151499:0:0:0:0:
64,192,151570,1,8,0:0:0:0:
192,192,151570,128,0,151856:0:0:0:0:
448,192,151570,1,0,0:0:0:0:
320,192,151713,1,2,0:0:0:0:
448,192,151713,128,0,151856:0:0:0:0:
64,192,151856,1,0,0:0:0:0:
320,192,151999,128,2,152213:0:0:0:0:
448,192,151999,1,0,0:0:0:0:
192,192,152070,128,2,152142:0:0:0:0:
448,192,152142,128,2,152284:0:0:0:0:
64,192,152284,1,2,0:0:0:0:
192,192,152284,1,0,0:0:0:0:
320,192,152427,128,0,152570:0:0:0:0:
64,192,152570,1,2,0:0:0:0:
192,192,152570,128,4,152713:0:0:0:0:
64,192,152713,1,8,0:0:0:0:
320,192,152713,1,0,0:0:0:0:
448,192,152713,1,0,0:0:0:0:
192,192,152856,128,2,152999:0:0:0:0:
320,192,152856,128,4,153070:0:0:0:0:
448,192,152856,128,0,153142:0:0:0:0:
64,192,153142,1,2,0:0:0:0:
192,192,153142,1,0,0:0:0:0:
320,192,153213,1,2,0:0:0:0:
64,192,153284,128,2,153570:0:0:0:0:
192,192,153284,128,4,153570:0:0:0:0:
448,192,153284,128,0,153427:0:0:0:0:
448,192,153570,128,0,153642:0:0:0:0:
64,192,153713,1,2,0:0:0:0:
320,192,153713,128,0,153784:0:0:0:0:
64,192,153856,1,8,0:0:0:0:
192,192,153856,128,0,154142:0:0:0:0:
448,192,153856,1,0,0:0:0:0:
448,192,153999,128,0,154142:0:0:0:0:
64,192,154142,1,0,0:0:0:0:
320,192,154284,128,2,154427:0:0:0:0:
448,192,154284,1,0,0:0:0:0:
64,192,154427,1,0,0:0:0:0:
192,192,154570,128,2,154713:0:0:0:0:
448,192,154570,128,0,154856:0:0:0:0:
320,192,154713,1,0,0:0:0:0:
64,192,154856,1,2,0:0:0:0:
192,192,154856,1,0,0:0:0:0:
64,192,154999,1,8,0:0:0:0:
320,192,154999,1,0,0:0:0:0:
448,192,154999,1,0,0:0:0:0:
192,192,155142,1,2,0:0:0:0:
320,192,155213,1,8,0:0:0:0:
448,192,155213,1,0,0:0:0:0:
64,192,155284,1,8,0:0:0:0:
192,192,155284,1,0,0:0:0:0:
64,192,155427,1,2,0:0:0:0:
320,192,155427,1,0,0:0:0:0:
192,192,155499,1,2,0:0:0:0:
64,192,155570,1,8,0:0:0:0:
320,192,155570,1,0,0:0:0:0:
448,192,155570,1,0,0:0:0:0:
192,192,155713,1,2,0:0:0:0:
448,192,155713,1,0,0:0:0:0:
64,192,155784,1,2,0:0:0:0:
192,192,155856,1,8,0:0:0:0:
320,192,155856,1,0,0:0:0:0:
448,192,155856,1,0,0:0:0:0:
64,192,155999,1,2,0:0:0:0:
320,192,155999,1,0,0:0:0:0:
64,192,156142,1,8,0:0:0:0:
192,192,156142,1,0,0:0:0:0:
448,192,156142,1,0,0:0:0:0:
64,192,156284,1,8,0:0:0:0:
320,192,156284,1,0,0:0:0:0:
448,192,156284,1,0,0:0:0:0:
192,192,156427,1,8,0:0:0:0:
320,192,156427,1,0,0:0:0:0:
448,192,156427,1,0,0:0:0:0:
64,192,156570,1,8,0:0:0:0:
192,192,156570,1,4,0:0:0:0:
448,192,156570,1,0,0:0:0:0:
64,192,156713,1,2,0:0:0:0:
192,192,156784,1,0,0:0:0:0:
320,192,156856,1,8,0:0:0:0:
448,192,156856,1,0,0:0:0:0:
64,192,156927,1,8,0:0:0:0:
192,192,156927,1,0,0:0:0:0:
448,192,156999,1,2,0:0:0:0:
64,192,157070,1,8,0:0:0:0:
192,192,157070,1,0,0:0:0:0:
320,192,157142,1,2,0:0:0:0:
448,192,157142,1,0,0:0:0:0:
64,192,157213,1,2,0:0:0:0:
192,192,157284,1,8,0:0:0:0:
320,192,157284,1,0,0:0:0:0:
64,192,157356,1,0,0:0:0:0:
320,192,157427,1,8,0:0:0:0:
448,192,157427,1,0,0:0:0:0:
192,192,157499,1,0,0:0:0:0:
64,192,157570,1,2,0:0:0:0:
448,192,157570,1,0,0:0:0:0:
320,192,157642,1,2,0:0:0:0:
64,192,157713,1,4,0:0:0:0:
192,192,157713,128,2,157927:0:0:0:0:
448,192,157713,1,0,0:0:0:0:
320,192,157856,128,0,157999:0:0:0:0:
448,192,157927,128,0,158213:0:0:0:0:
64,192,158142,1,8,0:0:0:0:
192,192,158142,1,0,0:0:0:0:
64,192,158284,128,0,158356:0:0:0:0:
192,192,158356,128,0,158499:0:0:0:0:
64,192,158427,128,2,158784:0:0:0:0:
320,192,158427,1,0,0:0:0:0:
320,192,158570,1,2,0:0:0:0:
448,192,158570,1,0,0:0:0:0:
192,192,158713,1,8,0:0:0:0:
448,192,158713,1,0,0:0:0:0:
64,192,158856,128,2,158999:0:0:0:0:
320,192,158856,128,4,158927:0:0:0:0:
448,192,158856,1,0,0:0:0:0:
192,192,158927,128,0,159070:0:0:0:0:
320,192,158999,128,0,159356:0:0:0:0:
64,192,159142,1,2,0:0:0:0:
192,192,159142,1,0,0:0:0:0:
64,192,159284,1,8,0:0:0:0:
448,192,159284,1,0,0:0:0:0:
448,192,159427,128,0,159499:0:0:0:0:
320,192,159499,128,0,159642:0:0:0:0:
192,192,159570,1,2,0:0:0:0:
448,192,159570,128,0,159927:0:0:0:0:
64,192,159713,1,2,0:0:0:0:
192,192,159713,1,0,0:0:0:0:
64,192,159856,1,8,0:0:0:0:
320,192,159856,1,0,0:0:0:0:
64,192,159999,128,2,160070:0:0:0:0:
192,192,159999,128,4,160142:0:0:0:0:
448,192,159999,1,0,0:0:0:0:
320,192,160070,128,0,160213:0:0:0:0:
448,192,160142,128,0,160570:0:0:0:0:
64,192,160284,1,2,0:0:0:0:
192,192,160284,1,0,0:0:0:0:
192,192,160427,128,8,160642:0:0:0:0:
320,192,160427,1,0,0:0:0:0:
64,192,160570,128,0,160713:0:0:0:0:
320,192,160713,1,2,0:0:0:0:
448,192,160713,1,0,0:0:0:0:
64,192,160856,1,2,0:0:0:0:
192,192,160856,128,0,160999:0:0:0:0:
64,192,160999,1,8,0:0:0:0:
320,192,160999,1,0,0:0:0:0:
448,192,160999,1,0,0:0:0:0:
192,192,161142,128,2,161284:0:0:0:0:
320,192,161142,128,4,161213:0:0:0:0:
448,192,161142,1,0,0:0:0:0:
64,192,161213,128,0,161427:0:0:0:0:
320,192,161380,128,0,161475:0:0:0:0:
448,192,161427,1,2,0:0:0:0:
192,192,161475,128,0,161570:0:0:0:0:
64,192,161570,1,8,0:0:0:0:
320,192,161570,1,0,0:0:0:0:
448,192,161570,128,0,161784:0:0:0:0:
192,192,161713,128,0,161856:0:0:0:0:
64,192,161784,128,0,162427:0:0:0:0:
320,192,161856,1,2,0:0:0:0:
448,192,161856,1,0,0:0:0:0:
192,192,161999,1,2,0:0:0:0:
320,192,161999,1,0,0:0:0:0:
192,192,162142,1,8,0:0:0:0:
448,192,162142,1,0,0:0:0:0:
320,192,162284,1,0,0:0:0:0:
192,192,162427,1,8,0:0:0:0:
320,192,162427,1,4,0:0:0:0:
448,192,162427,1,0,0:0:0:0:
192,192,162570,1,2,0:0:0:0:
64,192,162713,1,8,0:0:0:0:
320,192,162713,1,0,0:0:0:0:
448,192,162713,1,0,0:0:0:0:
192,192,162784,1,0,0:0:0:0:
320,192,162856,1,2,0:0:0:0:
448,192,162856,1,0,0:0:0:0:
64,192,162999,1,8,0:0:0:0:
192,192,162999,1,0,0:0:0:0:
448,192,162999,1,0,0:0:0:0:
64,192,163142,1,2,0:0:0:0:
320,192,163142,1,0,0:0:0:0:
64,192,163284,1,2,0:0:0:0:
320,192,163284,1,0,0:0:0:0:
192,192,163427,1,8,0:0:0:0:
320,192,163427,1,4,0:0:0:0:
448,192,163427,1,0,0:0:0:0:
64,192,163570,1,2,0:0:0:0:
192,192,163570,1,0,0:0:0:0:
320,192,163713,1,2,0:0:0:0:
448,192,163713,1,0,0:0:0:0:
64,192,163856,1,8,0:0:0:0:
192,192,163856,1,0,0:0:0:0:
448,192,163856,1,0,0:0:0:0:
320,192,163927,1,0,0:0:0:0:
64,192,163999,1,2,0:0:0:0:
192,192,163999,1,0,0:0:0:0:
192,192,164142,1,8,0:0:0:0:
320,192,164142,1,0,0:0:0:0:
448,192,164142,1,0,0:0:0:0:
64,192,164284,1,2,0:0:0:0:
448,192,164284,1,0,0:0:0:0:
64,192,164427,1,2,0:0:0:0:
448,192,164427,1,0,0:0:0:0:
64,192,164570,1,8,0:0:0:0:
192,192,164570,1,4,0:0:0:0:
320,192,164570,1,0,0:0:0:0:
192,192,164713,1,2,0:0:0:0:
448,192,164713,1,0,0:0:0:0:
64,192,164856,1,2,0:0:0:0:
320,192,164856,1,0,0:0:0:0:
192,192,164927,1,0,0:0:0:0:
320,192,164999,1,8,0:0:0:0:
448,192,164999,1,0,0:0:0:0:
192,192,165070,1,0,0:0:0:0:
64,192,165142,1,2,0:0:0:0:
448,192,165142,1,0,0:0:0:0:
320,192,165213,1,0,0:0:0:0:
64,192,165284,1,8,0:0:0:0:
192,192,165284,1,0,0:0:0:0:
448,192,165284,1,0,0:0:0:0:
320,192,165356,1,0,0:0:0:0:
64,192,165427,1,2,0:0:0:0:
192,192,165427,1,0,0:0:0:0:
448,192,165499,1,0,0:0:0:0:
192,192,165570,1,2,0:0:0:0:
320,192,165570,1,0,0:0:0:0:
64,192,165642,1,0,0:0:0:0:
192,192,165713,1,8,0:0:0:0:
320,192,165713,1,4,0:0:0:0:
448,192,165713,1,0,0:0:0:0:
64,192,165784,1,0,0:0:0:0:
448,192,165856,1,0,0:0:0:0:
64,192,165927,1,0,0:0:0:0:
320,192,165999,1,8,0:0:0:0:
448,192,165999,1,0,0:0:0:0:
64,192,166070,1,8,0:0:0:0:
192,192,166070,1,0,0:0:0:0:
320,192,166142,1,8,0:0:0:0:
448,192,166142,1,0,0:0:0:0:
64,192,166213,1,8,0:0:0:0:
192,192,166213,1,0,0:0:0:0:
320,192,166284,1,0,0:0:0:70:tom1.wav
192,192,166356,1,0,0:0:0:70:tom1.wav
64,192,166427,1,0,0:0:0:70:tom2.wav
448,192,166427,1,0,0:0:0:0:
320,192,166499,1,0,0:0:0:70:tom2.wav
64,192,166570,1,0,0:0:0:70:tom3.wav
192,192,166570,1,0,0:0:0:0:
320,192,166642,1,0,0:0:0:70:tom3.wav
64,192,166713,1,0,0:0:0:70:tom2.wav
448,192,166713,1,0,0:0:0:0:
192,192,166784,1,0,0:0:0:70:tom2.wav
320,192,166856,1,0,0:0:0:70:tom1.wav
448,192,166856,1,0,0:0:0:0:
192,192,166927,1,0,0:0:0:70:tom1.wav
64,192,166999,1,4,0:0:0:0:
320,192,166999,1,2,0:0:0:0:
448,192,166999,1,0,0:0:0:0:
192,192,167142,1,2,0:0:0:0:
320,192,167142,128,0,167213:0:0:0:0:
64,192,167284,1,8,0:0:0:0:
192,192,167284,1,0,0:0:0:0:
448,192,167284,128,0,167499:0:0:0:0:
64,192,167427,1,2,0:0:0:0:
320,192,167427,1,0,0:0:0:0:
192,192,167570,128,2,167642:0:0:0:0:
448,192,167570,1,0,0:0:0:0:
64,192,167713,128,2,167927:0:0:0:0:
320,192,167713,1,0,0:0:0:0:
320,192,167856,1,8,0:0:0:0:
448,192,167856,1,0,0:0:0:0:
192,192,167999,128,2,168142:0:0:0:0:
448,192,167999,1,0,0:0:0:0:
64,192,168070,128,0,168213:0:0:0:0:
320,192,168142,1,2,0:0:0:0:
64,192,168284,1,2,0:0:0:0:
320,192,168284,128,0,168570:0:0:0:0:
192,192,168427,1,8,0:0:0:0:
448,192,168427,128,0,168713:0:0:0:0:
64,192,168570,1,2,0:0:0:0:
64,192,168713,1,2,0:0:0:0:
192,192,168713,128,0,168784:0:0:0:0:
192,192,168856,1,2,0:0:0:0:
320,192,168856,128,0,168927:0:0:0:0:
64,192,168999,1,8,0:0:0:0:
320,192,168999,1,0,0:0:0:0:
448,192,168999,128,0,169142:0:0:0:0:
64,192,169142,1,2,0:0:0:0:
192,192,169142,1,0,0:0:0:0:
320,192,169284,1,2,0:0:0:0:
448,192,169284,1,0,0:0:0:0:
64,192,169427,1,2,0:0:0:0:
320,192,169427,128,0,169499:0:0:0:0:
64,192,169570,128,8,169784:0:0:0:0:
192,192,169570,1,0,0:0:0:0:
448,192,169570,1,0,0:0:0:0:
320,192,169713,1,2,0:0:0:0:
448,192,169713,1,0,0:0:0:0:
64,192,169856,1,2,0:0:0:0:
320,192,169856,128,0,169927:0:0:0:0:
192,192,169999,1,2,0:0:0:0:
448,192,169999,128,0,170213:0:0:0:0:
64,192,170142,1,8,0:0:0:0:
192,192,170142,1,0,0:0:0:0:
64,192,170284,1,2,0:0:0:0:
320,192,170284,128,0,170427:0:0:0:0:
448,192,170356,128,0,170499:0:0:0:0:
192,192,170427,1,2,0:0:0:0:
192,192,170570,128,2,170856:0:0:0:0:
448,192,170570,1,0,0:0:0:0:
64,192,170713,128,8,170999:0:0:0:0:
320,192,170713,1,0,0:0:0:0:
448,192,170856,128,2,170927:0:0:0:0:
320,192,170999,128,2,171070:0:0:0:0:
448,192,170999,128,0,171142:0:0:0:0:
64,192,171142,1,2,0:0:0:0:
192,192,171142,1,0,0:0:0:0:
192,192,171284,128,8,171427:0:0:0:0:
320,192,171284,128,0,171499:0:0:0:0:
448,192,171284,1,0,0:0:0:0:
64,192,171427,1,2,0:0:0:0:
448,192,171427,1,0,0:0:0:0:
64,192,171570,1,2,0:0:0:0:
192,192,171570,1,0,0:0:0:0:
192,192,171713,128,2,171784:0:0:0:0:
320,192,171713,1,0,0:0:0:0:
64,192,171856,128,8,172070:0:0:0:0:
320,192,171856,1,0,0:0:0:0:
448,192,171856,1,0,0:0:0:0:
192,192,171999,1,2,0:0:0:0:
448,192,171999,1,0,0:0:0:0:
64,192,172142,1,2,0:0:0:0:
320,192,172142,128,0,172213:0:0:0:0:
192,192,172284,1,2,0:0:0:0:
448,192,172284,128,0,172499:0:0:0:0:
64,192,172427,1,8,0:0:0:0:
192,192,172427,1,0,0:0:0:0:
64,192,172570,1,2,0:0:0:0:
320,192,172570,128,0,172713:0:0:0:0:
448,192,172642,128,0,172784:0:0:0:0:
192,192,172713,1,2,0:0:0:0:
192,192,172856,128,2,172927:0:0:0:0:
448,192,172856,1,0,0:0:0:0:
64,192,172999,1,8,0:0:0:0:
320,192,172999,128,0,173070:0:0:0:0:
192,192,173142,1,2,0:0:0:0:
448,192,173142,128,0,173213:0:0:0:0:
192,192,173284,128,2,173427:0:0:0:0:
320,192,173284,1,0,0:0:0:0:
64,192,173356,128,0,173570:0:0:0:0:
320,192,173427,1,2,0:0:0:0:
448,192,173427,1,0,0:0:0:0:
192,192,173570,1,8,0:0:0:0:
448,192,173570,128,0,173713:0:0:0:0:
64,192,173713,1,2,0:0:0:0:
320,192,173713,1,0,0:0:0:0:
64,192,173856,1,4,0:0:0:0:
192,192,173856,1,8,0:0:0:0:
448,192,173856,1,0,0:0:0:0:
192,192,173999,1,2,0:0:0:0:
320,192,173999,1,0,0:0:0:0:
64,192,174142,1,8,0:0:0:0:
320,192,174142,1,0,0:0:0:0:
448,192,174142,1,0,0:0:0:0:
192,192,174284,1,2,0:0:0:0:
448,192,174284,1,0,0:0:0:0:
64,192,174427,1,8,0:0:0:0:
192,192,174427,1,0,0:0:0:0:
448,192,174427,1,0,0:0:0:0:
64,192,174570,1,2,0:0:0:0:
320,192,174570,1,0,0:0:0:0:
192,192,174713,1,8,0:0:0:0:
320,192,174713,1,0,0:0:0:0:
448,192,174713,1,0,0:0:0:0:
64,192,174856,128,2,175142:0:0:0:0:
192,192,174856,128,4,175142:0:0:0:0:
448,192,174856,128,0,174999:0:0:0:0:
320,192,175142,1,2,0:0:0:0:
448,192,175142,1,0,0:0:0:0:
64,192,175284,1,8,0:0:0:0:
192,192,175284,1,0,0:0:0:0:
448,192,175284,1,0,0:0:0:0:
64,192,175427,1,2,0:0:0:0:
320,192,175427,1,0,0:0:0:0:
192,192,175570,1,2,0:0:0:0:
320,192,175642,1,2,0:0:0:0:
64,192,175713,1,8,0:0:0:0:
192,192,175713,1,0,0:0:0:0:
320,192,175784,1,8,0:0:0:0:
448,192,175784,1,0,0:0:0:0:
64,192,175856,1,0,0:0:0:70:tom1.wav
192,192,175927,1,0,0:0:0:70:tom2.wav
320,192,175999,1,0,0:0:0:70:tom3.wav
448,192,175999,1,0,0:0:0:0:
192,192,176070,1,0,0:0:0:70:tom3.wav
64,192,176142,1,2,0:0:0:0:
320,192,176142,1,4,0:0:0:0:
448,192,176142,1,0,0:0:0:0:
192,192,176284,1,2,0:0:0:0:
320,192,176284,128,0,176356:0:0:0:0:
64,192,176427,1,8,0:0:0:0:
192,192,176427,1,0,0:0:0:0:
448,192,176427,128,0,176570:0:0:0:0:
64,192,176570,1,2,0:0:0:0:
320,192,176570,1,0,0:0:0:0:
192,192,176713,1,2,0:0:0:0:
320,192,176713,128,0,176927:0:0:0:0:
64,192,176856,1,2,0:0:0:0:
448,192,176856,128,0,176999:0:0:0:0:
64,192,176999,1,8,0:0:0:0:
192,192,176999,1,0,0:0:0:0:
192,192,177142,128,2,177284:0:0:0:0:
448,192,177142,1,0,0:0:0:0:
64,192,177213,128,0,177356:0:0:0:0:
320,192,177284,1,2,0:0:0:0:
64,192,177427,1,2,0:0:0:0:
320,192,177427,128,0,177499:0:0:0:0:
192,192,177570,128,8,177642:0:0:0:0:
448,192,177570,1,0,0:0:0:0:
64,192,177713,128,2,177784:0:0:0:0:
320,192,177713,1,0,0:0:0:0:
64,192,177856,1,2,0:0:0:0:
192,192,177856,128,0,177927:0:0:0:0:
192,192,177999,1,2,0:0:0:0:
320,192,177999,128,0,178070:0:0:0:0:
64,192,178142,1,8,0:0:0:0:
320,192,178142,1,0,0:0:0:0:
448,192,178142,128,0,178284:0:0:0:0:
64,192,178284,1,2,0:0:0:0:
192,192,178284,1,0,0:0:0:0:
192,192,178427,1,2,0:0:0:0:
320,192,178427,1,4,0:0:0:0:
448,192,178427,1,0,0:0:0:0:
64,192,178570,1,2,0:0:0:0:
320,192,178570,128,0,178642:0:0:0:0:
64,192,178713,128,8,178927:0:0:0:0:
192,192,178713,1,0,0:0:0:0:
448,192,178713,1,0,0:0:0:0:
320,192,178856,1,2,0:0:0:0:
448,192,178856,1,0,0:0:0:0:
64,192,178999,1,2,0:0:0:0:
320,192,178999,128,0,179142:0:0:0:0:
192,192,179142,1,2,0:0:0:0:
448,192,179142,1,0,0:0:0:0:
64,192,179284,1,8,0:0:0:0:
192,192,179284,128,0,179499:0:0:0:0:
64,192,179427,1,2,0:0:0:0:
320,192,179427,128,0,179570:0:0:0:0:
448,192,179499,128,0,179642:0:0:0:0:
192,192,179570,1,2,0:0:0:0:
192,192,179713,128,2,179927:0:0:0:0:
448,192,179713,1,0,0:0:0:0:
64,192,179856,128,8,180070:0:0:0:0:
320,192,179856,1,0,0:0:0:0:
448,192,179999,128,2,180070:0:0:0:0:
320,192,180142,128,2,180213:0:0:0:0:
448,192,180142,128,0,180284:0:0:0:0:
64,192,180284,1,2,0:0:0:0:
192,192,180284,1,0,0:0:0:0:
192,192,180427,128,8,180570:0:0:0:0:
320,192,180427,128,0,180499:0:0:0:0:
448,192,180427,1,0,0:0:0:0:
64,192,180570,1,2,0:0:0:0:
320,192,180570,1,0,0:0:0:0:
64,192,180713,1,8,0:0:0:0:
192,192,180713,1,4,0:0:0:0:
448,192,180713,1,0,0:0:0:0:
192,192,180856,128,2,180999:0:0:0:0:
320,192,180856,1,0,0:0:0:0:
64,192,180999,1,8,0:0:0:0:
320,192,180999,128,0,181142:0:0:0:0:
448,192,180999,1,0,0:0:0:0:
192,192,181142,1,2,0:0:0:0:
448,192,181142,1,0,0:0:0:0:
64,192,181284,1,8,0:0:0:0:
192,192,181284,1,0,0:0:0:0:
448,192,181284,128,0,181427:0:0:0:0:
64,192,181427,128,2,181570:0:0:0:0:
320,192,181427,1,0,0:0:0:0:
192,192,181570,1,8,0:0:0:0:
320,192,181570,1,0,0:0:0:0:
448,192,181570,1,0,0:0:0:0:
192,192,181713,1,2,0:0:0:0:
320,192,181713,128,0,181856:0:0:0:0:
64,192,181856,1,8,0:0:0:0:
192,192,181856,1,4,0:0:0:0:
448,192,181856,1,0,0:0:0:0:
64,192,181999,1,8,0:0:0:0:
320,192,181999,1,0,0:0:0:0:
448,192,181999,128,0,182070:0:0:0:0:
192,192,182142,1,8,0:0:0:0:
320,192,182142,128,0,182213:0:0:0:0:
448,192,182142,1,0,0:0:0:0:
64,192,182284,1,8,0:0:0:0:
192,192,182284,128,0,182356:0:0:0:0:
320,192,182284,1,0,0:0:0:0:
64,192,182427,1,8,0:0:0:0:
192,192,182427,1,0,0:0:0:0:
320,192,182499,1,8,0:0:0:0:
448,192,182499,1,0,0:0:0:0:
64,192,182570,1,8,0:0:0:0:
192,192,182570,1,0,0:0:0:0:
320,192,182642,1,8,0:0:0:0:
448,192,182642,1,0,0:0:0:0:
64,192,182713,1,8,0:0:0:0:
192,192,182713,1,0,0:0:0:0:
320,192,182784,1,8,0:0:0:0:
64,192,182856,1,8,0:0:0:0:
448,192,182856,1,0,0:0:0:0:
192,192,182927,1,8,0:0:0:0:
64,192,182999,128,2,183356:0:0:0:0:
320,192,182999,1,0,0:0:0:0:
448,192,182999,128,0,183356:0:0:0:0:
64,192,183427,128,0,183784:0:0:0:0:
448,192,183427,128,0,183784:0:0:0:0:
64,192,183856,128,0,184213:0:0:0:0:
320,192,183856,128,0,184213:0:0:0:0:
64,192,184284,128,0,184642:0:0:0:0:
320,192,184284,128,0,184642:0:0:0:0:
64,192,184713,128,0,185070:0:0:0:0:
192,192,184713,128,0,185070:0:0:0:0:
192,192,185142,1,2,0:0:0:0:
320,192,185142,1,0,0:0:0:0:
64,192,185213,1,2,0:0:0:0:
320,192,185284,1,0,0:0:0:70:tom3.wav
448,192,185284,1,0,0:0:0:0:
192,192,185356,1,0,0:0:0:70:tom2.wav
320,192,185427,1,0,0:0:0:70:tom1.wav
448,192,185427,1,0,0:0:0:0:
192,192,185570,1,0,0:0:0:70:tom1.wav
448,192,185570,1,0,0:0:0:0:
64,192,185713,1,0,0:0:0:70:tom1.wav
192,192,185713,1,0,0:0:0:0:
320,192,185784,1,0,0:0:0:70:tom2.wav
64,192,185856,1,0,0:0:0:70:tom3.wav
192,192,185856,1,0,0:0:0:0:
64,192,185999,1,0,0:0:0:70:tom3.wav
320,192,185999,1,0,0:0:0:0:
192,192,186142,1,8,0:0:0:0:
320,192,186142,1,0,0:0:0:0:
448,192,186142,1,0,0:0:0:0:
64,192,186213,1,0,0:0:0:70:tom1.wav
320,192,186284,1,0,0:0:0:70:tom2.wav
448,192,186284,1,0,0:0:0:0:
64,192,186356,1,0,0:0:0:70:tom2.wav
192,192,186356,1,0,0:0:0:0:
448,192,186427,1,0,0:0:0:70:tom3.wav
320,192,186499,1,0,0:0:0:70:tom3.wav
64,192,186570,1,8,0:0:0:0:
192,192,186570,1,0,0:0:0:0:
320,192,186642,1,8,0:0:0:0:
448,192,186642,1,0,0:0:0:0:
64,192,186713,1,8,0:0:0:0:
192,192,186713,1,0,0:0:0:0:
320,192,186784,1,8,0:0:0:0:
448,192,186784,1,0,0:0:0:0:
64,192,186856,1,2,0:0:0:0:
192,192,186927,1,2,0:0:0:0:
64,192,186999,128,8,187142:0:0:0:0:
320,192,186999,128,0,187142:0:0:0:0:
448,192,186999,128,0,187142:0:0:0:0:
64,192,187570,128,2,187784:0:0:0:0:
448,192,187570,128,0,187784:0:0:0:0:
320,192,187606,128,0,187784:0:0:0:0:
192,192,187856,128,0,188070:0:0:0:0:
448,192,188142,128,0,188213:0:0:0:0:
320,192,188284,128,0,188356:0:0:0:0:
192,192,188427,128,0,188499:0:0:0:0:
64,192,188570,128,2,188784:0:0:0:0:
448,192,188570,128,4,188784:0:0:0:0:
320,192,188606,128,0,188784:0:0:0:0:
64,192,188856,128,2,189070:0:0:0:0:
448,192,188856,128,4,189070:0:0:0:0:
320,192,188892,128,0,189070:0:0:0:0:
64,192,189142,128,2,189356:0:0:0:0:
192,192,189142,128,4,189356:0:0:0:0:
448,192,189142,128,0,189356:0:0:0:0:
320,192,189177,128,0,189356:0:0:0:0:
64,192,189427,1,2,0:0:0:0:
448,192,189427,1,0,0:0:0:0:
192,192,189499,1,2,0:0:0:0:
64,192,189570,1,8,0:0:0:0:
320,192,189570,1,0,0:0:0:0:
448,192,189570,1,0,0:0:0:0:
64,192,189713,1,2,0:0:0:0:
192,192,189713,1,4,0:0:0:0:
320,192,189713,128,0,189856:0:0:0:0:
448,192,189784,128,0,190070:0:0:0:0:
192,192,189856,1,0,0:0:0:0:
64,192,189999,1,2,0:0:0:0:
192,192,189999,1,0,0:0:0:0:
64,192,190142,128,8,190284:0:0:0:0:
320,192,190142,1,0,0:0:0:0:
448,192,190142,1,0,0:0:0:0:
448,192,190284,128,0,190427:0:0:0:0:
192,192,190427,128,2,190570:0:0:0:0:
320,192,190427,1,0,0:0:0:0:
64,192,190570,1,2,0:0:0:0:
320,192,190570,128,0,190713:0:0:0:0:
64,192,190713,1,8,0:0:0:0:
192,192,190713,1,0,0:0:0:0:
448,192,190713,1,0,0:0:0:0:
64,192,190856,128,2,191070:0:0:0:0:
448,192,190856,128,0,191142:0:0:0:0:
64,192,191142,1,2,0:0:0:0:
192,192,191142,1,0,0:0:0:0:
64,192,191284,1,8,0:0:0:0:
320,192,191284,1,0,0:0:0:0:
448,192,191284,1,0,0:0:0:0:
192,192,191570,1,2,0:0:0:0:
448,192,191570,1,0,0:0:0:0:
64,192,191713,1,2,0:0:0:0:
192,192,191713,128,0,191784:0:0:0:0:
64,192,191856,1,8,0:0:0:0:
320,192,191856,128,0,191927:0:0:0:0:
448,192,191856,1,0,0:0:0:0:
192,192,191999,1,0,0:0:0:0:
448,192,191999,128,0,192070:0:0:0:0:
64,192,192142,1,2,0:0:0:0:
192,192,192142,128,4,192427:0:0:0:0:
320,192,192142,128,0,192284:0:0:0:0:
64,192,192356,128,0,192570:0:0:0:0:
320,192,192427,1,8,0:0:0:0:
448,192,192427,1,0,0:0:0:0:
448,192,192570,128,0,192642:0:0:0:0:
192,192,192713,128,2,192856:0:0:0:0:
320,192,192713,128,0,192999:0:0:0:0:
64,192,192856,1,2,0:0:0:0:
448,192,192927,128,0,193142:0:0:0:0:
64,192,192999,1,8,0:0:0:0:
192,192,192999,1,0,0:0:0:0:
192,192,193142,128,0,193213:0:0:0:0:
64,192,193284,1,2,0:0:0:0:
320,192,193284,128,0,193570:0:0:0:0:
448,192,193284,128,0,193427:0:0:0:0:
192,192,193499,128,0,193713:0:0:0:0:
64,192,193570,1,8,0:0:0:0:
448,192,193570,1,0,0:0:0:0:
448,192,193713,128,0,193784:0:0:0:0:
64,192,193856,128,2,193999:0:0:0:0:
192,192,193856,128,0,194142:0:0:0:0:
448,192,193999,1,2,0:0:0:0:
320,192,194070,128,0,194284:0:0:0:0:
64,192,194142,1,8,0:0:0:0:
448,192,194142,1,0,0:0:0:0:
64,192,194284,128,2,194356:0:0:0:0:
192,192,194284,1,0,0:0:0:0:
64,192,194427,1,8,0:0:0:0:
320,192,194427,128,4,194713:0:0:0:0:
448,192,194427,128,0,194713:0:0:0:0:
192,192,194570,1,2,0:0:0:0:
192,192,194713,1,2,0:0:0:0:
64,192,194856,128,8,195142:0:0:0:0:
192,192,194856,128,4,195142:0:0:0:0:
448,192,194856,1,0,0:0:0:0:
320,192,194999,1,2,0:0:0:0:
320,192,195142,1,2,0:0:0:0:
192,192,195284,1,8,0:0:0:0:
320,192,195284,128,4,195570:0:0:0:0:
448,192,195284,128,0,195570:0:0:0:0:
64,192,195427,1,2,0:0:0:0:
64,192,195570,1,0,0:0:0:70:tom1.wav
192,192,195570,1,0,0:0:0:0:
320,192,195642,1,0,0:0:0:70:tom1.wav
448,192,195642,1,0,0:0:0:0:
192,192,195713,1,0,0:0:0:70:tom2.wav
64,192,195784,1,0,0:0:0:70:tom3.wav
320,192,195856,1,0,0:0:0:70:tom3.wav
448,192,195927,1,0,0:0:0:70:tom2.wav
192,192,195999,1,0,0:0:0:70:tom1.wav
320,192,196070,1,0,0:0:0:70:tom1.wav
64,192,196142,1,2,0:0:0:0:
448,192,196142,1,0,0:0:0:0:
192,192,196284,1,0,0:0:0:0:
320,192,196356,128,2,196642:0:0:0:0:
448,192,196356,1,0,0:0:0:0:
64,192,196427,1,2,0:0:0:0:
192,192,196427,128,0,196642:0:0:0:0:
64,192,196713,128,2,196784:0:0:0:0:
448,192,196713,128,0,196784:0:0:0:0:
192,192,196903,1,2,0:0:0:0:
320,192,196951,1,2,0:0:0:0:
64,192,196999,1,4,0:0:0:0:
192,192,196999,128,2,197070:0:0:0:0:
448,192,196999,1,0,0:0:0:0:
64,192,197142,128,0,197213:0:0:0:0:
192,192,197142,1,0,0:0:0:0:
320,192,197284,1,2,0:0:0:0:
448,192,197284,128,0,197356:0:0:0:0:
192,192,197427,1,2,0:0:0:0:
320,192,197427,128,0,197570:0:0:0:0:
64,192,197570,1,8,0:0:0:0:
192,192,197570,1,0,0:0:0:0:
448,192,197570,1,0,0:0:0:0:
64,192,197713,128,2,197856:0:0:0:0:
320,192,197713,128,0,197999:0:0:0:0:
64,192,197999,1,2,0:0:0:0:
192,192,197999,1,0,0:0:0:0:
64,192,198142,1,8,0:0:0:0:
320,192,198142,128,0,198213:0:0:0:0:
448,192,198142,1,0,0:0:0:0:
320,192,198284,1,0,0:0:0:0:
448,192,198284,128,0,198356:0:0:0:0:
64,192,198427,128,2,198499:0:0:0:0:
192,192,198427,1,0,0:0:0:0:
192,192,198570,128,2,198642:0:0:0:0:
320,192,198570,1,0,0:0:0:0:
64,192,198713,1,8,0:0:0:0:
320,192,198713,128,0,198784:0:0:0:0:
448,192,198713,1,0,0:0:0:0:
192,192,198856,128,2,198999:0:0:0:0:
448,192,198856,1,0,0:0:0:0:
64,192,198927,128,0,199070:0:0:0:0:
320,192,198999,1,0,0:0:0:0:
192,192,199142,1,2,0:0:0:0:
320,192,199142,128,0,199356:0:0:0:0:
448,192,199213,128,0,199499:0:0:0:0:
64,192,199284,1,8,0:0:0:0:
192,192,199284,1,0,0:0:0:0:
64,192,199427,128,0,199570:0:0:0:0:
192,192,199570,1,2,0:0:0:0:
320,192,199570,128,0,199713:0:0:0:0:
192,192,199713,128,2,199856:0:0:0:0:
448,192,199713,1,0,0:0:0:0:
64,192,199856,1,8,0:0:0:0:
320,192,199856,1,0,0:0:0:0:
448,192,199856,1,0,0:0:0:0:
64,192,199999,128,2,200284:0:0:0:0:
192,192,199999,128,0,200284:0:0:0:0:
448,192,199999,128,0,200142:0:0:0:0:
320,192,200284,1,2,0:0:0:0:
448,192,200284,1,0,0:0:0:0:
64,192,200427,1,8,0:0:0:0:
192,192,200427,1,0,0:0:0:0:
448,192,200427,1,0,0:0:0:0:
64,192,200713,1,2,0:0:0:0:
320,192,200713,1,0,0:0:0:0:
320,192,200856,128,2,200927:0:0:0:0:
448,192,200856,1,0,0:0:0:0:
64,192,200999,1,8,0:0:0:0:
192,192,200999,128,0,201070:0:0:0:0:
448,192,200999,1,0,0:0:0:0:
64,192,201142,128,0,201213:0:0:0:0:
320,192,201142,1,0,0:0:0:0:
192,192,201284,128,2,201427:0:0:0:0:
320,192,201284,128,4,201570:0:0:0:0:
448,192,201284,1,0,0:0:0:0:
448,192,201499,128,0,201713:0:0:0:0:
64,192,201570,1,8,0:0:0:0:
192,192,201570,1,0,0:0:0:0:
64,192,201713,128,0,201784:0:0:0:0:
192,192,201856,128,2,202142:0:0:0:0:
320,192,201856,128,0,201999:0:0:0:0:
448,192,201999,1,2,0:0:0:0:
64,192,202070,128,0,202284:0:0:0:0:
320,192,202142,1,8,0:0:0:0:
448,192,202142,1,0,0:0:0:0:
320,192,202284,128,2,202356:0:0:0:0:
64,192,202427,128,8,202570:0:0:0:0:
192,192,202427,128,0,202570:0:0:0:0:
448,192,202427,128,0,202499:0:0:0:0:
320,192,202570,1,2,0:0:0:0:
448,192,202570,1,0,0:0:0:0:
64,192,202713,128,8,202784:0:0:0:0:
320,192,202713,128,0,202856:0:0:0:0:
448,192,202713,128,0,202856:0:0:0:0:
64,192,202856,1,2,0:0:0:0:
192,192,202856,1,0,0:0:0:0:
64,192,202999,128,8,203142:0:0:0:0:
192,192,202999,128,0,203142:0:0:0:0:
448,192,202999,128,0,203070:0:0:0:0:
320,192,203142,1,2,0:0:0:0:
448,192,203142,1,0,0:0:0:0:
64,192,203284,1,8,0:0:0:0:
192,192,203284,1,0,0:0:0:0:
320,192,203284,128,0,203570:0:0:0:0:
64,192,203427,1,2,0:0:0:0:
192,192,203427,1,4,0:0:0:0:
448,192,203427,128,0,204713:0:0:0:0:
64,192,203713,1,2,0:0:0:0:
192,192,203713,1,0,0:0:0:0:
64,192,203856,1,8,0:0:0:0:
320,192,203856,1,0,0:0:0:0:
192,192,203999,1,2,0:0:0:0:
320,192,203999,1,0,0:0:0:0:
64,192,204142,1,8,0:0:0:0:
320,192,204142,1,0,0:0:0:0:
64,192,204284,1,2,0:0:0:0:
192,192,204284,1,0,0:0:0:0:
64,192,204427,1,8,0:0:0:0:
320,192,204427,1,0,0:0:0:0:
192,192,204570,1,2,0:0:0:0:
320,192,204570,1,0,0:0:0:0:
64,192,204713,1,8,0:0:0:0:
320,192,204713,1,4,0:0:0:0:
192,192,204856,1,2,0:0:0:0:
448,192,204856,1,0,0:0:0:0:
320,192,204927,1,2,0:0:0:0:
64,192,204999,1,8,0:0:0:0:
192,192,204999,1,4,0:0:0:0:
448,192,204999,1,0,0:0:0:0:
64,192,205142,1,2,0:0:0:0:
320,192,205142,1,0,0:0:0:0:
192,192,205284,1,8,0:0:0:0:
320,192,205284,1,0,0:0:0:0:
448,192,205284,1,0,0:0:0:0:
320,192,205427,128,2,205499:0:0:0:0:
448,192,205427,1,0,0:0:0:0:
64,192,205570,1,8,0:0:0:0:
192,192,205570,128,0,205642:0:0:0:0:
448,192,205570,1,0,0:0:0:0:
64,192,205713,128,2,205784:0:0:0:0:
320,192,205713,1,0,0:0:0:0:
192,192,205784,1,2,0:0:0:0:
64,192,205856,1,8,0:0:0:0:
320,192,205856,1,4,0:0:0:0:
448,192,205856,1,0,0:0:0:0:
192,192,205999,1,2,0:0:0:0:
448,192,205999,1,0,0:0:0:0:
64,192,206142,1,8,0:0:0:0:
192,192,206142,1,0,0:0:0:0:
320,192,206142,1,0,0:0:0:0:
64,192,206284,1,2,0:0:0:0:
448,192,206284,1,0,0:0:0:0:
192,192,206356,1,2,0:0:0:0:
320,192,206427,1,8,0:0:0:0:
448,192,206427,1,0,0:0:0:0:
64,192,206499,1,2,0:0:0:0:
192,192,206570,1,2,0:0:0:0:
320,192,206570,1,0,0:0:0:0:
448,192,206642,1,2,0:0:0:0:
64,192,206713,1,8,0:0:0:0:
192,192,206713,1,0,0:0:0:0:
320,192,206713,1,0,0:0:0:0:
64,192,206856,1,2,0:0:0:0:
448,192,206856,1,0,0:0:0:0:
192,192,206927,1,2,0:0:0:0:
64,192,206999,128,4,207142:0:0:0:0:
320,192,206999,128,2,207427:0:0:0:0:
448,192,206999,128,0,207784:0:0:0:0:
64,192,207284,128,0,207427:0:0:0:0:
64,192,207570,128,0,207713:0:0:0:0:
64,192,207856,1,8,0:0:0:0:
320,192,207856,1,2,0:0:0:0:
448,192,207856,1,0,0:0:0:0:
64,192,207999,128,8,209213:0:0:0:0:
192,192,207999,128,2,208713:0:0:0:0:
448,192,207999,1,0,0:0:0:0:
192,192,209142,1,2,0:0:0:0:
448,192,209142,1,0,0:0:0:0:
320,192,209213,1,2,0:0:0:0:
64,192,209284,1,8,0:0:0:0:
192,192,209284,1,0,0:0:0:0:
448,192,209284,1,0,0:0:0:0:
64,192,209427,1,2,0:0:0:0:
320,192,209427,1,0,0:0:0:0:
192,192,209570,1,8,0:0:0:0:
320,192,209570,1,0,0:0:0:0:
448,192,209570,1,0,0:0:0:0:
64,192,209713,1,2,0:0:0:0:
448,192,209713,1,0,0:0:0:0:
192,192,209784,1,0,0:0:0:0:
64,192,209856,1,0,0:0:0:0:
320,192,209927,1,0,0:0:0:0:
64,192,209999,1,8,0:0:0:0:
192,192,209999,1,0,0:0:0:0:
320,192,210070,1,8,0:0:0:0:
448,192,210070,1,0,0:0:0:0:
192,192,210142,1,2,0:0:0:0:
320,192,210213,1,2,0:0:0:0:
64,192,210284,128,2,210570:0:0:0:0:
192,192,210284,128,4,210570:0:0:0:0:
448,192,210284,128,0,210427:0:0:0:0:
320,192,210570,128,2,210642:0:0:0:0:
448,192,210570,1,0,0:0:0:0:
64,192,210713,1,8,0:0:0:0:
192,192,210713,128,0,210784:0:0:0:0:
448,192,210713,1,0,0:0:0:0:
64,192,210856,128,0,210927:0:0:0:0:
192,192,210999,128,2,211142:0:0:0:0:
448,192,210999,1,0,0:0:0:0:
64,192,211142,1,2,0:0:0:0:
320,192,211142,128,0,211284:0:0:0:0:
64,192,211284,1,8,0:0:0:0:
192,192,211284,1,0,0:0:0:0:
448,192,211284,1,0,0:0:0:0:
320,192,211427,128,2,211570:0:0:0:0:
448,192,211427,128,0,211713:0:0:0:0:
64,192,211713,1,2,0:0:0:0:
192,192,211713,128,0,211784:0:0:0:0:
64,192,211856,1,8,0:0:0:0:
320,192,211856,128,0,211927:0:0:0:0:
448,192,211856,1,0,0:0:0:0:
448,192,211999,128,0,212070:0:0:0:0:
192,192,212142,1,2,0:0:0:0:
320,192,212142,128,0,212284:0:0:0:0:
192,192,212284,128,2,212427:0:0:0:0:
448,192,212284,1,0,0:0:0:0:
64,192,212427,1,8,0:0:0:0:
320,192,212427,1,0,0:0:0:0:
448,192,212427,1,0,0:0:0:0:
64,192,212570,128,2,212856:0:0:0:0:
192,192,212570,128,4,212856:0:0:0:0:
448,192,212570,128,0,212713:0:0:0:0:
320,192,212856,128,2,212927:0:0:0:0:
448,192,212856,1,0,0:0:0:0:
64,192,212999,1,8,0:0:0:0:
192,192,212999,128,0,213070:0:0:0:0:
448,192,212999,1,0,0:0:0:0:
320,192,213142,128,0,213213:0:0:0:0:
64,192,213284,128,2,213427:0:0:0:0:
448,192,213284,1,0,0:0:0:0:
192,192,213427,1,2,0:0:0:0:
448,192,213427,128,0,213570:0:0:0:0:
64,192,213570,1,8,0:0:0:0:
192,192,213570,1,0,0:0:0:0:
320,192,213570,1,0,0:0:0:0:
64,192,213713,128,2,213856:0:0:0:0:
320,192,213713,128,4,213999:0:0:0:0:
448,192,213713,128,0,213999:0:0:0:0:
64,192,213999,1,2,0:0:0:0:
192,192,213999,128,0,214070:0:0:0:0:
64,192,214142,1,8,0:0:0:0:
320,192,214142,1,0,0:0:0:0:
448,192,214142,128,0,214213:0:0:0:0:
448,192,214284,128,0,214356:0:0:0:0:
64,192,214427,1,2,0:0:0:0:
192,192,214427,128,0,214499:0:0:0:0:
192,192,214570,128,2,214642:0:0:0:0:
448,192,214570,1,0,0:0:0:0:
320,192,214642,128,0,214713:0:0:0:0:
64,192,214713,128,8,214856:0:0:0:0:
192,192,214713,1,0,0:0:0:0:
448,192,214713,1,0,0:0:0:0:
320,192,214856,128,0,215142:0:0:0:0:
64,192,214999,128,2,215142:0:0:0:0:
192,192,214999,1,4,0:0:0:0:
448,192,214999,128,0,215142:0:0:0:0:
192,192,215142,128,0,215213:0:0:0:0:
64,192,215284,1,8,0:0:0:0:
320,192,215284,128,0,215356:0:0:0:0:
448,192,215284,1,0,0:0:0:0:
448,192,215427,128,0,215499:0:0:0:0:
64,192,215570,1,2,0:0:0:0:
320,192,215570,128,0,215713:0:0:0:0:
192,192,215713,128,2,215856:0:0:0:0:
448,192,215713,1,0,0:0:0:0:
64,192,215856,1,8,0:0:0:0:
320,192,215856,1,0,0:0:0:0:
448,192,215856,1,0,0:0:0:0:
64,192,215999,128,2,216284:0:0:0:0:
192,192,215999,128,0,216142:0:0:0:0:
320,192,216284,128,2,216356:0:0:0:0:
448,192,216284,1,0,0:0:0:0:
64,192,216427,1,8,0:0:0:0:
192,192,216427,128,0,216499:0:0:0:0:
448,192,216427,1,0,0:0:0:0:
64,192,216570,128,0,216642:0:0:0:0:
192,192,216713,128,2,216856:0:0:0:0:
320,192,216713,1,0,0:0:0:0:
64,192,216856,1,2,0:0:0:0:
320,192,216856,128,0,216999:0:0:0:0:
64,192,216999,1,8,0:0:0:0:
192,192,216999,1,0,0:0:0:0:
448,192,216999,1,0,0:0:0:0:
64,192,217142,128,2,217284:0:0:0:0:
320,192,217142,128,4,217427:0:0:0:0:
448,192,217142,128,0,217427:0:0:0:0:
64,192,217427,1,2,0:0:0:0:
192,192,217427,128,0,217499:0:0:0:0:
64,192,217570,1,8,0:0:0:0:
320,192,217570,128,0,217642:0:0:0:0:
448,192,217570,1,0,0:0:0:0:
192,192,217713,128,0,217784:0:0:0:0:
64,192,217856,1,8,0:0:0:0:
192,192,217856,1,0,0:0:0:0:
448,192,217856,1,0,0:0:0:0:
64,192,217999,1,8,0:0:0:0:
320,192,217999,1,0,0:0:0:0:
448,192,217999,1,0,0:0:0:0:
192,192,218070,1,2,0:0:0:0:
320,192,218142,1,2,0:0:0:0:
448,192,218142,1,0,0:0:0:0:
64,192,218284,128,2,218499:0:0:0:0:
192,192,218284,128,4,218499:0:0:0:0:
448,192,218284,128,0,218499:0:0:0:0:
64,192,218570,1,0,0:0:0:70:tom1.wav
192,192,218570,1,0,0:0:0:0:
320,192,218642,1,0,0:0:0:70:tom1.wav
448,192,218642,1,0,0:0:0:0:
64,192,218713,1,0,0:0:0:70:tom2.wav
192,192,218713,1,0,0:0:0:0:
320,192,218784,1,0,0:0:0:70:tom3.wav
64,192,218856,1,2,0:0:0:0:
448,192,218856,1,0,0:0:0:0:
192,192,218927,1,2,0:0:0:0:
64,192,218999,1,8,0:0:0:0:
320,192,218999,1,2,0:0:0:0:
448,192,218999,1,0,0:0:0:0:
64,192,219142,1,8,0:0:0:0:
320,192,219142,1,2,0:0:0:0:
448,192,219142,1,0,0:0:0:0:
64,192,219284,1,8,0:0:0:0:
192,192,219284,1,2,0:0:0:0:
448,192,219284,1,0,0:0:0:0:
64,192,219427,128,2,219570:0:0:0:0:
192,192,219427,128,8,219570:0:0:0:0:
448,192,219427,128,0,219570:0:0:0:0:
448,192,219713,128,0,219927:0:0:0:0:
320,192,219856,128,0,220070:0:0:0:0:
64,192,219999,128,0,220213:0:0:0:0:
192,192,220142,128,0,220356:0:0:0:0:
320,192,220284,128,0,220499:0:0:0:0:
64,192,220427,1,2,0:0:0:0:
448,192,220427,1,0,0:0:0:0:
192,192,220499,1,2,0:0:0:0:
64,192,220570,1,8,0:0:0:0:
320,192,220570,1,0,0:0:0:0:
448,192,220570,1,0,0:0:0:0:
192,192,220713,1,2,0:0:0:0:
320,192,220713,1,0,0:0:0:0:
64,192,220856,1,8,0:0:0:0:
192,192,220856,1,2,0:0:0:0:
448,192,220856,1,0,0:0:0:0:
64,192,220999,128,8,221570:0:0:0:0:
192,192,220999,128,4,221499:0:0:0:0:
448,192,220999,128,0,221427:0:0:0:0:
448,192,221499,128,0,221642:0:0:0:0:
320,192,221570,128,0,221713:0:0:0:0:
64,192,221642,128,0,221784:0:0:0:0:
