osu file format v14

[General]
AudioFilename: audio.ogg
AudioLeadIn: 0
PreviewTime: 118427
Countdown: 0
SampleSet: Drum
StackLeniency: 0.4
Mode: 3
LetterboxInBreaks: 0
SpecialStyle: 0
WidescreenStoryboard: 1

[Editor]
Bookmarks: 4767,16053,25338,43624,66481,86910,91624,100767,119053,139624,157910,167053,183053,187624,189910,210338,221624
DistanceSpacing: 1
BeatDivisor: 4
GridSize: 32
TimelineZoom: 1.6

[Metadata]
Title:Sacrifice
TitleUnicode:Sacrifice
Artist:Ouse Akira
ArtistUnicode:逢瀬アキラ
Creator:Antipole
Version:Hidden's Insane
Source:ふゆから​、くるる。
Tags:シルキーズプラス silky's plus eroge visual novel vn japanese rock jrock j-rock video game videogame opening op ふゆくる Hidden is fun Hidden_is_fun fuyu kara fuyukara kururu
BeatmapID:4068997
BeatmapSetID:1932206

[Difficulty]
HPDrainRate:8
CircleSize:4
OverallDifficulty:7.5
ApproachRate:9.7
SliderMultiplier:1.76
SliderTickRate:1

[Events]
//Background and Video events
0,0,"bg.jpg",0,0
//Break Periods
//Storyboard Layer 0 (Background)
//Storyboard Layer 1 (Fail)
//Storyboard Layer 2 (Pass)
//Storyboard Layer 3 (Foreground)
//Storyboard Layer 4 (Overlay)
//Storyboard Sound Samples

[TimingPoints]
142,285.714285714286,4,3,1,70,1,0
66427,-100,4,3,1,70,0,1
74999,-100,4,3,1,70,0,0
75570,-100,4,3,1,70,0,1
86856,-100,4,3,1,70,0,0
118999,-100,4,3,1,70,0,1
127570,-100,4,3,1,70,0,0
128142,-100,4,3,1,70,0,1
139570,-100,4,3,1,70,0,0
157856,-100,4,3,1,70,0,1
166999,-100,4,3,1,70,0,0
189713,-100,4,3,1,70,0,1
196142,-100,4,3,1,70,0,0
196999,-100,4,3,1,70,0,1
210284,-100,4,3,1,70,0,0

[HitObjects]
64,192,142,5,0,0:0:0:0:
192,192,284,1,0,0:0:0:0:
320,192,427,1,0,0:0:0:0:
192,192,570,1,0,0:0:0:0:
320,192,713,1,0,0:0:0:0:
448,192,856,1,0,0:0:0:0:
192,192,999,1,0,0:0:0:0:
64,192,1142,1,0,0:0:0:0:
448,192,1284,1,0,0:0:0:0:
192,192,1427,1,0,0:0:0:0:
64,192,1570,1,0,0:0:0:0:
320,192,1713,1,0,0:0:0:0:
64,192,1856,1,0,0:0:0:0:
192,192,1999,1,0,0:0:0:0:
320,192,2142,1,0,0:0:0:0:
448,192,2284,1,0,0:0:0:0:
192,192,2427,1,0,0:0:0:0:
64,192,2570,1,0,0:0:0:0:
448,192,2713,1,0,0:0:0:0:
320,192,2856,1,0,0:0:0:0:
64,192,2999,1,0,0:0:0:0:
320,192,3142,1,0,0:0:0:0:
192,192,3284,1,0,0:0:0:0:
448,192,3427,1,0,0:0:0:0:
64,192,3570,1,0,0:0:0:0:
448,192,3713,128,0,4713:0:0:0:0:
192,192,3856,1,0,0:0:0:0:
320,192,3999,1,0,0:0:0:0:
64,192,4142,1,0,0:0:0:0:
64,192,4284,1,0,0:0:0:0:
64,192,4427,1,0,0:0:0:0:
192,192,4570,1,0,0:0:0:0:
64,192,4713,1,2,0:0:0:0:
192,192,4713,1,4,0:0:0:0:
320,192,4713,128,0,4999:0:0:0:0:
64,192,4999,128,0,5284:0:0:0:0:
192,192,5284,1,0,0:0:0:0:
448,192,5427,128,0,5642:0:0:0:0:
64,192,5713,1,2,0:0:0:0:
192,192,5713,1,4,0:0:0:0:
320,192,5713,128,0,6142:0:0:0:0:
64,192,6142,128,0,6427:0:0:0:0:
192,192,6427,1,0,0:0:0:0:
448,192,6570,128,0,6713:0:0:0:0:
64,192,6713,1,8,0:0:0:0:
320,192,6713,1,0,0:0:0:0:
64,192,6856,128,2,7142:0:0:0:0:
192,192,6856,1,4,0:0:0:0:
448,192,6856,1,0,0:0:0:0:
320,192,7142,1,0,0:0:0:0:
192,192,7284,1,0,0:0:0:0:
64,192,7427,1,0,0:0:0:0:
320,192,7570,1,8,0:0:0:0:
448,192,7570,1,0,0:0:0:0:
192,192,7713,1,0,0:0:0:70:tom2.wav
320,192,7713,1,0,0:0:0:0:
64,192,7856,1,0,0:0:0:70:tom3.wav
192,192,7856,1,0,0:0:0:0:
64,192,7999,1,4,0:0:0:0:
320,192,7999,1,2,0:0:0:0:
448,192,7999,128,0,8570:0:0:0:0:
64,192,8284,1,8,0:0:0:0:
192,192,8284,1,0,0:0:0:0:
192,192,8570,1,0,0:0:0:70:tom1.wav
320,192,8570,1,0,0:0:0:0:
64,192,8713,1,0,0:0:0:70:tom1.wav
320,192,8903,1,2,0:0:0:0:
448,192,8903,1,0,0:0:0:0:
64,192,8999,1,8,0:0:0:0:
192,192,8999,1,0,0:0:0:0:
320,192,9142,1,0,0:0:0:0:
64,192,9284,1,2,0:0:0:0:
448,192,9284,128,8,9427:0:0:0:20:drum-hitclap.wav
320,192,9427,1,8,0:0:0:20:drum-hitclap.wav
192,192,9499,1,8,0:0:0:20:drum-hitclap.wav
64,192,9570,1,2,0:0:0:0:
448,192,9570,1,8,0:0:0:20:drum-hitclap.wav
320,192,9713,1,8,0:0:0:20:drum-hitclap.wav
448,192,9713,1,0,0:0:0:0:
64,192,9856,128,2,9999:0:0:0:0:
192,192,9856,1,8,0:0:0:20:drum-hitclap.wav
320,192,9999,1,8,0:0:0:20:drum-hitclap.wav
192,192,10070,1,8,0:0:0:20:drum-hitclap.wav
320,192,10142,1,2,0:0:0:0:
448,192,10142,1,8,0:0:0:20:drum-hitclap.wav
64,192,10284,1,8,0:0:0:20:drum-hitclap.wav
192,192,10284,1,0,0:0:0:0:
64,192,10427,128,2,10570:0:0:0:0:
320,192,10427,1,8,0:0:0:30:drum-hitclap.wav
448,192,10570,1,8,0:0:0:30:drum-hitclap.wav
320,192,10642,1,8,0:0:0:30:drum-hitclap.wav
192,192,10713,1,2,0:0:0:0:
448,192,10713,1,8,0:0:0:30:drum-hitclap.wav
64,192,10856,1,8,0:0:0:30:drum-hitclap.wav
192,192,10856,1,0,0:0:0:0:
320,192,10999,1,2,0:0:0:0:
448,192,10999,1,8,0:0:0:30:drum-hitclap.wav
64,192,11142,1,8,0:0:0:30:drum-hitclap.wav
192,192,11213,1,8,0:0:0:30:drum-hitclap.wav
320,192,11284,1,2,0:0:0:0:
448,192,11284,1,8,0:0:0:30:drum-hitclap.wav
192,192,11427,1,8,0:0:0:30:drum-hitclap.wav
320,192,11427,1,0,0:0:0:0:
64,192,11570,128,2,13856:0:0:0:0:
192,192,11570,1,4,0:0:0:0:
448,192,11570,128,0,13570:0:0:0:0:
192,192,13713,128,0,13856:0:0:0:0:
320,192,13856,128,0,14713:0:0:0:0:
448,192,13856,128,0,14999:0:0:0:0:
64,192,14999,1,8,0:0:0:0:
192,192,14999,1,0,0:0:0:0:
320,192,15070,1,0,0:0:0:70:tom1.wav
64,192,15142,1,0,0:0:0:70:tom2.wav
192,192,15213,1,0,0:0:0:70:tom3.wav
320,192,15284,1,2,0:0:0:0:
448,192,15356,1,2,0:0:0:0:
192,192,15427,1,2,0:0:0:0:
64,192,15499,1,2,0:0:0:0:
320,192,15570,1,8,0:0:0:0:
448,192,15570,1,0,0:0:0:0:
64,192,15713,1,8,0:0:0:0:
192,192,15713,1,0,0:0:0:0:
192,192,15856,1,8,0:0:0:0:
320,192,15856,1,0,0:0:0:0:
64,192,15999,1,2,0:0:0:0:
320,192,15999,1,4,0:0:0:0:
448,192,15999,128,0,16284:0:0:0:0:
64,192,16284,1,2,0:0:0:0:
192,192,16427,1,8,0:0:0:0:
320,192,16427,1,0,0:0:0:0:
448,192,16427,1,0,0:0:0:0:
448,192,16570,1,0,0:0:0:0:
64,192,16713,1,2,0:0:0:0:
192,192,16713,1,0,0:0:0:0:
320,192,16856,1,2,0:0:0:0:
448,192,16856,1,0,0:0:0:0:
64,192,16999,1,8,0:0:0:0:
192,192,16999,1,0,0:0:0:0:
320,192,16999,1,0,0:0:0:0:
64,192,17142,1,2,0:0:0:0:
448,192,17142,128,0,17427:0:0:0:0:
192,192,17427,1,2,0:0:0:0:
320,192,17427,1,0,0:0:0:0:
64,192,17570,1,8,0:0:0:0:
320,192,17570,1,0,0:0:0:0:
448,192,17570,1,0,0:0:0:0:
448,192,17713,1,0,0:0:0:0:
64,192,17856,1,2,0:0:0:0:
192,192,17856,1,0,0:0:0:0:
320,192,17999,1,2,0:0:0:0:
448,192,17999,1,0,0:0:0:0:
64,192,18142,1,8,0:0:0:0:
192,192,18142,1,0,0:0:0:0:
320,192,18142,1,0,0:0:0:0:
64,192,18284,128,2,18570:0:0:0:0:
192,192,18284,1,4,0:0:0:0:
448,192,18284,1,0,0:0:0:0:
192,192,18570,1,2,0:0:0:0:
448,192,18570,1,0,0:0:0:0:
64,192,18713,1,8,0:0:0:0:
320,192,18713,1,0,0:0:0:0:
448,192,18713,1,0,0:0:0:0:
320,192,18856,1,0,0:0:0:0:
64,192,18999,1,2,0:0:0:0:
192,192,18999,1,0,0:0:0:0:
320,192,19142,1,2,0:0:0:0:
448,192,19142,1,0,0:0:0:0:
64,192,19284,1,8,0:0:0:0:
192,192,19284,1,0,0:0:0:0:
320,192,19284,1,0,0:0:0:0:
64,192,19427,1,2,0:0:0:0:
192,192,19427,1,4,0:0:0:0:
448,192,19427,128,0,19713:0:0:0:0:
192,192,19713,1,2,0:0:0:0:
320,192,19713,1,0,0:0:0:0:
64,192,19856,1,8,0:0:0:0:
320,192,19856,1,0,0:0:0:0:
448,192,19856,1,0,0:0:0:0:
448,192,19999,1,0,0:0:0:0:
64,192,20142,1,2,0:0:0:0:
320,192,20142,1,0,0:0:0:0:
192,192,20284,1,2,0:0:0:0:
320,192,20356,1,0,0:0:0:0:
64,192,20427,1,8,0:0:0:0:
192,192,20427,1,0,0:0:0:0:
448,192,20427,1,0,0:0:0:0:
64,192,20570,128,0,20856:0:0:0:0:
320,192,20713,1,2,0:0:0:0:
448,192,20713,1,4,0:0:0:0:
192,192,20856,1,0,0:0:0:0:
64,192,20999,1,8,0:0:0:0:
320,192,20999,1,0,0:0:0:0:
448,192,20999,1,0,0:0:0:0:
448,192,21142,1,0,0:0:0:0:
64,192,21284,1,2,0:0:0:0:
192,192,21284,1,0,0:0:0:0:
320,192,21427,1,2,0:0:0:0:
448,192,21427,1,0,0:0:0:0:
64,192,21570,1,8,0:0:0:0:
192,192,21570,1,0,0:0:0:0:
320,192,21570,1,0,0:0:0:0:
64,192,21713,1,2,0:0:0:0:
448,192,21713,128,0,21999:0:0:0:0:
320,192,21856,1,0,0:0:0:0:
64,192,21999,1,2,0:0:0:0:
192,192,21999,1,0,0:0:0:0:
64,192,22142,1,8,0:0:0:0:
320,192,22142,1,0,0:0:0:0:
448,192,22142,1,0,0:0:0:0:
448,192,22284,1,0,0:0:0:0:
64,192,22427,1,2,0:0:0:0:
192,192,22427,1,0,0:0:0:0:
320,192,22570,1,2,0:0:0:0:
448,192,22570,1,0,0:0:0:0:
64,192,22713,1,8,0:0:0:0:
192,192,22713,1,0,0:0:0:0:
448,192,22713,1,0,0:0:0:0:
64,192,22856,128,2,23142:0:0:0:0:
320,192,22856,1,4,0:0:0:0:
448,192,22856,1,0,0:0:0:0:
192,192,23142,1,2,0:0:0:0:
320,192,23142,1,0,0:0:0:0:
64,192,23284,1,8,0:0:0:0:
320,192,23284,1,0,0:0:0:0:
448,192,23284,1,0,0:0:0:0:
64,192,23427,1,0,0:0:0:0:
320,192,23570,1,2,0:0:0:0:
448,192,23570,1,0,0:0:0:0:
64,192,23713,1,2,0:0:0:0:
192,192,23713,1,0,0:0:0:0:
64,192,23856,1,8,0:0:0:0:
320,192,23856,1,0,0:0:0:0:
448,192,23856,1,0,0:0:0:0:
64,192,23999,1,2,0:0:0:0:
192,192,23999,1,4,0:0:0:0:
448,192,23999,128,0,24284:0:0:0:0:
192,192,24284,1,8,0:0:0:0:
320,192,24284,1,0,0:0:0:0:
64,192,24427,1,8,0:0:0:0:
320,192,24427,1,0,0:0:0:0:
64,192,24570,1,8,0:0:0:0:
192,192,24570,1,0,0:0:0:0:
448,192,24570,1,0,0:0:0:0:
320,192,24713,1,2,0:0:0:0:
448,192,24713,1,0,0:0:0:0:
64,192,24856,1,8,0:0:0:0:
192,192,24856,1,4,0:0:0:0:
320,192,24856,128,0,25284:0:0:0:0:
64,192,25284,1,2,0:0:0:0:
448,192,25284,1,4,0:0:0:0:
64,192,25427,1,0,0:0:0:0:
192,192,25570,1,2,0:0:0:0:
448,192,25570,128,0,25856:0:0:0:0:
192,192,25713,1,0,0:0:0:0:
64,192,25856,128,2,26142:0:0:0:0:
320,192,25856,1,0,0:0:0:0:
320,192,25999,1,0,0:0:0:0:
192,192,26142,1,2,0:0:0:0:
448,192,26142,1,0,0:0:0:0:
448,192,26284,1,0,0:0:0:0:
64,192,26427,1,2,0:0:0:0:
320,192,26427,1,0,0:0:0:0:
192,192,26570,1,0,0:0:0:0:
64,192,26713,1,2,0:0:0:0:
448,192,26713,1,0,0:0:0:0:
320,192,26856,1,0,0:0:0:0:
64,192,26999,1,2,0:0:0:0:
192,192,26999,1,0,0:0:0:0:
448,192,27142,1,0,0:0:0:0:
64,192,27284,128,2,27570:0:0:0:0:
320,192,27284,1,0,0:0:0:0:
320,192,27427,1,0,0:0:0:0:
192,192,27570,1,2,0:0:0:0:
448,192,27570,1,0,0:0:0:0:
192,192,27713,1,0,0:0:0:0:
64,192,27856,1,2,0:0:0:0:
320,192,27856,128,0,28142:0:0:0:0:
64,192,27999,1,0,0:0:0:0:
192,192,28142,128,2,28427:0:0:0:0:
448,192,28142,1,0,0:0:0:0:
448,192,28284,1,0,0:0:0:0:
64,192,28427,1,2,0:0:0:0:
320,192,28427,1,0,0:0:0:0:
320,192,28570,1,0,0:0:0:0:
64,192,28713,1,2,0:0:0:0:
448,192,28713,1,0,0:0:0:0:
192,192,28856,1,0,0:0:0:0:
320,192,28999,1,2,0:0:0:0:
448,192,28999,1,0,0:0:0:0:
64,192,29142,1,0,0:0:0:0:
192,192,29284,1,2,0:0:0:0:
320,192,29284,1,0,0:0:0:0:
64,192,29427,1,0,0:0:0:0:
192,192,29570,1,2,0:0:0:0:
448,192,29570,128,0,29856:0:0:0:0:
192,192,29713,1,0,0:0:0:0:
64,192,29856,1,2,0:0:0:0:
320,192,29856,1,0,0:0:0:0:
192,192,29999,1,0,0:0:0:0:
64,192,30142,1,2,0:0:0:0:
320,192,30142,128,0,30427:0:0:0:0:
64,192,30284,1,0,0:0:0:0:
192,192,30427,128,2,30713:0:0:0:0:
448,192,30427,1,0,0:0:0:0:
448,192,30570,1,0,0:0:0:0:
64,192,30713,1,2,0:0:0:0:
320,192,30713,1,0,0:0:0:0:
320,192,30856,1,0,0:0:0:0:
64,192,30999,1,2,0:0:0:0:
448,192,30999,1,0,0:0:0:0:
192,192,31142,1,0,0:0:0:0:
64,192,31284,1,2,0:0:0:0:
448,192,31284,1,0,0:0:0:0:
320,192,31427,1,0,0:0:0:0:
192,192,31570,1,2,0:0:0:0:
448,192,31570,1,0,0:0:0:0:
64,192,31713,1,0,0:0:0:0:
320,192,31856,1,2,0:0:0:0:
448,192,31856,1,0,0:0:0:0:
192,192,31999,1,0,0:0:0:0:
64,192,32142,1,2,0:0:0:0:
448,192,32142,128,0,32570:0:0:0:0:
64,192,32427,1,2,0:0:0:0:
192,192,32427,1,0,0:0:0:0:
320,192,32570,128,0,32999:0:0:0:0:
64,192,32713,1,2,0:0:0:0:
448,192,32713,1,0,0:0:0:0:
64,192,32999,1,2,0:0:0:0:
192,192,32999,128,0,33427:0:0:0:0:
64,192,33284,1,2,0:0:0:0:
320,192,33284,1,0,0:0:0:0:
320,192,33427,1,8,0:0:0:0:
448,192,33427,1,0,0:0:0:0:
64,192,33570,1,8,0:0:0:0:
192,192,33570,1,0,0:0:0:0:
448,192,33570,1,0,0:0:0:0:
64,192,33713,1,2,0:0:0:0:
320,192,33713,1,0,0:0:0:0:
192,192,33856,1,2,0:0:0:0:
448,192,33856,1,0,0:0:0:0:
64,192,33999,128,8,34284:0:0:0:0:
320,192,33999,1,0,0:0:0:0:
448,192,33999,1,0,0:0:0:0:
320,192,34284,1,8,0:0:0:0:
448,192,34284,1,0,0:0:0:0:
192,192,34356,1,8,0:0:0:0:
64,192,34427,1,2,0:0:0:0:
448,192,34427,1,4,0:0:0:0:
64,192,34713,1,8,0:0:0:0:
192,192,34713,1,2,0:0:0:0:
320,192,34713,128,0,34856:0:0:0:0:
192,192,34999,128,2,35142:0:0:0:0:
448,192,35142,1,0,0:0:0:0:
64,192,35284,1,8,0:0:0:0:
192,192,35284,1,2,0:0:0:0:
320,192,35284,1,0,0:0:0:0:
64,192,35427,128,0,35713:0:0:0:0:
320,192,35570,1,2,0:0:0:0:
448,192,35570,1,0,0:0:0:0:
192,192,35713,1,0,0:0:0:0:
64,192,35856,1,8,0:0:0:0:
320,192,35856,128,2,35999:0:0:0:0:
448,192,35856,1,0,0:0:0:0:
192,192,35999,1,0,0:0:0:0:
64,192,36142,1,2,0:0:0:0:
448,192,36142,128,0,36284:0:0:0:0:
320,192,36284,1,0,0:0:0:0:
64,192,36427,1,8,0:0:0:0:
192,192,36427,128,2,36713:0:0:0:0:
448,192,36427,1,0,0:0:0:0:
320,192,36713,1,2,0:0:0:0:
448,192,36713,1,0,0:0:0:0:
64,192,36999,1,8,0:0:0:0:
192,192,36999,1,2,0:0:0:0:
448,192,36999,128,0,37142:0:0:0:0:
64,192,37284,128,2,37427:0:0:0:0:
320,192,37284,1,0,0:0:0:0:
192,192,37427,1,0,0:0:0:0:
64,192,37570,1,8,0:0:0:0:
320,192,37570,1,2,0:0:0:0:
448,192,37570,1,0,0:0:0:0:
192,192,37713,128,0,37999:0:0:0:0:
320,192,37856,1,2,0:0:0:0:
448,192,37856,1,0,0:0:0:0:
64,192,37999,1,0,0:0:0:0:
64,192,38142,128,8,38284:0:0:0:0:
320,192,38142,1,2,0:0:0:0:
448,192,38142,1,0,0:0:0:0:
192,192,38284,1,0,0:0:0:0:
320,192,38427,128,2,38570:0:0:0:0:
448,192,38427,1,0,0:0:0:0:
64,192,38570,1,0,0:0:0:0:
192,192,38713,1,8,0:0:0:0:
320,192,38713,1,2,0:0:0:0:
448,192,38713,128,0,38999:0:0:0:0:
64,192,38999,1,2,0:0:0:0:
192,192,38999,1,0,0:0:0:0:
64,192,39284,128,8,39427:0:0:0:0:
320,192,39284,1,2,0:0:0:0:
448,192,39284,1,0,0:0:0:0:
64,192,39570,1,2,0:0:0:0:
320,192,39570,128,0,39713:0:0:0:0:
192,192,39713,128,0,39856:0:0:0:0:
64,192,39856,1,8,0:0:0:0:
320,192,39856,1,2,0:0:0:0:
448,192,39856,1,0,0:0:0:0:
448,192,39999,128,0,40427:0:0:0:0:
64,192,40142,1,2,0:0:0:0:
192,192,40142,1,0,0:0:0:0:
64,192,40427,1,8,0:0:0:0:
192,192,40427,1,2,0:0:0:0:
320,192,40427,128,0,40713:0:0:0:0:
64,192,40570,1,0,0:0:0:0:
192,192,40713,128,2,40999:0:0:0:0:
448,192,40713,1,0,0:0:0:0:
320,192,40856,1,0,0:0:0:0:
64,192,40999,128,8,41284:0:0:0:0:
320,192,40999,1,2,0:0:0:0:
448,192,40999,1,0,0:0:0:0:
320,192,41284,1,2,0:0:0:0:
448,192,41284,128,0,41570:0:0:0:0:
64,192,41570,1,8,0:0:0:0:
192,192,41570,1,2,0:0:0:0:
320,192,41570,1,0,0:0:0:0:
320,192,41713,128,0,42142:0:0:0:0:
64,192,41856,1,2,0:0:0:0:
192,192,41856,1,0,0:0:0:0:
64,192,42142,128,8,42427:0:0:0:0:
192,192,42142,1,2,0:0:0:0:
448,192,42142,1,0,0:0:0:0:
320,192,42427,1,2,0:0:0:0:
448,192,42427,1,0,0:0:0:0:
64,192,42570,1,8,0:0:0:0:
192,192,42570,1,0,0:0:0:0:
320,192,42570,1,0,0:0:0:0:
64,192,42713,1,8,0:0:0:0:
192,192,42713,1,0,0:0:0:0:
320,192,42713,1,0,0:0:0:0:
448,192,42856,1,0,0:0:0:0:
192,192,42999,1,8,0:0:0:0:
320,192,42999,1,0,0:0:0:0:
448,192,42999,1,0,0:0:0:0:
192,192,43142,1,0,0:0:0:0:
64,192,43284,1,8,0:0:0:0:
320,192,43284,1,0,0:0:0:0:
448,192,43284,1,0,0:0:0:0:
64,192,43427,1,8,0:0:0:0:
192,192,43427,1,0,0:0:0:0:
320,192,43499,1,8,0:0:0:0:
64,192,43570,1,2,0:0:0:0:
192,192,43570,1,4,0:0:0:0:
448,192,43570,128,0,43856:0:0:0:0:
64,192,43856,1,8,0:0:0:0:
192,192,43856,1,0,0:0:0:0:
320,192,43856,1,0,0:0:0:0:
64,192,43999,1,0,0:0:0:0:
320,192,44142,1,2,0:0:0:0:
448,192,44142,1,0,0:0:0:0:
320,192,44284,1,2,0:0:0:0:
448,192,44284,1,0,0:0:0:0:
64,192,44427,128,0,44713:0:0:0:0:
192,192,44427,1,0,0:0:0:0:
320,192,44570,1,8,0:0:0:0:
448,192,44570,1,0,0:0:0:0:
192,192,44713,1,2,0:0:0:0:
320,192,44713,128,0,44999:0:0:0:0:
64,192,44999,1,8,0:0:0:0:
192,192,44999,1,0,0:0:0:0:
448,192,44999,1,0,0:0:0:0:
448,192,45142,1,0,0:0:0:0:
64,192,45284,1,2,0:0:0:0:
192,192,45284,1,0,0:0:0:0:
64,192,45427,1,2,0:0:0:0:
192,192,45427,1,0,0:0:0:0:
192,192,45570,128,8,45856:0:0:0:0:
320,192,45570,1,0,0:0:0:0:
448,192,45570,1,0,0:0:0:0:
64,192,45856,128,2,46142:0:0:0:0:
448,192,45856,1,0,0:0:0:0:
320,192,45999,1,0,0:0:0:0:
192,192,46142,1,8,0:0:0:0:
320,192,46142,1,0,0:0:0:0:
448,192,46142,1,0,0:0:0:0:
64,192,46284,1,0,0:0:0:0:
320,192,46427,1,2,0:0:0:0:
448,192,46427,1,0,0:0:0:0:
64,192,46570,1,2,0:0:0:0:
192,192,46570,1,0,0:0:0:0:
320,192,46713,1,0,0:0:0:0:
64,192,46856,1,8,0:0:0:0:
192,192,46856,1,0,0:0:0:0:
448,192,46856,1,0,0:0:0:0:
320,192,46999,1,2,0:0:0:0:
448,192,46999,1,0,0:0:0:0:
192,192,47142,1,0,0:0:0:0:
64,192,47284,1,8,0:0:0:0:
320,192,47284,1,0,0:0:0:0:
448,192,47284,1,0,0:0:0:0:
192,192,47427,1,0,0:0:0:0:
320,192,47570,1,2,0:0:0:0:
448,192,47570,1,0,0:0:0:0:
320,192,47713,1,2,0:0:0:0:
448,192,47713,1,0,0:0:0:0:
64,192,47856,1,8,0:0:0:0:
192,192,47856,1,0,0:0:0:0:
320,192,47856,1,0,0:0:0:0:
64,192,48142,128,2,48427:0:0:0:0:
192,192,48142,1,4,0:0:0:0:
448,192,48142,1,0,0:0:0:0:
192,192,48427,1,8,0:0:0:0:
320,192,48427,1,0,0:0:0:0:
448,192,48427,1,0,0:0:0:0:
448,192,48570,1,0,0:0:0:0:
64,192,48713,1,2,0:0:0:0:
192,192,48713,1,0,0:0:0:0:
64,192,48856,1,2,0:0:0:0:
192,192,48856,1,0,0:0:0:0:
320,192,48999,1,0,0:0:0:0:
448,192,48999,128,0,49284:0:0:0:0:
64,192,49142,1,8,0:0:0:0:
192,192,49142,1,0,0:0:0:0:
192,192,49284,128,2,49570:0:0:0:0:
320,192,49284,1,0,0:0:0:0:
64,192,49570,1,8,0:0:0:0:
320,192,49570,1,0,0:0:0:0:
448,192,49570,1,0,0:0:0:0:
64,192,49713,1,0,0:0:0:0:
320,192,49856,1,2,0:0:0:0:
448,192,49856,1,0,0:0:0:0:
320,192,49999,1,2,0:0:0:0:
448,192,49999,1,0,0:0:0:0:
64,192,50142,1,8,0:0:0:0:
192,192,50142,1,0,0:0:0:0:
320,192,50142,128,0,50427:0:0:0:0:
64,192,50427,1,2,0:0:0:0:
448,192,50427,128,0,50713:0:0:0:0:
192,192,50570,1,0,0:0:0:0:
64,192,50713,1,8,0:0:0:0:
192,192,50713,1,0,0:0:0:0:
320,192,50713,1,0,0:0:0:0:
448,192,50856,1,0,0:0:0:0:
64,192,50999,1,2,0:0:0:0:
192,192,50999,1,0,0:0:0:0:
320,192,51142,1,2,0:0:0:0:
448,192,51142,1,0,0:0:0:0:
192,192,51284,1,0,0:0:0:0:
64,192,51427,1,8,0:0:0:0:
320,192,51427,1,0,0:0:0:0:
448,192,51427,1,0,0:0:0:0:
64,192,51570,1,2,0:0:0:0:
192,192,51570,1,0,0:0:0:0:
320,192,51713,1,0,0:0:0:0:
64,192,51856,1,8,0:0:0:0:
192,192,51856,1,0,0:0:0:0:
448,192,51856,1,0,0:0:0:0:
320,192,51999,1,0,0:0:0:0:
64,192,52142,1,2,0:0:0:0:
192,192,52142,1,0,0:0:0:0:
64,192,52284,1,2,0:0:0:0:
192,192,52284,1,0,0:0:0:0:
64,192,52427,1,8,0:0:0:0:
320,192,52427,1,0,0:0:0:0:
448,192,52427,1,0,0:0:0:0:
64,192,52713,1,2,0:0:0:0:
192,192,52713,1,4,0:0:0:0:
448,192,52713,128,0,52999:0:0:0:0:
64,192,52999,1,8,0:0:0:0:
192,192,52999,1,0,0:0:0:0:
320,192,52999,1,0,0:0:0:0:
64,192,53142,1,0,0:0:0:0:
320,192,53284,1,2,0:0:0:0:
448,192,53284,1,0,0:0:0:0:
320,192,53427,1,2,0:0:0:0:
448,192,53427,1,0,0:0:0:0:
64,192,53570,128,8,53856:0:0:0:0:
192,192,53570,1,0,0:0:0:0:
448,192,53570,1,0,0:0:0:0:
320,192,53856,1,2,0:0:0:0:
448,192,53856,128,0,54142:0:0:0:0:
64,192,54142,1,8,0:0:0:0:
192,192,54142,1,0,0:0:0:0:
320,192,54142,1,0,0:0:0:0:
320,192,54284,1,0,0:0:0:0:
64,192,54427,1,2,0:0:0:0:
192,192,54427,1,0,0:0:0:0:
64,192,54570,1,2,0:0:0:0:
192,192,54570,1,0,0:0:0:0:
64,192,54713,1,8,0:0:0:0:
320,192,54713,128,0,54999:0:0:0:0:
448,192,54713,1,0,0:0:0:0:
192,192,54999,128,2,55284:0:0:0:0:
448,192,54999,1,0,0:0:0:0:
64,192,55284,1,8,0:0:0:0:
320,192,55284,1,0,0:0:0:0:
448,192,55284,1,0,0:0:0:0:
448,192,55427,128,0,55713:0:0:0:0:
64,192,55570,1,2,0:0:0:0:
320,192,55570,1,0,0:0:0:0:
64,192,55713,1,2,0:0:0:0:
320,192,55713,1,0,0:0:0:0:
192,192,55856,128,8,56142:0:0:0:0:
320,192,55856,1,0,0:0:0:0:
448,192,55856,1,0,0:0:0:0:
64,192,56142,1,2,0:0:0:0:
320,192,56142,1,0,0:0:0:0:
448,192,56284,128,0,56570:0:0:0:0:
64,192,56427,1,8,0:0:0:0:
192,192,56427,1,0,0:0:0:0:
64,192,56713,128,2,56999:0:0:0:0:
320,192,56713,1,0,0:0:0:0:
192,192,56856,1,2,0:0:0:0:
448,192,56856,1,0,0:0:0:0:
192,192,56999,1,8,0:0:0:0:
320,192,56999,1,0,0:0:0:0:
448,192,56999,1,0,0:0:0:0:
64,192,57142,1,8,0:0:0:0:
192,192,57142,1,0,0:0:0:0:
320,192,57213,1,8,0:0:0:0:
64,192,57284,1,2,0:0:0:0:
192,192,57284,1,4,0:0:0:0:
448,192,57284,1,0,0:0:0:0:
448,192,57427,1,0,0:0:0:0:
64,192,57570,1,8,0:0:0:0:
192,192,57570,1,0,0:0:0:0:
320,192,57570,1,0,0:0:0:0:
64,192,57713,1,0,0:0:0:0:
192,192,57856,1,8,0:0:0:0:
320,192,57856,1,0,0:0:0:0:
448,192,57856,1,0,0:0:0:0:
320,192,57999,1,2,0:0:0:0:
448,192,57999,1,0,0:0:0:0:
64,192,58142,1,8,0:0:0:0:
192,192,58142,1,0,0:0:0:0:
448,192,58142,1,0,0:0:0:0:
64,192,58284,128,2,58713:0:0:0:0:
192,192,58284,1,0,0:0:0:0:
320,192,58427,1,8,0:0:0:0:
448,192,58427,1,0,0:0:0:0:
192,192,58713,1,8,0:0:0:0:
320,192,58713,1,0,0:0:0:0:
448,192,58713,128,0,58999:0:0:0:0:
64,192,58856,1,2,0:0:0:0:
192,192,58856,1,0,0:0:0:0:
64,192,58999,1,8,0:0:0:0:
320,192,58999,1,0,0:0:0:0:
64,192,59142,1,2,0:0:0:0:
192,192,59142,1,0,0:0:0:0:
192,192,59284,1,8,0:0:0:0:
320,192,59284,1,0,0:0:0:0:
448,192,59284,1,0,0:0:0:0:
320,192,59427,1,2,0:0:0:0:
448,192,59427,1,0,0:0:0:0:
64,192,59570,1,8,0:0:0:0:
192,192,59570,1,2,0:0:0:0:
448,192,59570,1,0,0:0:0:0:
64,192,59713,1,2,0:0:0:0:
192,192,59713,1,8,0:0:0:0:
320,192,59856,1,2,0:0:0:0:
192,192,59927,1,2,0:0:0:0:
64,192,59999,1,2,0:0:0:0:
320,192,59999,1,8,0:0:0:0:
448,192,59999,1,0,0:0:0:0:
320,192,60142,1,2,0:0:0:0:
448,192,60142,1,8,0:0:0:0:
192,192,60284,1,2,0:0:0:0:
320,192,60356,1,2,0:0:0:0:
64,192,60427,1,2,0:0:0:0:
192,192,60427,1,8,0:0:0:0:
448,192,60427,1,0,0:0:0:0:
64,192,60570,1,2,0:0:0:0:
192,192,60570,1,8,0:0:0:0:
320,192,60713,1,2,0:0:0:0:
192,192,60784,1,2,0:0:0:0:
64,192,60856,1,2,0:0:0:0:
320,192,60856,1,8,0:0:0:0:
448,192,60856,1,0,0:0:0:0:
320,192,60999,1,2,0:0:0:0:
448,192,60999,1,8,0:0:0:0:
192,192,61142,1,2,0:0:0:0:
320,192,61213,1,2,0:0:0:0:
64,192,61284,1,8,0:0:0:0:
192,192,61356,1,8,0:0:0:0:
448,192,61427,1,2,0:0:0:0:
320,192,61499,1,2,0:0:0:0:
192,192,61570,1,0,0:0:0:70:tom1.wav
64,192,61642,1,0,0:0:0:70:tom2.wav
320,192,61713,1,0,0:0:0:70:tom3.wav
192,192,61784,1,0,0:0:0:0:
64,192,61856,1,8,0:0:0:0:
448,192,61856,128,2,62284:0:0:0:0:
320,192,62284,128,0,62713:0:0:0:0:
192,192,62713,128,0,63142:0:0:0:0:
320,192,63142,128,0,63570:0:0:0:0:
64,192,63570,128,0,63999:0:0:0:0:
320,192,64046,1,2,0:0:0:0:
192,192,64094,1,2,0:0:0:0:
64,192,64142,1,8,0:0:0:0:
448,192,64142,128,0,64284:0:0:0:0:
192,192,64284,128,0,64427:0:0:0:0:
64,192,64427,128,0,64570:0:0:0:0:
320,192,64618,1,2,0:0:0:0:
192,192,64665,1,2,0:0:0:0:
320,192,64713,1,8,0:0:0:0:
448,192,64713,128,0,64856:0:0:0:0:
192,192,64856,128,0,64999:0:0:0:0:
320,192,64999,128,0,65142:0:0:0:0:
64,192,65142,128,8,65284:0:0:0:0:
192,192,65142,128,4,65284:0:0:0:0:
448,192,65142,128,0,65284:0:0:0:0:
64,192,65427,1,8,0:0:0:0:
192,192,65427,1,0,0:0:0:0:
448,192,65427,1,0,0:0:0:0:
64,192,65570,1,8,0:0:0:0:
192,192,65570,1,0,0:0:0:0:
448,192,65570,1,0,0:0:0:0:
64,192,65713,1,8,0:0:0:0:
320,192,65713,1,0,0:0:0:0:
448,192,65713,1,0,0:0:0:0:
64,192,65999,1,8,0:0:0:0:
192,192,65999,1,0,0:0:0:0:
320,192,66070,1,2,0:0:0:0:
64,192,66142,128,2,66284:0:0:0:0:
448,192,66142,128,0,66284:0:0:0:0:
64,192,66427,1,2,0:0:0:0:
192,192,66427,1,4,0:0:0:0:
320,192,66427,128,0,66713:0:0:0:0:
64,192,66713,1,8,0:0:0:0:
192,192,66713,128,0,66999:0:0:0:0:
448,192,66713,1,0,0:0:0:0:
320,192,66999,1,2,0:0:0:0:
448,192,66999,128,0,67142:0:0:0:0:
64,192,67142,128,2,67284:0:0:0:0:
192,192,67142,1,0,0:0:0:0:
192,192,67284,1,8,0:0:0:0:
320,192,67284,1,0,0:0:0:0:
448,192,67284,1,0,0:0:0:0:
64,192,67427,1,2,0:0:0:0:
448,192,67427,128,0,67713:0:0:0:0:
192,192,67713,1,2,0:0:0:0:
320,192,67713,1,0,0:0:0:0:
64,192,67856,128,8,68142:0:0:0:0:
192,192,67856,1,0,0:0:0:0:
448,192,67856,1,0,0:0:0:0:
320,192,68142,1,2,0:0:0:0:
448,192,68142,128,0,68284:0:0:0:0:
192,192,68284,128,2,68427:0:0:0:0:
320,192,68284,1,0,0:0:0:0:
64,192,68427,128,8,68570:0:0:0:0:
448,192,68427,1,0,0:0:0:0:
192,192,68570,1,2,0:0:0:0:
320,192,68570,128,0,68856:0:0:0:0:
64,192,68856,1,2,0:0:0:0:
448,192,68856,128,0,68999:0:0:0:0:
64,192,68999,1,8,0:0:0:0:
192,192,68999,1,0,0:0:0:0:
320,192,68999,1,0,0:0:0:0:
192,192,69142,128,0,69284:0:0:0:0:
320,192,69284,128,2,69427:0:0:0:0:
448,192,69284,1,0,0:0:0:0:
64,192,69427,128,2,69570:0:0:0:0:
192,192,69427,1,0,0:0:0:0:
192,192,69570,1,8,0:0:0:0:
320,192,69570,1,0,0:0:0:0:
448,192,69570,1,0,0:0:0:0:
320,192,69713,1,2,0:0:0:0:
448,192,69713,128,0,69999:0:0:0:0:
64,192,69999,1,2,0:0:0:0:
192,192,69999,1,0,0:0:0:0:
64,192,70142,1,8,0:0:0:0:
320,192,70142,1,0,0:0:0:0:
448,192,70142,1,0,0:0:0:0:
64,192,70427,1,2,0:0:0:0:
320,192,70427,1,0,0:0:0:0:
192,192,70570,128,2,70713:0:0:0:0:
448,192,70570,1,0,0:0:0:0:
64,192,70713,1,8,0:0:0:0:
320,192,70713,128,0,70856:0:0:0:0:
192,192,70856,1,0,0:0:0:0:
448,192,70856,128,0,70999:0:0:0:0:
64,192,70999,128,2,71213:0:0:0:0:
192,192,70999,1,4,0:0:0:0:
320,192,70999,1,0,0:0:0:0:
320,192,71213,1,0,0:0:0:0:
64,192,71284,1,8,0:0:0:0:
192,192,71284,1,0,0:0:0:0:
448,192,71284,1,0,0:0:0:0:
320,192,71427,128,0,71570:0:0:0:0:
192,192,71570,1,2,0:0:0:0:
448,192,71570,128,0,71784:0:0:0:0:
64,192,71713,1,2,0:0:0:0:
192,192,71784,1,0,0:0:0:0:
64,192,71856,1,8,0:0:0:0:
320,192,71856,1,0,0:0:0:0:
448,192,71856,1,0,0:0:0:0:
192,192,71999,128,0,72142:0:0:0:0:
320,192,72142,128,2,72356:0:0:0:0:
448,192,72142,1,0,0:0:0:0:
192,192,72356,1,0,0:0:0:0:
64,192,72427,1,8,0:0:0:0:
320,192,72427,1,0,0:0:0:0:
448,192,72427,1,0,0:0:0:0:
64,192,72570,128,0,72713:0:0:0:0:
192,192,72713,128,2,72927:0:0:0:0:
320,192,72713,1,0,0:0:0:0:
448,192,72856,1,2,0:0:0:0:
320,192,72927,1,0,0:0:0:0:
64,192,72999,1,8,0:0:0:0:
192,192,72999,1,0,0:0:0:0:
448,192,72999,1,0,0:0:0:0:
64,192,73142,128,2,73284:0:0:0:0:
192,192,73284,1,8,0:0:0:0:
320,192,73284,1,4,0:0:0:0:
448,192,73284,128,0,73570:0:0:0:0:
64,192,73427,1,2,0:0:0:0:
64,192,73570,1,2,0:0:0:0:
320,192,73713,128,8,73999:0:0:0:0:
448,192,73713,1,4,0:0:0:0:
192,192,73856,1,2,0:0:0:0:
192,192,73999,1,2,0:0:0:0:
64,192,74142,128,8,74427:0:0:0:0:
448,192,74142,1,4,0:0:0:0:
320,192,74284,1,2,0:0:0:0:
320,192,74427,1,2,0:0:0:0:
64,192,74570,1,8,0:0:0:0:
192,192,74570,128,4,74856:0:0:0:0:
448,192,74713,1,2,0:0:0:0:
448,192,74856,1,2,0:0:0:0:
64,192,74999,128,8,75142:0:0:0:0:
320,192,74999,1,4,0:0:0:0:
320,192,75142,1,2,0:0:0:0:
448,192,75142,1,0,0:0:0:0:
64,192,75284,1,8,0:0:0:0:
448,192,75284,128,4,75427:0:0:0:0:
64,192,75427,1,2,0:0:0:0:
192,192,75427,1,0,0:0:0:0:
192,192,75570,128,2,75856:0:0:0:0:
320,192,75570,1,4,0:0:0:0:
448,192,75570,1,0,0:0:0:0:
64,192,75856,1,8,0:0:0:0:
320,192,75856,128,0,76142:0:0:0:0:
448,192,75856,1,0,0:0:0:0:
64,192,76142,128,2,76284:0:0:0:0:
192,192,76142,1,0,0:0:0:0:
320,192,76284,1,2,0:0:0:0:
448,192,76284,128,0,76427:0:0:0:0:
64,192,76427,1,8,0:0:0:0:
192,192,76427,1,0,0:0:0:0:
320,192,76427,1,0,0:0:0:0:
64,192,76570,128,2,76856:0:0:0:0:
448,192,76570,1,0,0:0:0:0:
192,192,76856,1,2,0:0:0:0:
320,192,76856,1,0,0:0:0:0:
64,192,76999,1,8,0:0:0:0:
320,192,76999,1,0,0:0:0:0:
448,192,76999,128,0,77284:0:0:0:0:
64,192,77284,128,2,77427:0:0:0:0:
320,192,77284,1,0,0:0:0:0:
192,192,77427,128,2,77570:0:0:0:0:
448,192,77427,1,0,0:0:0:0:
320,192,77570,128,8,77713:0:0:0:0:
448,192,77570,1,0,0:0:0:0:
64,192,77713,128,2,77999:0:0:0:0:
192,192,77713,1,0,0:0:0:0:
192,192,77999,1,2,0:0:0:0:
448,192,77999,128,0,78142:0:0:0:0:
64,192,78142,1,8,0:0:0:0:
320,192,78142,128,0,78284:0:0:0:0:
192,192,78284,128,0,78427:0:0:0:0:
64,192,78427,1,2,0:0:0:0:
448,192,78427,128,0,78570:0:0:0:0:
192,192,78570,1,2,0:0:0:0:
320,192,78570,128,0,78713:0:0:0:0:
64,192,78713,1,8,0:0:0:0:
192,192,78713,1,0,0:0:0:0:
448,192,78713,1,0,0:0:0:0:
64,192,78856,128,2,79142:0:0:0:0:
320,192,78856,1,0,0:0:0:0:
320,192,79142,1,2,0:0:0:0:
448,192,79142,1,0,0:0:0:0:
64,192,79284,1,8,0:0:0:0:
192,192,79284,1,0,0:0:0:0:
448,192,79284,1,0,0:0:0:0:
192,192,79570,1,2,0:0:0:0:
448,192,79570,1,0,0:0:0:0:
64,192,79713,1,2,0:0:0:0:
320,192,79713,128,0,79856:0:0:0:0:
192,192,79856,128,8,79999:0:0:0:0:
448,192,79856,1,0,0:0:0:0:
64,192,79999,128,0,80142:0:0:0:0:
320,192,79999,1,0,0:0:0:0:
192,192,80142,1,2,0:0:0:0:
320,192,80142,1,4,0:0:0:0:
448,192,80142,128,0,80356:0:0:0:0:
320,192,80356,1,0,0:0:0:0:
64,192,80427,1,8,0:0:0:0:
192,192,80427,1,0,0:0:0:0:
448,192,80427,1,0,0:0:0:0:
320,192,80570,128,0,80713:0:0:0:0:
64,192,80713,128,2,80927:0:0:0:0:
192,192,80713,1,0,0:0:0:0:
448,192,80856,1,2,0:0:0:0:
320,192,80927,1,0,0:0:0:0:
64,192,80999,1,8,0:0:0:0:
192,192,80999,1,0,0:0:0:0:
448,192,80999,1,0,0:0:0:0:
192,192,81142,128,2,81284:0:0:0:0:
64,192,81284,1,8,0:0:0:0:
320,192,81284,1,0,0:0:0:0:
448,192,81284,1,0,0:0:0:0:
320,192,81427,1,2,0:0:0:0:
448,192,81427,1,0,0:0:0:0:
64,192,81570,1,8,0:0:0:0:
192,192,81570,1,0,0:0:0:0:
320,192,81570,1,0,0:0:0:0:
192,192,81713,1,2,0:0:0:0:
448,192,81713,1,0,0:0:0:0:
64,192,81856,1,8,0:0:0:0:
320,192,81856,1,0,0:0:0:0:
448,192,81856,1,0,0:0:0:0:
64,192,81999,1,2,0:0:0:0:
320,192,81999,1,0,0:0:0:0:
64,192,82142,128,8,82284:0:0:0:0:
192,192,82142,1,0,0:0:0:0:
448,192,82142,1,0,0:0:0:0:
192,192,82284,1,2,0:0:0:0:
320,192,82284,1,4,0:0:0:0:
448,192,82284,128,0,83570:0:0:0:0:
64,192,82570,1,2,0:0:0:0:
192,192,82570,1,0,0:0:0:0:
64,192,82713,1,8,0:0:0:0:
320,192,82713,1,0,0:0:0:0:
64,192,82999,1,2,0:0:0:0:
192,192,82999,1,0,0:0:0:0:
64,192,83142,1,2,0:0:0:0:
192,192,83142,1,0,0:0:0:0:
192,192,83284,1,8,0:0:0:0:
320,192,83284,1,0,0:0:0:0:
64,192,83570,1,2,0:0:0:0:
192,192,83570,1,0,0:0:0:0:
64,192,83713,1,2,0:0:0:0:
192,192,83713,1,0,0:0:0:0:
192,192,83856,1,8,0:0:0:0:
320,192,83856,1,0,0:0:0:0:
448,192,83856,1,0,0:0:0:0:
448,192,83999,1,0,0:0:0:0:
64,192,84142,1,2,0:0:0:0:
192,192,84142,1,0,0:0:0:0:
192,192,84284,1,2,0:0:0:0:
448,192,84284,128,0,84427:0:0:0:0:
64,192,84427,1,8,0:0:0:0:
320,192,84427,128,0,84570:0:0:0:0:
192,192,84570,128,0,84713:0:0:0:0:
448,192,84570,1,0,0:0:0:0:
64,192,84713,1,2,0:0:0:0:
320,192,84713,1,4,0:0:0:0:
448,192,84713,1,0,0:0:0:0:
64,192,84927,1,0,0:0:0:70:tom2.wav
192,192,84927,1,0,0:0:0:0:
320,192,84999,1,0,0:0:0:70:tom1.wav
448,192,84999,1,0,0:0:0:0:
192,192,85142,1,2,0:0:0:0:
320,192,85213,1,0,0:0:0:70:tom1.wav
64,192,85284,1,2,0:0:0:0:
448,192,85284,1,0,0:0:0:70:tom2.wav
320,192,85427,1,0,0:0:0:0:
192,192,85499,1,0,0:0:0:0:
64,192,85570,1,2,0:0:0:0:
448,192,85570,1,0,0:0:0:0:
320,192,85642,1,0,0:0:0:0:
192,192,85713,1,2,0:0:0:0:
64,192,85784,1,0,0:0:0:0:
320,192,85856,1,8,0:0:0:0:
448,192,85856,1,0,0:0:0:0:
64,192,85999,1,8,0:0:0:0:
192,192,85999,1,2,0:0:0:0:
320,192,85999,1,0,0:0:0:0:
448,192,86142,128,0,86284:0:0:0:0:
320,192,86427,128,0,86570:0:0:0:0:
192,192,86713,128,0,86856:0:0:0:0:
64,192,86856,128,2,87142:0:0:0:0:
448,192,86856,1,4,0:0:0:0:
192,192,87142,1,2,0:0:0:0:
64,192,87284,1,8,0:0:0:0:
320,192,87284,1,0,0:0:0:0:
448,192,87284,1,0,0:0:0:0:
448,192,87427,128,0,87713:0:0:0:0:
64,192,87570,1,2,0:0:0:0:
192,192,87570,1,0,0:0:0:0:
64,192,87713,128,2,87856:0:0:0:0:
320,192,87713,1,0,0:0:0:0:
192,192,87856,1,8,0:0:0:0:
320,192,87856,1,0,0:0:0:0:
448,192,87856,1,0,0:0:0:0:
64,192,87999,1,2,0:0:0:0:
192,192,87999,1,0,0:0:0:0:
448,192,88142,1,0,0:0:0:0:
64,192,88284,1,2,0:0:0:0:
192,192,88284,1,0,0:0:0:0:
64,192,88427,1,8,0:0:0:0:
320,192,88427,1,0,0:0:0:0:
448,192,88427,1,0,0:0:0:0:
448,192,88570,128,0,88856:0:0:0:0:
64,192,88713,1,2,0:0:0:0:
192,192,88713,1,0,0:0:0:0:
64,192,88856,1,2,0:0:0:0:
192,192,88856,1,0,0:0:0:0:
192,192,88999,1,8,0:0:0:0:
320,192,88999,1,0,0:0:0:0:
448,192,88999,1,0,0:0:0:0:
64,192,89142,128,2,89427:0:0:0:0:
448,192,89142,1,4,0:0:0:0:
320,192,89427,1,2,0:0:0:0:
192,192,89499,1,0,0:0:0:0:
64,192,89570,1,8,0:0:0:0:
320,192,89570,1,0,0:0:0:0:
448,192,89713,1,2,0:0:0:0:
320,192,89784,1,2,0:0:0:0:
192,192,89856,1,10,0:0:0:0:
64,192,89927,1,8,0:0:0:0:
320,192,89999,1,2,0:0:0:0:
192,192,90070,1,2,0:0:0:0:
448,192,90142,1,2,0:0:0:0:
320,192,90213,1,2,0:0:0:0:
64,192,90284,1,2,0:0:0:0:
192,192,90356,1,2,0:0:0:0:
320,192,90427,1,8,0:0:0:0:
448,192,90427,1,0,0:0:0:0:
64,192,90570,1,8,0:0:0:0:
192,192,90570,1,2,0:0:0:0:
320,192,90856,128,2,90999:0:0:0:0:
448,192,90856,128,8,90999:0:0:0:0:
64,192,91142,128,8,91427:0:0:0:0:
192,192,91142,128,4,91427:0:0:0:0:
320,192,91142,1,0,0:0:0:0:
320,192,91570,1,2,0:0:0:0:
448,192,91570,1,4,0:0:0:0:
320,192,91713,1,2,0:0:0:0:
448,192,91713,1,0,0:0:0:0:
64,192,91856,128,8,92142:0:0:0:0:
192,192,91856,1,0,0:0:0:0:
320,192,92142,128,0,92427:0:0:0:0:
64,192,92427,1,8,0:0:0:0:
192,192,92570,128,2,92856:0:0:0:0:
448,192,92570,1,0,0:0:0:0:
320,192,92856,1,2,0:0:0:0:
448,192,92856,1,0,0:0:0:0:
64,192,92999,1,8,0:0:0:0:
192,192,92999,1,0,0:0:0:0:
64,192,93142,1,0,0:0:0:0:
448,192,93284,128,0,93427:0:0:0:0:
320,192,93427,128,0,93570:0:0:0:0:
64,192,93570,1,8,0:0:0:0:
192,192,93570,128,0,93856:0:0:0:0:
64,192,93856,1,2,0:0:0:0:
320,192,93856,1,0,0:0:0:0:
64,192,93999,1,2,0:0:0:0:
320,192,93999,1,0,0:0:0:0:
192,192,94142,1,8,0:0:0:0:
448,192,94142,128,0,94427:0:0:0:0:
64,192,94427,128,0,94713:0:0:0:0:
192,192,94713,1,8,0:0:0:0:
320,192,94856,128,2,95142:0:0:0:0:
448,192,94856,1,0,0:0:0:0:
64,192,95142,1,2,0:0:0:0:
192,192,95142,1,0,0:0:0:0:
320,192,95284,1,8,0:0:0:0:
448,192,95284,1,0,0:0:0:0:
448,192,95427,1,0,0:0:0:0:
64,192,95570,128,0,95713:0:0:0:0:
192,192,95713,128,0,95856:0:0:0:0:
320,192,95856,128,8,96142:0:0:0:0:
448,192,95856,1,0,0:0:0:0:
64,192,96142,1,2,0:0:0:0:
192,192,96142,1,0,0:0:0:0:
64,192,96284,1,2,0:0:0:0:
448,192,96284,1,0,0:0:0:0:
320,192,96427,1,8,0:0:0:0:
448,192,96427,128,0,96713:0:0:0:0:
192,192,96570,1,0,0:0:0:0:
64,192,96713,1,0,0:0:0:0:
320,192,96713,128,0,96856:0:0:0:0:
192,192,96856,128,0,96999:0:0:0:0:
320,192,96999,1,8,0:0:0:0:
448,192,96999,1,0,0:0:0:0:
64,192,97142,128,2,97427:0:0:0:0:
448,192,97142,1,0,0:0:0:0:
320,192,97284,1,0,0:0:0:0:
192,192,97427,1,2,0:0:0:0:
448,192,97427,1,0,0:0:0:0:
192,192,97570,1,8,0:0:0:0:
448,192,97570,128,0,97856:0:0:0:0:
320,192,97856,128,0,98142:0:0:0:0:
64,192,97999,1,0,0:0:0:0:
192,192,98142,128,8,98427:0:0:0:0:
448,192,98142,1,0,0:0:0:0:
320,192,98427,128,8,98713:0:0:0:0:
448,192,98427,128,2,98713:0:0:0:0:
192,192,98856,128,2,99142:0:0:0:0:
320,192,98856,128,8,99142:0:0:0:0:
64,192,99284,128,2,99570:0:0:0:0:
192,192,99284,128,8,99570:0:0:0:0:
320,192,99570,1,2,0:0:0:0:
448,192,99570,1,4,0:0:0:0:
64,192,99713,1,8,0:0:0:0:
192,192,99713,1,0,0:0:0:0:
64,192,99856,1,8,0:0:0:0:
192,192,99856,1,0,0:0:0:0:
320,192,99999,1,8,0:0:0:0:
192,192,100070,1,8,0:0:0:0:
320,192,100142,1,8,0:0:0:0:
448,192,100142,1,0,0:0:0:0:
448,192,100284,1,2,0:0:0:0:
64,192,100427,1,8,0:0:0:0:
192,192,100427,1,0,0:0:0:0:
64,192,100570,1,2,0:0:0:0:
192,192,100713,128,4,100999:0:0:0:0:
448,192,100713,1,2,0:0:0:0:
448,192,100856,1,2,0:0:0:0:
64,192,100999,1,8,0:0:0:0:
320,192,100999,1,0,0:0:0:0:
64,192,101142,1,2,0:0:0:0:
320,192,101142,1,0,0:0:0:0:
192,192,101284,1,8,0:0:0:0:
320,192,101284,1,0,0:0:0:0:
448,192,101284,1,0,0:0:0:0:
64,192,101570,128,8,101856:0:0:0:0:
192,192,101570,1,0,0:0:0:0:
320,192,101713,1,2,0:0:0:0:
448,192,101713,1,0,0:0:0:0:
192,192,101856,1,0,0:0:0:0:
448,192,101856,128,0,102142:0:0:0:0:
64,192,101999,1,8,0:0:0:0:
192,192,102142,1,2,0:0:0:0:
320,192,102142,1,0,0:0:0:0:
192,192,102284,1,2,0:0:0:0:
320,192,102284,1,0,0:0:0:0:
64,192,102427,1,8,0:0:0:0:
320,192,102427,128,0,102713:0:0:0:0:
448,192,102427,1,0,0:0:0:0:
192,192,102713,128,0,102999:0:0:0:0:
448,192,102856,1,0,0:0:0:0:
64,192,102999,128,2,103284:0:0:0:0:
320,192,102999,1,0,0:0:0:0:
320,192,103142,1,0,0:0:0:0:
192,192,103284,1,2,0:0:0:0:
448,192,103284,1,0,0:0:0:0:
192,192,103427,1,2,0:0:0:0:
448,192,103427,1,0,0:0:0:0:
64,192,103570,1,8,0:0:0:0:
320,192,103570,1,0,0:0:0:0:
448,192,103570,1,0,0:0:0:0:
320,192,103856,1,2,0:0:0:0:
64,192,103999,1,2,0:0:0:0:
192,192,103999,1,0,0:0:0:0:
448,192,104142,1,0,0:0:0:0:
192,192,104284,1,8,0:0:0:0:
320,192,104427,1,2,0:0:0:0:
448,192,104427,1,0,0:0:0:0:
320,192,104570,1,2,0:0:0:0:
448,192,104570,1,0,0:0:0:0:
64,192,104713,1,8,0:0:0:0:
320,192,104713,1,0,0:0:0:0:
64,192,104856,1,2,0:0:0:0:
192,192,104856,1,4,0:0:0:0:
448,192,104856,1,0,0:0:0:0:
192,192,104999,1,0,0:0:0:0:
64,192,105284,128,2,105570:0:0:0:0:
448,192,105284,1,4,0:0:0:0:
448,192,105427,1,2,0:0:0:0:
192,192,105570,1,8,0:0:0:0:
320,192,105570,1,0,0:0:0:0:
320,192,105713,1,2,0:0:0:0:
64,192,105856,1,8,0:0:0:0:
192,192,105856,1,0,0:0:0:0:
448,192,105856,1,0,0:0:0:0:
320,192,106142,1,8,0:0:0:0:
448,192,106142,128,0,106427:0:0:0:0:
64,192,106284,1,2,0:0:0:0:
192,192,106284,1,0,0:0:0:0:
192,192,106427,128,0,106713:0:0:0:0:
320,192,106427,1,0,0:0:0:0:
320,192,106570,1,8,0:0:0:0:
64,192,106713,1,2,0:0:0:0:
448,192,106713,1,0,0:0:0:0:
64,192,106856,1,2,0:0:0:0:
448,192,106856,1,0,0:0:0:0:
64,192,106999,1,8,0:0:0:0:
192,192,106999,1,0,0:0:0:0:
448,192,106999,1,0,0:0:0:0:
192,192,107284,1,0,0:0:0:0:
320,192,107284,128,0,107570:0:0:0:0:
192,192,107427,1,0,0:0:0:0:
64,192,107570,128,2,107856:0:0:0:0:
448,192,107570,1,0,0:0:0:0:
448,192,107713,1,0,0:0:0:0:
192,192,107856,1,2,0:0:0:0:
320,192,107856,1,0,0:0:0:0:
320,192,107999,1,2,0:0:0:0:
64,192,108142,1,8,0:0:0:0:
192,192,108142,1,0,0:0:0:0:
448,192,108142,1,0,0:0:0:0:
320,192,108284,1,0,0:0:0:0:
448,192,108284,1,0,0:0:0:0:
192,192,108427,1,2,0:0:0:0:
64,192,108570,1,8,0:0:0:0:
320,192,108570,1,0,0:0:0:0:
448,192,108570,1,0,0:0:0:0:
192,192,108856,1,8,0:0:0:0:
320,192,108856,1,0,0:0:0:0:
448,192,108856,1,0,0:0:0:0:
64,192,108999,1,2,0:0:0:0:
192,192,108999,1,0,0:0:0:0:
320,192,109142,1,2,0:0:0:0:
448,192,109142,1,0,0:0:0:0:
64,192,109284,1,8,0:0:0:0:
192,192,109284,1,0,0:0:0:0:
64,192,109427,1,2,0:0:0:0:
320,192,109427,1,4,0:0:0:0:
448,192,109427,1,0,0:0:0:0:
192,192,109570,1,0,0:0:0:0:
320,192,109713,1,8,0:0:0:0:
448,192,109713,1,0,0:0:0:0:
64,192,109856,1,2,0:0:0:0:
192,192,109856,1,4,0:0:0:0:
448,192,109856,128,0,110142:0:0:0:0:
64,192,110142,1,8,0:0:0:0:
192,192,110142,1,0,0:0:0:0:
320,192,110142,1,0,0:0:0:0:
64,192,110284,1,0,0:0:0:0:
320,192,110427,1,2,0:0:0:0:
448,192,110427,1,0,0:0:0:0:
320,192,110570,1,2,0:0:0:0:
448,192,110570,1,0,0:0:0:0:
64,192,110713,128,8,110999:0:0:0:0:
192,192,110713,1,0,0:0:0:0:
448,192,110713,1,0,0:0:0:0:
320,192,110999,1,2,0:0:0:0:
448,192,110999,128,0,111284:0:0:0:0:
192,192,111142,1,2,0:0:0:0:
64,192,111284,1,8,0:0:0:0:
192,192,111284,1,0,0:0:0:0:
320,192,111284,1,0,0:0:0:0:
320,192,111427,1,2,0:0:0:0:
64,192,111570,1,0,0:0:0:0:
192,192,111570,1,0,0:0:0:0:
64,192,111713,1,2,0:0:0:0:
192,192,111713,1,0,0:0:0:0:
64,192,111856,1,8,0:0:0:0:
320,192,111856,128,0,112142:0:0:0:0:
448,192,111856,1,0,0:0:0:0:
192,192,112142,128,2,112427:0:0:0:0:
448,192,112142,1,0,0:0:0:0:
64,192,112427,1,8,0:0:0:0:
320,192,112427,1,0,0:0:0:0:
448,192,112570,128,0,112856:0:0:0:0:
64,192,112713,1,2,0:0:0:0:
192,192,112713,1,0,0:0:0:0:
64,192,112856,1,2,0:0:0:0:
192,192,112856,1,0,0:0:0:0:
192,192,112999,128,8,113284:0:0:0:0:
320,192,112999,1,0,0:0:0:0:
448,192,112999,1,0,0:0:0:0:
64,192,113284,1,2,0:0:0:0:
320,192,113284,1,0,0:0:0:0:
448,192,113427,128,2,113713:0:0:0:0:
64,192,113570,1,8,0:0:0:0:
192,192,113570,1,0,0:0:0:0:
64,192,113856,128,0,114142:0:0:0:0:
192,192,113856,1,0,0:0:0:0:
320,192,113999,1,2,0:0:0:0:
448,192,113999,1,0,0:0:0:0:
192,192,114142,1,8,0:0:0:0:
320,192,114142,1,0,0:0:0:0:
448,192,114142,1,0,0:0:0:0:
64,192,114427,1,4,0:0:0:0:
192,192,114427,1,2,0:0:0:0:
448,192,114427,1,0,0:0:0:0:
448,192,114570,1,0,0:0:0:0:
64,192,114713,1,8,0:0:0:0:
192,192,114713,1,0,0:0:0:0:
320,192,114713,1,0,0:0:0:0:
64,192,114856,1,0,0:0:0:0:
192,192,114999,1,8,0:0:0:0:
320,192,114999,1,0,0:0:0:0:
448,192,114999,1,0,0:0:0:0:
320,192,115142,1,2,0:0:0:0:
448,192,115142,1,0,0:0:0:0:
64,192,115284,1,8,0:0:0:0:
192,192,115284,1,0,0:0:0:0:
448,192,115284,1,0,0:0:0:0:
64,192,115427,128,2,115856:0:0:0:0:
192,192,115427,1,0,0:0:0:0:
320,192,115570,1,8,0:0:0:0:
448,192,115570,1,0,0:0:0:0:
192,192,115856,1,8,0:0:0:0:
320,192,115856,1,0,0:0:0:0:
448,192,115856,128,0,116142:0:0:0:0:
64,192,115999,1,2,0:0:0:0:
192,192,115999,1,0,0:0:0:0:
64,192,116142,1,8,0:0:0:0:
320,192,116142,1,0,0:0:0:0:
64,192,116284,1,2,0:0:0:0:
192,192,116284,1,0,0:0:0:0:
192,192,116427,1,8,0:0:0:0:
320,192,116427,1,0,0:0:0:0:
448,192,116427,1,0,0:0:0:0:
320,192,116570,1,2,0:0:0:0:
448,192,116570,1,0,0:0:0:0:
64,192,116713,1,8,0:0:0:0:
192,192,116713,1,2,0:0:0:0:
448,192,116713,1,0,0:0:0:0:
64,192,116856,1,2,0:0:0:0:
192,192,116856,1,8,0:0:0:0:
320,192,116999,1,2,0:0:0:0:
192,192,117070,1,2,0:0:0:0:
64,192,117142,1,2,0:0:0:0:
320,192,117142,1,8,0:0:0:0:
448,192,117142,1,0,0:0:0:0:
320,192,117284,1,2,0:0:0:0:
448,192,117284,1,8,0:0:0:0:
192,192,117427,1,2,0:0:0:0:
320,192,117499,1,2,0:0:0:0:
64,192,117570,1,2,0:0:0:0:
192,192,117570,1,8,0:0:0:0:
448,192,117570,1,0,0:0:0:0:
64,192,117713,1,2,0:0:0:0:
192,192,117713,1,8,0:0:0:0:
320,192,117856,1,2,0:0:0:0:
192,192,117927,1,2,0:0:0:0:
64,192,117999,1,2,0:0:0:0:
320,192,117999,1,8,0:0:0:0:
448,192,117999,1,0,0:0:0:0:
320,192,118142,1,2,0:0:0:0:
448,192,118142,1,8,0:0:0:0:
192,192,118284,1,2,0:0:0:0:
320,192,118356,1,2,0:0:0:0:
64,192,118427,1,8,0:0:0:0:
192,192,118499,1,8,0:0:0:0:
448,192,118570,1,0,0:0:0:70:tom1.wav
320,192,118642,1,0,0:0:0:70:tom1.wav
192,192,118713,1,0,0:0:0:70:tom2.wav
64,192,118784,1,0,0:0:0:70:tom2.wav
320,192,118856,1,0,0:0:0:70:tom3.wav
192,192,118927,1,0,0:0:0:70:tom3.wav
64,192,118999,1,2,0:0:0:0:
320,192,118999,128,4,119284:0:0:0:0:
448,192,118999,1,0,0:0:0:0:
64,192,119284,1,8,0:0:0:0:
192,192,119284,128,0,119570:0:0:0:0:
448,192,119284,1,0,0:0:0:0:
320,192,119570,1,2,0:0:0:0:
448,192,119570,128,0,119713:0:0:0:0:
64,192,119713,128,2,119856:0:0:0:0:
192,192,119713,1,0,0:0:0:0:
192,192,119856,1,8,0:0:0:0:
320,192,119856,1,0,0:0:0:0:
448,192,119856,1,0,0:0:0:0:
64,192,119999,1,2,0:0:0:0:
448,192,119999,128,0,120284:0:0:0:0:
192,192,120284,1,2,0:0:0:0:
320,192,120284,1,0,0:0:0:0:
64,192,120427,128,8,120713:0:0:0:0:
192,192,120427,1,0,0:0:0:0:
448,192,120427,1,0,0:0:0:0:
192,192,120713,1,2,0:0:0:0:
448,192,120713,128,0,120856:0:0:0:0:
192,192,120856,1,2,0:0:0:0:
320,192,120856,128,0,120999:0:0:0:0:
64,192,120999,128,8,121142:0:0:0:0:
448,192,120999,1,0,0:0:0:0:
192,192,121142,128,2,121427:0:0:0:0:
320,192,121142,1,0,0:0:0:0:
64,192,121427,1,2,0:0:0:0:
320,192,121427,1,0,0:0:0:0:
64,192,121570,1,8,0:0:0:0:
192,192,121570,1,0,0:0:0:0:
448,192,121570,128,0,121713:0:0:0:0:
192,192,121713,128,0,121856:0:0:0:0:
320,192,121856,128,2,121999:0:0:0:0:
448,192,121856,1,0,0:0:0:0:
64,192,121999,128,2,122142:0:0:0:0:
192,192,121999,1,0,0:0:0:0:
192,192,122142,1,8,0:0:0:0:
320,192,122142,1,0,0:0:0:0:
448,192,122142,1,0,0:0:0:0:
320,192,122284,1,2,0:0:0:0:
448,192,122284,128,0,122570:0:0:0:0:
64,192,122570,1,2,0:0:0:0:
192,192,122570,1,0,0:0:0:0:
64,192,122713,1,8,0:0:0:0:
320,192,122713,1,0,0:0:0:0:
448,192,122713,1,0,0:0:0:0:
64,192,122999,1,2,0:0:0:0:
320,192,122999,1,0,0:0:0:0:
192,192,123142,128,2,123284:0:0:0:0:
448,192,123142,1,0,0:0:0:0:
64,192,123284,1,8,0:0:0:0:
320,192,123284,128,0,123427:0:0:0:0:
192,192,123427,1,0,0:0:0:0:
448,192,123427,128,0,123570:0:0:0:0:
64,192,123570,128,2,123784:0:0:0:0:
192,192,123570,1,4,0:0:0:0:
320,192,123570,1,0,0:0:0:0:
320,192,123784,1,0,0:0:0:0:
64,192,123856,1,8,0:0:0:0:
192,192,123856,1,0,0:0:0:0:
448,192,123856,1,0,0:0:0:0:
320,192,123999,128,0,124142:0:0:0:0:
192,192,124142,1,2,0:0:0:0:
448,192,124142,128,0,124356:0:0:0:0:
64,192,124284,1,2,0:0:0:0:
192,192,124356,1,0,0:0:0:0:
64,192,124427,1,8,0:0:0:0:
320,192,124427,1,0,0:0:0:0:
448,192,124427,1,0,0:0:0:0:
192,192,124570,128,0,124713:0:0:0:0:
320,192,124713,128,2,124927:0:0:0:0:
448,192,124713,1,0,0:0:0:0:
192,192,124927,1,0,0:0:0:0:
64,192,124999,1,8,0:0:0:0:
320,192,124999,1,0,0:0:0:0:
448,192,124999,1,0,0:0:0:0:
64,192,125142,128,0,125284:0:0:0:0:
192,192,125284,128,2,125499:0:0:0:0:
320,192,125284,1,0,0:0:0:0:
448,192,125427,1,2,0:0:0:0:
320,192,125499,1,0,0:0:0:0:
64,192,125570,1,8,0:0:0:0:
192,192,125570,1,0,0:0:0:0:
448,192,125570,1,0,0:0:0:0:
64,192,125713,128,2,125856:0:0:0:0:
192,192,125856,1,8,0:0:0:0:
320,192,125856,1,4,0:0:0:0:
448,192,125856,128,0,126142:0:0:0:0:
64,192,125999,1,2,0:0:0:0:
64,192,126142,1,2,0:0:0:0:
320,192,126284,128,8,126570:0:0:0:0:
448,192,126284,1,4,0:0:0:0:
192,192,126427,1,2,0:0:0:0:
192,192,126570,1,2,0:0:0:0:
64,192,126713,128,8,126999:0:0:0:0:
448,192,126713,1,4,0:0:0:0:
320,192,126856,1,2,0:0:0:0:
320,192,126999,1,2,0:0:0:0:
64,192,127142,1,8,0:0:0:0:
192,192,127142,128,4,127427:0:0:0:0:
448,192,127284,1,2,0:0:0:0:
448,192,127427,1,2,0:0:0:0:
64,192,127570,128,8,127713:0:0:0:0:
320,192,127570,1,4,0:0:0:0:
320,192,127713,1,2,0:0:0:0:
448,192,127713,1,0,0:0:0:0:
64,192,127856,1,8,0:0:0:0:
448,192,127856,128,4,127999:0:0:0:0:
64,192,127999,1,2,0:0:0:0:
192,192,127999,1,0,0:0:0:0:
192,192,128142,128,2,128427:0:0:0:0:
320,192,128142,1,4,0:0:0:0:
448,192,128142,1,0,0:0:0:0:
64,192,128427,1,8,0:0:0:0:
320,192,128427,128,0,128713:0:0:0:0:
448,192,128427,1,0,0:0:0:0:
64,192,128713,128,2,128856:0:0:0:0:
192,192,128713,1,0,0:0:0:0:
320,192,128856,1,2,0:0:0:0:
448,192,128856,128,0,128999:0:0:0:0:
64,192,128999,1,8,0:0:0:0:
192,192,128999,1,0,0:0:0:0:
320,192,128999,1,0,0:0:0:0:
64,192,129142,128,2,129427:0:0:0:0:
448,192,129142,1,0,0:0:0:0:
192,192,129427,1,2,0:0:0:0:
320,192,129427,1,0,0:0:0:0:
64,192,129570,1,8,0:0:0:0:
320,192,129570,1,0,0:0:0:0:
448,192,129570,128,0,129856:0:0:0:0:
64,192,129856,128,2,129999:0:0:0:0:
320,192,129856,1,0,0:0:0:0:
192,192,129999,128,2,130142:0:0:0:0:
448,192,129999,1,0,0:0:0:0:
320,192,130142,128,8,130284:0:0:0:0:
448,192,130142,1,0,0:0:0:0:
64,192,130284,128,2,130570:0:0:0:0:
192,192,130284,1,0,0:0:0:0:
192,192,130570,1,2,0:0:0:0:
448,192,130570,128,0,130713:0:0:0:0:
64,192,130713,1,8,0:0:0:0:
320,192,130713,128,0,130856:0:0:0:0:
192,192,130856,128,0,130999:0:0:0:0:
64,192,130999,1,2,0:0:0:0:
448,192,130999,128,0,131142:0:0:0:0:
192,192,131142,1,2,0:0:0:0:
320,192,131142,128,0,131284:0:0:0:0:
64,192,131284,1,8,0:0:0:0:
192,192,131284,1,0,0:0:0:0:
448,192,131284,1,0,0:0:0:0:
64,192,131427,128,2,131713:0:0:0:0:
320,192,131427,1,0,0:0:0:0:
320,192,131713,1,2,0:0:0:0:
448,192,131713,1,0,0:0:0:0:
64,192,131856,1,8,0:0:0:0:
192,192,131856,1,0,0:0:0:0:
448,192,131856,1,0,0:0:0:0:
192,192,132142,1,2,0:0:0:0:
448,192,132142,1,0,0:0:0:0:
64,192,132284,1,2,0:0:0:0:
320,192,132284,128,0,132427:0:0:0:0:
192,192,132427,128,8,132570:0:0:0:0:
448,192,132427,1,0,0:0:0:0:
64,192,132570,128,0,132713:0:0:0:0:
320,192,132570,1,0,0:0:0:0:
192,192,132713,1,2,0:0:0:0:
320,192,132713,1,4,0:0:0:0:
448,192,132713,128,0,132927:0:0:0:0:
320,192,132927,1,0,0:0:0:0:
64,192,132999,1,8,0:0:0:0:
192,192,132999,1,0,0:0:0:0:
448,192,132999,1,0,0:0:0:0:
320,192,133142,128,0,133284:0:0:0:0:
64,192,133284,128,2,133499:0:0:0:0:
192,192,133284,1,0,0:0:0:0:
448,192,133427,1,2,0:0:0:0:
320,192,133499,1,0,0:0:0:0:
64,192,133570,1,8,0:0:0:0:
192,192,133570,1,0,0:0:0:0:
448,192,133570,1,0,0:0:0:0:
320,192,133713,128,2,133856:0:0:0:0:
64,192,133856,1,8,0:0:0:0:
192,192,133856,1,0,0:0:0:0:
448,192,133856,1,0,0:0:0:0:
320,192,133999,1,2,0:0:0:0:
448,192,133999,1,0,0:0:0:0:
64,192,134142,1,8,0:0:0:0:
192,192,134142,1,0,0:0:0:0:
320,192,134142,1,0,0:0:0:0:
64,192,134284,1,2,0:0:0:0:
192,192,134284,1,0,0:0:0:0:
192,192,134427,1,8,0:0:0:0:
320,192,134427,1,0,0:0:0:0:
448,192,134427,1,0,0:0:0:0:
320,192,134570,1,2,0:0:0:0:
448,192,134570,1,0,0:0:0:0:
64,192,134713,128,8,134856:0:0:0:0:
192,192,134713,1,0,0:0:0:0:
320,192,134713,1,0,0:0:0:0:
192,192,134856,1,2,0:0:0:0:
320,192,134856,1,4,0:0:0:0:
448,192,134856,128,0,136142:0:0:0:0:
64,192,135142,1,2,0:0:0:0:
192,192,135142,1,0,0:0:0:0:
64,192,135284,1,8,0:0:0:0:
320,192,135284,1,0,0:0:0:0:
64,192,135570,1,2,0:0:0:0:
192,192,135570,1,0,0:0:0:0:
64,192,135713,1,2,0:0:0:0:
192,192,135713,1,0,0:0:0:0:
192,192,135856,1,8,0:0:0:0:
320,192,135856,1,0,0:0:0:0:
64,192,136142,1,2,0:0:0:0:
192,192,136142,1,0,0:0:0:0:
64,192,136284,1,2,0:0:0:0:
192,192,136284,1,0,0:0:0:0:
192,192,136427,1,8,0:0:0:0:
320,192,136427,1,0,0:0:0:0:
448,192,136427,1,0,0:0:0:0:
448,192,136570,1,0,0:0:0:0:
64,192,136713,1,2,0:0:0:0:
192,192,136713,1,0,0:0:0:0:
192,192,136856,1,2,0:0:0:0:
448,192,136856,128,0,136999:0:0:0:0:
64,192,136999,1,8,0:0:0:0:
320,192,136999,128,0,137142:0:0:0:0:
192,192,137142,128,0,137284:0:0:0:0:
448,192,137142,1,0,0:0:0:0:
64,192,137284,1,2,0:0:0:0:
320,192,137284,1,4,0:0:0:0:
448,192,137284,1,0,0:0:0:0:
64,192,137499,1,0,0:0:0:70:tom2.wav
192,192,137499,1,0,0:0:0:0:
320,192,137570,1,0,0:0:0:70:tom1.wav
448,192,137570,1,0,0:0:0:0:
192,192,137713,1,2,0:0:0:0:
320,192,137784,1,0,0:0:0:70:tom1.wav
64,192,137856,1,2,0:0:0:0:
448,192,137856,1,0,0:0:0:70:tom2.wav
64,192,138142,1,2,0:0:0:0:
448,192,138142,1,0,0:0:0:0:
320,192,138213,1,0,0:0:0:0:
192,192,138284,1,2,0:0:0:0:
64,192,138356,1,0,0:0:0:0:
320,192,138427,1,8,0:0:0:0:
448,192,138427,1,0,0:0:0:0:
64,192,138570,1,8,0:0:0:0:
192,192,138570,1,2,0:0:0:0:
320,192,138570,1,0,0:0:0:0:
448,192,138713,128,0,138856:0:0:0:0:
320,192,138999,128,0,139142:0:0:0:0:
192,192,139284,128,0,139427:0:0:0:0:
448,192,139427,1,0,0:0:0:0:
64,192,139570,128,2,139856:0:0:0:0:
192,192,139570,1,4,0:0:0:0:
320,192,139570,1,0,0:0:0:0:
448,192,139856,1,0,0:0:0:0:
64,192,139999,1,2,0:0:0:0:
192,192,139999,1,0,0:0:0:0:
64,192,140142,1,8,0:0:0:0:
320,192,140142,1,0,0:0:0:0:
448,192,140142,128,0,140427:0:0:0:0:
192,192,140427,1,0,0:0:0:0:
64,192,140570,1,2,0:0:0:0:
320,192,140570,1,0,0:0:0:0:
448,192,140713,1,0,0:0:0:0:
64,192,140856,1,2,0:0:0:0:
192,192,140856,128,0,141142:0:0:0:0:
320,192,141142,1,2,0:0:0:0:
64,192,141284,1,8,0:0:0:0:
192,192,141284,1,0,0:0:0:0:
448,192,141284,1,0,0:0:0:0:
64,192,141427,1,2,0:0:0:0:
320,192,141427,128,0,141713:0:0:0:0:
192,192,141713,1,2,0:0:0:0:
448,192,141713,1,0,0:0:0:0:
64,192,141856,128,2,142142:0:0:0:0:
320,192,141856,1,0,0:0:0:0:
192,192,142142,1,0,0:0:0:0:
320,192,142284,1,2,0:0:0:0:
448,192,142284,1,0,0:0:0:0:
64,192,142427,1,8,0:0:0:0:
192,192,142427,1,0,0:0:0:0:
448,192,142427,128,0,142713:0:0:0:0:
192,192,142570,1,2,0:0:0:0:
320,192,142570,1,0,0:0:0:0:
64,192,142856,1,2,0:0:0:0:
192,192,142856,1,0,0:0:0:0:
320,192,142927,1,2,0:0:0:0:
448,192,142999,1,2,0:0:0:0:
64,192,143142,1,2,0:0:0:0:
320,192,143142,1,0,0:0:0:0:
64,192,143427,1,2,0:0:0:0:
320,192,143427,1,0,0:0:0:0:
64,192,143570,1,8,0:0:0:0:
192,192,143570,1,0,0:0:0:0:
448,192,143570,1,0,0:0:0:0:
192,192,143713,1,2,0:0:0:0:
320,192,143713,128,0,143999:0:0:0:0:
448,192,143999,1,8,0:0:0:0:
64,192,144142,1,2,0:0:0:0:
192,192,144142,1,4,0:0:0:0:
448,192,144142,128,0,144427:0:0:0:0:
192,192,144427,1,0,0:0:0:0:
320,192,144570,1,2,0:0:0:0:
448,192,144570,1,0,0:0:0:0:
64,192,144713,128,8,144999:0:0:0:0:
192,192,144713,1,0,0:0:0:0:
448,192,144713,1,0,0:0:0:0:
320,192,144999,1,0,0:0:0:0:
64,192,145142,1,2,0:0:0:0:
192,192,145142,1,0,0:0:0:0:
448,192,145284,1,0,0:0:0:0:
192,192,145427,1,2,0:0:0:0:
320,192,145427,128,0,145713:0:0:0:0:
64,192,145713,1,2,0:0:0:0:
448,192,145713,1,0,0:0:0:0:
64,192,145856,1,8,0:0:0:0:
192,192,145856,128,0,146142:0:0:0:0:
448,192,145856,1,0,0:0:0:0:
320,192,145999,1,2,0:0:0:0:
448,192,145999,1,0,0:0:0:0:
64,192,146284,1,2,0:0:0:0:
320,192,146284,1,0,0:0:0:0:
192,192,146427,1,2,0:0:0:0:
448,192,146427,128,0,146713:0:0:0:0:
320,192,146713,1,0,0:0:0:0:
64,192,146856,1,2,0:0:0:0:
192,192,146856,1,0,0:0:0:0:
64,192,146999,128,8,147284:0:0:0:0:
320,192,146999,1,0,0:0:0:0:
448,192,146999,1,0,0:0:0:0:
192,192,147142,1,2,0:0:0:0:
320,192,147142,1,0,0:0:0:0:
192,192,147427,1,2,0:0:0:0:
448,192,147427,1,0,0:0:0:0:
192,192,147713,1,2,0:0:0:0:
448,192,147713,1,0,0:0:0:0:
192,192,147999,1,2,0:0:0:0:
448,192,147999,1,0,0:0:0:0:
64,192,148142,1,8,0:0:0:0:
320,192,148142,1,0,0:0:0:0:
448,192,148142,1,0,0:0:0:0:
192,192,148213,1,8,0:0:0:0:
448,192,148284,1,2,0:0:0:0:
320,192,148356,1,0,0:0:0:0:
64,192,148427,1,2,0:0:0:0:
192,192,148427,1,0,0:0:0:0:
320,192,148499,1,2,0:0:0:0:
64,192,148570,1,2,0:0:0:0:
192,192,148642,1,2,0:0:0:0:
64,192,148713,1,2,0:0:0:0:
320,192,148713,1,4,0:0:0:0:
448,192,148713,128,0,148999:0:0:0:0:
64,192,148999,1,0,0:0:0:0:
320,192,149142,1,2,0:0:0:0:
448,192,149142,1,0,0:0:0:0:
192,192,149213,1,0,0:0:0:0:
64,192,149284,1,8,0:0:0:0:
320,192,149284,1,0,0:0:0:0:
448,192,149284,128,0,149570:0:0:0:0:
192,192,149570,1,0,0:0:0:0:
64,192,149713,1,2,0:0:0:0:
320,192,149713,1,0,0:0:0:0:
192,192,149856,1,0,0:0:0:0:
448,192,149856,1,0,0:0:0:0:
64,192,149999,128,2,150284:0:0:0:0:
320,192,149999,1,0,0:0:0:0:
192,192,150284,1,2,0:0:0:0:
320,192,150284,1,0,0:0:0:0:
64,192,150427,1,8,0:0:0:0:
192,192,150427,1,0,0:0:0:0:
448,192,150427,128,0,150570:0:0:0:0:
64,192,150570,1,2,0:0:0:0:
320,192,150570,128,0,150713:0:0:0:0:
192,192,150713,128,0,150856:0:0:0:0:
64,192,150856,128,2,150999:0:0:0:0:
448,192,150856,1,0,0:0:0:0:
320,192,150999,128,2,151284:0:0:0:0:
448,192,150999,1,0,0:0:0:0:
192,192,151284,1,0,0:0:0:0:
64,192,151427,1,2,0:0:0:0:
448,192,151427,1,0,0:0:0:0:
64,192,151570,1,8,0:0:0:0:
192,192,151570,128,0,151856:0:0:0:0:
320,192,151570,1,0,0:0:0:0:
320,192,151713,1,2,0:0:0:0:
448,192,151713,1,0,0:0:0:0:
64,192,151999,1,2,0:0:0:0:
192,192,151999,1,0,0:0:0:0:
320,192,152070,1,2,0:0:0:0:
64,192,152142,1,2,0:0:0:0:
448,192,152142,1,0,0:0:0:0:
320,192,152284,1,2,0:0:0:0:
448,192,152284,1,0,0:0:0:0:
64,192,152570,128,2,152713:0:0:0:0:
320,192,152570,1,4,0:0:0:0:
448,192,152570,1,0,0:0:0:0:
192,192,152713,128,8,152856:0:0:0:0:
448,192,152713,1,0,0:0:0:0:
64,192,152856,1,2,0:0:0:0:
320,192,152856,128,4,152999:0:0:0:0:
448,192,152999,128,0,153142:0:0:0:0:
64,192,153213,1,2,0:0:0:0:
192,192,153213,1,0,0:0:0:0:
320,192,153284,128,2,153570:0:0:0:0:
448,192,153284,1,4,0:0:0:0:
64,192,153570,1,0,0:0:0:0:
192,192,153713,1,2,0:0:0:0:
448,192,153713,1,0,0:0:0:0:
64,192,153856,128,8,154142:0:0:0:0:
320,192,153856,1,0,0:0:0:0:
448,192,153856,1,0,0:0:0:0:
448,192,154142,1,0,0:0:0:0:
192,192,154284,1,2,0:0:0:0:
320,192,154284,1,0,0:0:0:0:
64,192,154427,1,0,0:0:0:0:
320,192,154570,1,2,0:0:0:0:
448,192,154570,128,0,154856:0:0:0:0:
64,192,154856,1,2,0:0:0:0:
192,192,154856,1,0,0:0:0:0:
64,192,154999,1,8,0:0:0:0:
320,192,154999,1,0,0:0:0:0:
448,192,154999,1,0,0:0:0:0:
192,192,155142,1,2,0:0:0:0:
320,192,155213,1,8,0:0:0:0:
64,192,155284,1,8,0:0:0:0:
448,192,155284,1,0,0:0:0:0:
64,192,155427,1,2,0:0:0:0:
192,192,155499,1,2,0:0:0:0:
320,192,155570,1,8,0:0:0:0:
448,192,155570,1,0,0:0:0:0:
448,192,155713,1,2,0:0:0:0:
64,192,155856,1,8,0:0:0:0:
192,192,155856,1,0,0:0:0:0:
320,192,155856,1,0,0:0:0:0:
64,192,155999,1,2,0:0:0:0:
192,192,156142,1,8,0:0:0:0:
448,192,156142,1,0,0:0:0:0:
192,192,156284,1,8,0:0:0:0:
448,192,156284,1,0,0:0:0:0:
64,192,156427,1,8,0:0:0:0:
320,192,156427,1,0,0:0:0:0:
448,192,156427,1,0,0:0:0:0:
64,192,156570,1,8,0:0:0:0:
320,192,156570,1,4,0:0:0:0:
320,192,156713,1,2,0:0:0:0:
448,192,156713,1,0,0:0:0:0:
64,192,156856,1,8,0:0:0:0:
192,192,156856,1,0,0:0:0:0:
448,192,156999,1,2,0:0:0:0:
320,192,157070,1,8,0:0:0:0:
64,192,157142,1,2,0:0:0:0:
192,192,157142,1,0,0:0:0:0:
64,192,157284,1,8,0:0:0:0:
320,192,157284,1,0,0:0:0:0:
448,192,157284,1,0,0:0:0:0:
64,192,157427,1,8,0:0:0:0:
320,192,157427,1,0,0:0:0:0:
448,192,157427,1,0,0:0:0:0:
64,192,157570,1,2,0:0:0:0:
192,192,157570,1,0,0:0:0:0:
320,192,157642,1,2,0:0:0:0:
448,192,157713,1,6,0:0:0:0:
192,192,157784,1,0,0:0:0:0:
448,192,157856,128,0,158142:0:0:0:0:
64,192,158142,1,8,0:0:0:0:
192,192,158142,1,0,0:0:0:0:
320,192,158142,1,0,0:0:0:0:
448,192,158284,1,0,0:0:0:0:
320,192,158356,1,0,0:0:0:0:
64,192,158427,1,2,0:0:0:0:
192,192,158427,128,0,158713:0:0:0:0:
448,192,158570,1,2,0:0:0:0:
64,192,158713,1,8,0:0:0:0:
320,192,158713,1,0,0:0:0:0:
448,192,158713,1,0,0:0:0:0:
192,192,158856,1,2,0:0:0:0:
320,192,158856,1,4,0:0:0:0:
448,192,158927,1,0,0:0:0:0:
64,192,158999,128,0,159284:0:0:0:0:
320,192,159142,1,2,0:0:0:0:
192,192,159284,1,8,0:0:0:0:
320,192,159284,1,0,0:0:0:0:
448,192,159284,1,0,0:0:0:0:
64,192,159427,1,0,0:0:0:0:
192,192,159499,1,0,0:0:0:0:
320,192,159570,128,2,159856:0:0:0:0:
448,192,159570,1,0,0:0:0:0:
64,192,159713,1,2,0:0:0:0:
64,192,159856,1,8,0:0:0:0:
192,192,159856,1,0,0:0:0:0:
448,192,159856,1,0,0:0:0:0:
192,192,159999,1,2,0:0:0:0:
320,192,159999,1,4,0:0:0:0:
64,192,160070,1,0,0:0:0:0:
448,192,160142,128,0,160427:0:0:0:0:
192,192,160284,1,2,0:0:0:0:
64,192,160427,1,8,0:0:0:0:
192,192,160427,1,0,0:0:0:0:
320,192,160427,1,0,0:0:0:0:
448,192,160570,1,0,0:0:0:0:
64,192,160713,1,2,0:0:0:0:
192,192,160713,1,0,0:0:0:0:
320,192,160856,1,2,0:0:0:0:
448,192,160856,1,0,0:0:0:0:
192,192,160999,1,8,0:0:0:0:
320,192,160999,1,0,0:0:0:0:
64,192,161142,128,2,161427:0:0:0:0:
192,192,161142,1,4,0:0:0:0:
448,192,161142,1,0,0:0:0:0:
320,192,161427,1,2,0:0:0:0:
192,192,161499,1,0,0:0:0:0:
64,192,161570,1,8,0:0:0:0:
320,192,161570,1,0,0:0:0:0:
448,192,161570,1,0,0:0:0:0:
448,192,161713,128,0,161999:0:0:0:0:
64,192,161856,1,2,0:0:0:0:
192,192,161856,1,0,0:0:0:0:
64,192,161999,1,2,0:0:0:0:
192,192,162142,1,8,0:0:0:0:
320,192,162142,1,0,0:0:0:0:
448,192,162142,1,0,0:0:0:0:
448,192,162284,1,0,0:0:0:0:
64,192,162427,1,8,0:0:0:0:
192,192,162427,1,4,0:0:0:0:
320,192,162427,1,0,0:0:0:0:
192,192,162570,1,2,0:0:0:0:
64,192,162713,1,8,0:0:0:0:
320,192,162713,1,0,0:0:0:0:
448,192,162713,1,0,0:0:0:0:
320,192,162856,1,2,0:0:0:0:
64,192,162999,1,8,0:0:0:0:
448,192,162999,1,0,0:0:0:0:
192,192,163070,1,0,0:0:0:0:
448,192,163142,1,2,0:0:0:0:
320,192,163213,1,0,0:0:0:0:
192,192,163284,1,2,0:0:0:0:
64,192,163427,1,8,0:0:0:0:
320,192,163427,1,4,0:0:0:0:
448,192,163427,1,0,0:0:0:0:
64,192,163570,1,2,0:0:0:0:
64,192,163713,1,2,0:0:0:0:
192,192,163856,1,8,0:0:0:0:
320,192,163856,1,0,0:0:0:0:
448,192,163856,1,0,0:0:0:0:
448,192,163999,1,2,0:0:0:0:
64,192,164142,1,8,0:0:0:0:
320,192,164142,1,0,0:0:0:0:
192,192,164213,1,0,0:0:0:0:
448,192,164284,1,2,0:0:0:0:
320,192,164356,1,0,0:0:0:0:
192,192,164427,1,2,0:0:0:0:
64,192,164570,1,8,0:0:0:0:
320,192,164570,1,4,0:0:0:0:
448,192,164570,1,0,0:0:0:0:
320,192,164713,1,2,0:0:0:0:
448,192,164856,1,2,0:0:0:0:
320,192,164927,1,0,0:0:0:0:
64,192,164999,1,8,0:0:0:0:
192,192,164999,1,0,0:0:0:0:
192,192,165142,1,2,0:0:0:0:
64,192,165284,1,8,0:0:0:0:
320,192,165284,1,0,0:0:0:0:
448,192,165284,1,0,0:0:0:0:
64,192,165427,1,2,0:0:0:0:
192,192,165427,1,0,0:0:0:0:
320,192,165499,1,0,0:0:0:0:
448,192,165570,1,2,0:0:0:0:
64,192,165713,128,8,165999:0:0:0:0:
192,192,165713,1,4,0:0:0:0:
320,192,165713,1,0,0:0:0:0:
320,192,165999,1,8,0:0:0:0:
448,192,165999,1,0,0:0:0:0:
192,192,166070,1,8,0:0:0:0:
448,192,166142,1,8,0:0:0:0:
320,192,166213,1,8,0:0:0:0:
192,192,166284,1,0,0:0:0:70:tom1.wav
64,192,166427,1,0,0:0:0:70:tom2.wav
448,192,166427,1,0,0:0:0:0:
192,192,166570,1,0,0:0:0:70:tom3.wav
320,192,166642,1,0,0:0:0:70:tom3.wav
64,192,166713,1,0,0:0:0:70:tom2.wav
192,192,166784,1,0,0:0:0:70:tom2.wav
320,192,166856,1,0,0:0:0:70:tom1.wav
64,192,166999,1,4,0:0:0:0:
192,192,166999,1,2,0:0:0:0:
448,192,166999,1,0,0:0:0:0:
64,192,167142,1,2,0:0:0:0:
192,192,167284,1,8,0:0:0:0:
320,192,167284,1,0,0:0:0:0:
448,192,167284,128,0,167570:0:0:0:0:
320,192,167427,1,2,0:0:0:0:
64,192,167570,1,2,0:0:0:0:
192,192,167570,1,0,0:0:0:0:
448,192,167713,128,2,167856:0:0:0:0:
64,192,167856,1,8,0:0:0:0:
192,192,167856,1,0,0:0:0:0:
320,192,167856,1,0,0:0:0:0:
320,192,167999,128,2,168284:0:0:0:0:
64,192,168142,1,2,0:0:0:0:
448,192,168142,1,0,0:0:0:0:
192,192,168284,1,2,0:0:0:0:
64,192,168427,1,8,0:0:0:0:
320,192,168427,1,0,0:0:0:0:
448,192,168427,1,0,0:0:0:0:
64,192,168570,1,2,0:0:0:0:
192,192,168713,1,2,0:0:0:0:
448,192,168713,128,0,168856:0:0:0:0:
320,192,168856,128,2,168999:0:0:0:0:
64,192,168999,1,8,0:0:0:0:
192,192,168999,128,0,169142:0:0:0:0:
448,192,168999,1,0,0:0:0:0:
448,192,169142,1,2,0:0:0:0:
64,192,169284,1,2,0:0:0:0:
320,192,169284,1,0,0:0:0:0:
64,192,169427,1,2,0:0:0:0:
192,192,169570,1,8,0:0:0:0:
320,192,169570,1,0,0:0:0:0:
448,192,169570,128,0,169856:0:0:0:0:
320,192,169713,1,2,0:0:0:0:
64,192,169856,1,2,0:0:0:0:
192,192,169856,1,0,0:0:0:0:
448,192,169999,128,2,170142:0:0:0:0:
64,192,170142,1,8,0:0:0:0:
192,192,170142,1,0,0:0:0:0:
320,192,170142,1,0,0:0:0:0:
64,192,170284,128,2,170427:0:0:0:0:
320,192,170427,1,2,0:0:0:0:
448,192,170427,1,0,0:0:0:0:
192,192,170570,1,2,0:0:0:0:
64,192,170713,1,8,0:0:0:0:
320,192,170713,1,0,0:0:0:0:
448,192,170713,1,0,0:0:0:0:
192,192,170856,1,2,0:0:0:0:
64,192,170999,128,2,171284:0:0:0:0:
448,192,170999,1,0,0:0:0:0:
320,192,171142,1,2,0:0:0:0:
192,192,171284,1,8,0:0:0:0:
320,192,171284,1,0,0:0:0:0:
448,192,171284,128,0,171570:0:0:0:0:
192,192,171427,1,2,0:0:0:0:
64,192,171570,1,2,0:0:0:0:
320,192,171570,1,0,0:0:0:0:
64,192,171713,1,2,0:0:0:0:
192,192,171856,1,8,0:0:0:0:
320,192,171856,1,0,0:0:0:0:
448,192,171856,128,0,172142:0:0:0:0:
320,192,171999,1,2,0:0:0:0:
64,192,172142,1,2,0:0:0:0:
192,192,172142,1,0,0:0:0:0:
448,192,172284,128,2,172427:0:0:0:0:
64,192,172427,1,8,0:0:0:0:
192,192,172427,1,0,0:0:0:0:
320,192,172427,1,0,0:0:0:0:
192,192,172570,128,2,172713:0:0:0:0:
320,192,172713,1,2,0:0:0:0:
448,192,172713,1,0,0:0:0:0:
192,192,172856,1,2,0:0:0:0:
64,192,172999,1,8,0:0:0:0:
320,192,172999,1,0,0:0:0:0:
448,192,172999,1,0,0:0:0:0:
64,192,173142,1,2,0:0:0:0:
192,192,173284,1,2,0:0:0:0:
448,192,173284,128,0,173427:0:0:0:0:
320,192,173427,128,2,173570:0:0:0:0:
64,192,173570,1,8,0:0:0:0:
192,192,173570,128,0,173713:0:0:0:0:
448,192,173570,1,0,0:0:0:0:
448,192,173713,1,2,0:0:0:0:
64,192,173856,1,4,0:0:0:0:
320,192,173856,1,8,0:0:0:0:
64,192,173999,1,2,0:0:0:0:
192,192,174142,1,8,0:0:0:0:
320,192,174142,1,0,0:0:0:0:
448,192,174142,1,0,0:0:0:0:
448,192,174284,1,2,0:0:0:0:
64,192,174427,1,8,0:0:0:0:
192,192,174427,1,0,0:0:0:0:
320,192,174427,1,0,0:0:0:0:
192,192,174570,1,2,0:0:0:0:
64,192,174713,1,8,0:0:0:0:
320,192,174713,1,0,0:0:0:0:
448,192,174713,1,0,0:0:0:0:
64,192,174856,1,2,0:0:0:0:
192,192,174856,1,4,0:0:0:0:
448,192,174856,1,0,0:0:0:0:
192,192,175142,1,2,0:0:0:0:
320,192,175142,1,0,0:0:0:0:
64,192,175284,1,8,0:0:0:0:
320,192,175284,1,0,0:0:0:0:
448,192,175284,1,0,0:0:0:0:
192,192,175427,1,2,0:0:0:0:
320,192,175570,1,2,0:0:0:0:
192,192,175642,1,2,0:0:0:0:
448,192,175713,1,8,0:0:0:0:
320,192,175784,1,8,0:0:0:0:
64,192,175856,1,0,0:0:0:70:tom1.wav
192,192,175927,1,0,0:0:0:70:tom2.wav
320,192,175999,1,0,0:0:0:70:tom3.wav
64,192,176142,1,2,0:0:0:0:
192,192,176142,1,4,0:0:0:0:
448,192,176142,1,0,0:0:0:0:
448,192,176284,1,2,0:0:0:0:
64,192,176427,128,8,176713:0:0:0:0:
192,192,176427,1,0,0:0:0:0:
320,192,176427,1,0,0:0:0:0:
320,192,176570,1,2,0:0:0:0:
192,192,176713,1,2,0:0:0:0:
448,192,176713,128,0,176856:0:0:0:0:
320,192,176856,128,2,176999:0:0:0:0:
64,192,176999,1,8,0:0:0:0:
192,192,176999,1,0,0:0:0:0:
448,192,176999,1,0,0:0:0:0:
192,192,177142,128,2,177427:0:0:0:0:
64,192,177284,1,2,0:0:0:0:
448,192,177284,1,0,0:0:0:0:
320,192,177427,1,2,0:0:0:0:
64,192,177570,1,8,0:0:0:0:
192,192,177570,1,0,0:0:0:0:
448,192,177570,1,0,0:0:0:0:
448,192,177713,1,2,0:0:0:0:
64,192,177856,128,2,177999:0:0:0:0:
320,192,177856,1,0,0:0:0:0:
448,192,177856,1,0,0:0:0:0:
192,192,177999,128,2,178142:0:0:0:0:
64,192,178142,1,8,0:0:0:0:
320,192,178142,128,0,178284:0:0:0:0:
448,192,178142,1,0,0:0:0:0:
64,192,178284,1,2,0:0:0:0:
192,192,178427,1,2,0:0:0:0:
320,192,178427,1,4,0:0:0:0:
448,192,178427,1,0,0:0:0:0:
448,192,178570,1,2,0:0:0:0:
64,192,178713,128,8,178999:0:0:0:0:
192,192,178713,1,0,0:0:0:0:
320,192,178713,1,0,0:0:0:0:
192,192,178856,1,2,0:0:0:0:
320,192,178999,1,2,0:0:0:0:
448,192,178999,128,0,179284:0:0:0:0:
64,192,179142,1,2,0:0:0:0:
64,192,179284,1,8,0:0:0:0:
192,192,179284,1,0,0:0:0:0:
320,192,179284,1,0,0:0:0:0:
192,192,179427,128,2,179570:0:0:0:0:
320,192,179570,1,2,0:0:0:0:
448,192,179570,1,0,0:0:0:0:
320,192,179713,1,2,0:0:0:0:
64,192,179856,1,8,0:0:0:0:
192,192,179856,1,0,0:0:0:0:
448,192,179856,1,0,0:0:0:0:
320,192,179999,1,2,0:0:0:0:
64,192,180142,1,2,0:0:0:0:
448,192,180142,128,0,180427:0:0:0:0:
192,192,180284,1,2,0:0:0:0:
64,192,180427,128,8,180713:0:0:0:0:
192,192,180427,1,0,0:0:0:0:
320,192,180427,1,0,0:0:0:0:
192,192,180713,1,8,0:0:0:0:
320,192,180713,1,4,0:0:0:0:
448,192,180713,1,0,0:0:0:0:
192,192,180856,1,2,0:0:0:0:
64,192,180999,128,8,181284:0:0:0:0:
320,192,180999,1,0,0:0:0:0:
448,192,180999,1,0,0:0:0:0:
192,192,181284,1,8,0:0:0:0:
320,192,181284,1,0,0:0:0:0:
448,192,181284,128,0,181427:0:0:0:0:
192,192,181427,128,2,181570:0:0:0:0:
64,192,181570,1,8,0:0:0:0:
320,192,181570,1,0,0:0:0:0:
448,192,181570,1,0,0:0:0:0:
320,192,181713,128,2,181856:0:0:0:0:
64,192,181856,1,8,0:0:0:0:
192,192,181856,1,4,0:0:0:0:
448,192,181856,1,0,0:0:0:0:
64,192,181999,1,8,0:0:0:0:
192,192,181999,1,0,0:0:0:0:
64,192,182142,1,8,0:0:0:0:
320,192,182142,1,0,0:0:0:0:
448,192,182142,1,0,0:0:0:0:
320,192,182284,1,8,0:0:0:0:
448,192,182284,1,0,0:0:0:0:
64,192,182427,1,8,0:0:0:0:
192,192,182427,1,0,0:0:0:0:
448,192,182499,1,8,0:0:0:0:
192,192,182570,1,8,0:0:0:0:
320,192,182642,1,8,0:0:0:0:
64,192,182713,1,8,0:0:0:0:
448,192,182713,1,0,0:0:0:0:
192,192,182784,1,8,0:0:0:0:
320,192,182856,1,8,0:0:0:0:
64,192,182927,1,8,0:0:0:0:
192,192,182999,1,2,0:0:0:0:
320,192,182999,1,0,0:0:0:0:
448,192,182999,128,0,183427:0:0:0:0:
320,192,183427,128,0,183856:0:0:0:0:
192,192,183856,128,0,184284:0:0:0:0:
320,192,184284,128,0,184713:0:0:0:0:
64,192,184713,128,0,185142:0:0:0:0:
448,192,185142,1,2,0:0:0:0:
320,192,185213,1,2,0:0:0:0:
64,192,185284,1,0,0:0:0:70:tom3.wav
448,192,185284,1,0,0:0:0:0:
192,192,185356,1,0,0:0:0:70:tom2.wav
320,192,185427,1,0,0:0:0:70:tom1.wav
192,192,185570,1,0,0:0:0:70:tom1.wav
448,192,185570,1,0,0:0:0:0:
64,192,185713,1,0,0:0:0:70:tom1.wav
448,192,185713,1,0,0:0:0:0:
320,192,185784,1,0,0:0:0:70:tom2.wav
192,192,185856,1,0,0:0:0:70:tom3.wav
64,192,185999,1,0,0:0:0:70:tom3.wav
320,192,185999,1,0,0:0:0:0:
192,192,186142,1,8,0:0:0:0:
320,192,186142,1,0,0:0:0:0:
448,192,186142,1,0,0:0:0:0:
64,192,186284,1,0,0:0:0:70:tom2.wav
192,192,186284,1,0,0:0:0:0:
448,192,186427,1,0,0:0:0:70:tom3.wav
320,192,186499,1,0,0:0:0:70:tom3.wav
64,192,186570,1,8,0:0:0:0:
192,192,186642,1,8,0:0:0:0:
320,192,186713,1,8,0:0:0:0:
448,192,186713,1,0,0:0:0:0:
64,192,186784,1,8,0:0:0:0:
448,192,186856,1,2,0:0:0:0:
192,192,186927,1,2,0:0:0:0:
64,192,186999,1,8,0:0:0:0:
320,192,186999,1,0,0:0:0:0:
192,192,187142,128,0,187284:0:0:0:0:
448,192,187284,128,0,187427:0:0:0:0:
64,192,187570,128,2,187856:0:0:0:0:
192,192,187570,1,0,0:0:0:0:
320,192,187856,128,0,188070:0:0:0:0:
448,192,188142,128,0,188284:0:0:0:0:
192,192,188284,128,0,188427:0:0:0:0:
320,192,188570,1,2,0:0:0:0:
448,192,188570,128,4,188856:0:0:0:0:
192,192,188856,1,2,0:0:0:0:
320,192,188856,1,4,0:0:0:0:
64,192,188999,128,0,189284:0:0:0:0:
192,192,189142,1,2,0:0:0:0:
448,192,189142,1,4,0:0:0:0:
320,192,189284,128,0,189427:0:0:0:0:
192,192,189427,128,2,189570:0:0:0:0:
448,192,189427,1,0,0:0:0:0:
64,192,189570,128,8,189713:0:0:0:0:
448,192,189570,1,0,0:0:0:0:
192,192,189713,1,2,0:0:0:0:
320,192,189713,128,4,189999:0:0:0:0:
64,192,189999,1,2,0:0:0:0:
448,192,189999,128,0,190142:0:0:0:0:
64,192,190142,1,8,0:0:0:0:
192,192,190142,1,0,0:0:0:0:
320,192,190142,128,0,190284:0:0:0:0:
192,192,190284,128,0,190427:0:0:0:0:
320,192,190427,128,2,190570:0:0:0:0:
448,192,190427,1,0,0:0:0:0:
64,192,190570,128,2,190713:0:0:0:0:
192,192,190570,1,0,0:0:0:0:
192,192,190713,1,8,0:0:0:0:
320,192,190713,1,0,0:0:0:0:
448,192,190713,1,0,0:0:0:0:
320,192,190856,1,2,0:0:0:0:
448,192,190856,128,0,191142:0:0:0:0:
64,192,191142,1,2,0:0:0:0:
192,192,191142,1,0,0:0:0:0:
64,192,191284,1,8,0:0:0:0:
320,192,191284,1,0,0:0:0:0:
448,192,191284,1,0,0:0:0:0:
64,192,191570,1,2,0:0:0:0:
320,192,191570,1,0,0:0:0:0:
192,192,191713,128,2,191856:0:0:0:0:
448,192,191713,1,0,0:0:0:0:
64,192,191856,1,8,0:0:0:0:
320,192,191856,128,0,191999:0:0:0:0:
448,192,191999,128,0,192142:0:0:0:0:
64,192,192142,128,2,192356:0:0:0:0:
192,192,192142,1,4,0:0:0:0:
320,192,192142,1,0,0:0:0:0:
320,192,192356,1,0,0:0:0:0:
64,192,192427,1,8,0:0:0:0:
192,192,192427,1,0,0:0:0:0:
448,192,192427,1,0,0:0:0:0:
320,192,192570,128,0,192713:0:0:0:0:
192,192,192713,1,2,0:0:0:0:
448,192,192713,128,0,192927:0:0:0:0:
64,192,192856,1,2,0:0:0:0:
192,192,192927,1,0,0:0:0:0:
64,192,192999,1,8,0:0:0:0:
320,192,192999,1,0,0:0:0:0:
448,192,192999,1,0,0:0:0:0:
192,192,193142,128,0,193284:0:0:0:0:
320,192,193284,128,2,193499:0:0:0:0:
448,192,193284,1,0,0:0:0:0:
192,192,193499,1,0,0:0:0:0:
64,192,193570,1,8,0:0:0:0:
320,192,193570,1,0,0:0:0:0:
448,192,193570,1,0,0:0:0:0:
64,192,193713,128,0,193856:0:0:0:0:
192,192,193856,128,2,194070:0:0:0:0:
320,192,193856,1,0,0:0:0:0:
448,192,193999,1,2,0:0:0:0:
320,192,194070,1,0,0:0:0:0:
64,192,194142,1,8,0:0:0:0:
192,192,194142,1,0,0:0:0:0:
448,192,194142,1,0,0:0:0:0:
64,192,194284,128,2,194427:0:0:0:0:
192,192,194427,1,8,0:0:0:0:
320,192,194427,1,4,0:0:0:0:
448,192,194427,128,0,194713:0:0:0:0:
64,192,194570,1,2,0:0:0:0:
64,192,194713,1,2,0:0:0:0:
320,192,194856,128,8,195142:0:0:0:0:
448,192,194856,1,4,0:0:0:0:
192,192,194999,1,2,0:0:0:0:
192,192,195142,1,2,0:0:0:0:
64,192,195284,128,8,195570:0:0:0:0:
448,192,195284,1,4,0:0:0:0:
320,192,195427,1,2,0:0:0:0:
192,192,195570,1,0,0:0:0:70:tom1.wav
448,192,195570,1,0,0:0:0:0:
320,192,195642,1,0,0:0:0:70:tom1.wav
64,192,195713,1,0,0:0:0:70:tom2.wav
192,192,195784,1,0,0:0:0:70:tom3.wav
320,192,195856,1,0,0:0:0:70:tom3.wav
64,192,195999,1,0,0:0:0:70:tom1.wav
192,192,196142,1,2,0:0:0:0:
448,192,196142,128,0,196284:0:0:0:0:
64,192,196356,1,2,0:0:0:0:
192,192,196356,1,0,0:0:0:0:
320,192,196427,128,2,196570:0:0:0:0:
448,192,196427,1,0,0:0:0:0:
64,192,196570,1,0,0:0:0:0:
192,192,196570,1,0,0:0:0:0:
192,192,196713,128,2,196999:0:0:0:0:
320,192,196713,1,0,0:0:0:0:
448,192,196713,1,0,0:0:0:0:
64,192,196999,1,4,0:0:0:0:
320,192,196999,1,2,0:0:0:0:
448,192,196999,128,0,197142:0:0:0:0:
192,192,197142,128,0,197284:0:0:0:0:
64,192,197284,128,2,197427:0:0:0:0:
320,192,197284,1,0,0:0:0:0:
320,192,197427,1,2,0:0:0:0:
448,192,197427,128,0,197570:0:0:0:0:
64,192,197570,1,8,0:0:0:0:
192,192,197570,1,0,0:0:0:0:
320,192,197570,1,0,0:0:0:0:
64,192,197713,128,2,197999:0:0:0:0:
448,192,197713,1,0,0:0:0:0:
192,192,197999,1,2,0:0:0:0:
448,192,197999,1,0,0:0:0:0:
64,192,198142,1,8,0:0:0:0:
192,192,198142,1,0,0:0:0:0:
320,192,198142,128,0,198284:0:0:0:0:
448,192,198284,128,0,198427:0:0:0:0:
64,192,198427,128,2,198570:0:0:0:0:
320,192,198427,1,0,0:0:0:0:
192,192,198570,128,2,198713:0:0:0:0:
448,192,198570,1,0,0:0:0:0:
320,192,198713,128,8,198856:0:0:0:0:
448,192,198713,1,0,0:0:0:0:
64,192,198856,128,2,199142:0:0:0:0:
192,192,198856,1,0,0:0:0:0:
192,192,199142,1,2,0:0:0:0:
448,192,199142,128,0,199284:0:0:0:0:
64,192,199284,1,8,0:0:0:0:
320,192,199284,128,0,199427:0:0:0:0:
192,192,199427,128,0,199570:0:0:0:0:
64,192,199570,1,2,0:0:0:0:
448,192,199570,128,0,199713:0:0:0:0:
192,192,199713,1,2,0:0:0:0:
320,192,199713,128,0,199856:0:0:0:0:
64,192,199856,1,8,0:0:0:0:
192,192,199856,1,0,0:0:0:0:
448,192,199856,1,0,0:0:0:0:
64,192,199999,128,2,200284:0:0:0:0:
320,192,199999,1,0,0:0:0:0:
320,192,200284,1,2,0:0:0:0:
448,192,200284,1,0,0:0:0:0:
64,192,200427,1,8,0:0:0:0:
192,192,200427,1,0,0:0:0:0:
448,192,200427,1,0,0:0:0:0:
192,192,200713,1,2,0:0:0:0:
448,192,200713,1,0,0:0:0:0:
64,192,200856,1,2,0:0:0:0:
320,192,200856,128,0,200999:0:0:0:0:
192,192,200999,128,8,201142:0:0:0:0:
448,192,200999,1,0,0:0:0:0:
64,192,201142,128,0,201284:0:0:0:0:
320,192,201142,1,0,0:0:0:0:
192,192,201284,1,2,0:0:0:0:
320,192,201284,1,4,0:0:0:0:
448,192,201284,128,0,201499:0:0:0:0:
320,192,201499,1,0,0:0:0:0:
64,192,201570,1,8,0:0:0:0:
192,192,201570,1,0,0:0:0:0:
448,192,201570,1,0,0:0:0:0:
320,192,201713,128,0,201856:0:0:0:0:
64,192,201856,128,2,202070:0:0:0:0:
192,192,201856,1,0,0:0:0:0:
448,192,201999,1,2,0:0:0:0:
320,192,202070,1,0,0:0:0:0:
64,192,202142,1,8,0:0:0:0:
192,192,202142,1,0,0:0:0:0:
448,192,202142,1,0,0:0:0:0:
320,192,202284,128,2,202427:0:0:0:0:
64,192,202427,1,8,0:0:0:0:
192,192,202427,1,0,0:0:0:0:
448,192,202427,1,0,0:0:0:0:
64,192,202570,1,2,0:0:0:0:
320,192,202570,1,0,0:0:0:0:
192,192,202713,1,8,0:0:0:0:
320,192,202713,1,0,0:0:0:0:
448,192,202713,1,0,0:0:0:0:
192,192,202856,1,2,0:0:0:0:
448,192,202856,1,0,0:0:0:0:
64,192,202999,1,8,0:0:0:0:
320,192,202999,1,0,0:0:0:0:
448,192,202999,1,0,0:0:0:0:
64,192,203142,1,2,0:0:0:0:
192,192,203142,1,0,0:0:0:0:
64,192,203284,128,8,203427:0:0:0:0:
320,192,203284,1,0,0:0:0:0:
448,192,203284,1,0,0:0:0:0:
192,192,203427,1,2,0:0:0:0:
320,192,203427,1,4,0:0:0:0:
448,192,203427,128,0,204713:0:0:0:0:
192,192,203713,1,2,0:0:0:0:
64,192,203856,1,8,0:0:0:0:
320,192,203856,1,0,0:0:0:0:
320,192,203999,1,2,0:0:0:0:
64,192,204142,1,8,0:0:0:0:
192,192,204142,1,0,0:0:0:0:
64,192,204284,1,2,0:0:0:0:
192,192,204427,1,8,0:0:0:0:
320,192,204427,1,0,0:0:0:0:
192,192,204570,1,2,0:0:0:0:
64,192,204713,1,8,0:0:0:0:
320,192,204713,1,4,0:0:0:0:
64,192,204856,1,2,0:0:0:0:
320,192,204856,1,0,0:0:0:0:
192,192,204999,1,8,0:0:0:0:
320,192,204999,1,4,0:0:0:0:
448,192,204999,1,0,0:0:0:0:
448,192,205142,1,2,0:0:0:0:
64,192,205284,1,8,0:0:0:0:
192,192,205284,1,0,0:0:0:0:
192,192,205427,1,2,0:0:0:0:
448,192,205427,128,0,205570:0:0:0:0:
64,192,205570,1,8,0:0:0:0:
320,192,205570,128,0,205713:0:0:0:0:
192,192,205713,128,2,205856:0:0:0:0:
448,192,205713,1,0,0:0:0:0:
64,192,205856,1,8,0:0:0:0:
320,192,205856,1,4,0:0:0:0:
448,192,205856,1,0,0:0:0:0:
64,192,205999,1,2,0:0:0:0:
192,192,206070,1,0,0:0:0:0:
320,192,206142,1,8,0:0:0:0:
448,192,206142,1,0,0:0:0:0:
64,192,206284,1,2,0:0:0:0:
192,192,206284,1,0,0:0:0:0:
64,192,206427,1,8,0:0:0:0:
320,192,206427,1,0,0:0:0:0:
448,192,206570,1,2,0:0:0:0:
320,192,206642,1,2,0:0:0:0:
64,192,206713,1,8,0:0:0:0:
192,192,206713,1,0,0:0:0:0:
192,192,206856,1,2,0:0:0:0:
320,192,206856,1,0,0:0:0:0:
64,192,206999,1,4,0:0:0:0:
320,192,206999,1,2,0:0:0:0:
448,192,206999,128,0,207142:0:0:0:0:
448,192,207284,128,0,207427:0:0:0:0:
320,192,207570,128,0,207713:0:0:0:0:
64,192,207856,1,8,0:0:0:0:
192,192,207856,1,2,0:0:0:0:
448,192,207856,1,0,0:0:0:0:
64,192,207999,128,8,209142:0:0:0:0:
320,192,207999,1,2,0:0:0:0:
448,192,207999,1,0,0:0:0:0:
320,192,209142,1,2,0:0:0:0:
448,192,209142,1,0,0:0:0:0:
192,192,209213,1,2,0:0:0:0:
64,192,209284,1,8,0:0:0:0:
320,192,209284,1,0,0:0:0:0:
448,192,209284,1,0,0:0:0:0:
320,192,209427,1,2,0:0:0:0:
448,192,209427,1,0,0:0:0:0:
64,192,209570,1,8,0:0:0:0:
192,192,209570,1,0,0:0:0:0:
320,192,209570,1,0,0:0:0:0:
64,192,209713,128,2,209999:0:0:0:0:
448,192,209713,1,0,0:0:0:0:
192,192,209999,1,8,0:0:0:0:
448,192,209999,1,0,0:0:0:0:
320,192,210070,1,8,0:0:0:0:
64,192,210142,1,2,0:0:0:0:
192,192,210213,1,2,0:0:0:0:
64,192,210284,1,2,0:0:0:0:
320,192,210284,1,4,0:0:0:0:
448,192,210284,128,0,210570:0:0:0:0:
64,192,210570,1,2,0:0:0:0:
192,192,210713,1,8,0:0:0:0:
320,192,210713,1,0,0:0:0:0:
448,192,210713,1,0,0:0:0:0:
448,192,210856,1,0,0:0:0:0:
64,192,210999,1,2,0:0:0:0:
192,192,210999,1,0,0:0:0:0:
320,192,211142,1,2,0:0:0:0:
448,192,211142,1,0,0:0:0:0:
64,192,211284,1,8,0:0:0:0:
192,192,211284,1,0,0:0:0:0:
320,192,211284,1,0,0:0:0:0:
64,192,211427,1,2,0:0:0:0:
448,192,211427,128,0,211713:0:0:0:0:
192,192,211713,1,2,0:0:0:0:
320,192,211713,1,0,0:0:0:0:
64,192,211856,1,8,0:0:0:0:
320,192,211856,1,0,0:0:0:0:
448,192,211856,1,0,0:0:0:0:
448,192,211999,1,0,0:0:0:0:
64,192,212142,1,2,0:0:0:0:
192,192,212142,1,0,0:0:0:0:
320,192,212284,1,2,0:0:0:0:
448,192,212284,1,0,0:0:0:0:
64,192,212427,1,8,0:0:0:0:
192,192,212427,1,0,0:0:0:0:
320,192,212427,1,0,0:0:0:0:
64,192,212570,128,2,212856:0:0:0:0:
192,192,212570,1,4,0:0:0:0:
448,192,212570,1,0,0:0:0:0:
192,192,212856,1,2,0:0:0:0:
448,192,212856,1,0,0:0:0:0:
64,192,212999,1,8,0:0:0:0:
320,192,212999,1,0,0:0:0:0:
448,192,212999,1,0,0:0:0:0:
320,192,213142,1,0,0:0:0:0:
64,192,213284,1,2,0:0:0:0:
192,192,213284,1,0,0:0:0:0:
320,192,213427,1,2,0:0:0:0:
448,192,213427,1,0,0:0:0:0:
64,192,213570,1,8,0:0:0:0:
192,192,213570,1,0,0:0:0:0:
320,192,213570,1,0,0:0:0:0:
64,192,213713,1,2,0:0:0:0:
192,192,213713,1,4,0:0:0:0:
448,192,213713,128,0,213999:0:0:0:0:
192,192,213999,1,2,0:0:0:0:
320,192,213999,1,0,0:0:0:0:
64,192,214142,1,8,0:0:0:0:
320,192,214142,1,0,0:0:0:0:
448,192,214142,1,0,0:0:0:0:
448,192,214284,1,0,0:0:0:0:
64,192,214427,1,2,0:0:0:0:
192,192,214427,1,0,0:0:0:0:
320,192,214570,1,2,0:0:0:0:
192,192,214642,1,0,0:0:0:0:
64,192,214713,1,8,0:0:0:0:
320,192,214713,1,0,0:0:0:0:
448,192,214713,1,0,0:0:0:0:
64,192,214856,128,0,215142:0:0:0:0:
320,192,214999,1,2,0:0:0:0:
448,192,214999,1,4,0:0:0:0:
192,192,215142,1,0,0:0:0:0:
64,192,215284,1,8,0:0:0:0:
320,192,215284,1,0,0:0:0:0:
448,192,215284,1,0,0:0:0:0:
448,192,215427,1,0,0:0:0:0:
64,192,215570,1,2,0:0:0:0:
192,192,215570,1,0,0:0:0:0:
320,192,215713,1,2,0:0:0:0:
448,192,215713,1,0,0:0:0:0:
64,192,215856,1,8,0:0:0:0:
192,192,215856,1,0,0:0:0:0:
320,192,215856,1,0,0:0:0:0:
64,192,215999,1,2,0:0:0:0:
448,192,215999,128,0,216284:0:0:0:0:
320,192,216142,1,0,0:0:0:0:
64,192,216284,1,2,0:0:0:0:
192,192,216284,1,0,0:0:0:0:
64,192,216427,1,8,0:0:0:0:
320,192,216427,1,0,0:0:0:0:
448,192,216427,1,0,0:0:0:0:
448,192,216570,1,0,0:0:0:0:
64,192,216713,1,2,0:0:0:0:
192,192,216713,1,0,0:0:0:0:
320,192,216856,1,2,0:0:0:0:
448,192,216856,1,0,0:0:0:0:
64,192,216999,1,8,0:0:0:0:
192,192,216999,1,0,0:0:0:0:
448,192,216999,1,0,0:0:0:0:
64,192,217142,128,2,217427:0:0:0:0:
320,192,217142,1,4,0:0:0:0:
448,192,217142,1,0,0:0:0:0:
192,192,217427,1,2,0:0:0:0:
320,192,217427,1,0,0:0:0:0:
64,192,217570,1,8,0:0:0:0:
320,192,217570,1,0,0:0:0:0:
448,192,217570,1,0,0:0:0:0:
64,192,217713,1,0,0:0:0:0:
64,192,217856,1,8,0:0:0:0:
192,192,217856,1,0,0:0:0:0:
448,192,217856,1,0,0:0:0:0:
320,192,217999,1,8,0:0:0:0:
448,192,217999,1,0,0:0:0:0:
64,192,218070,1,2,0:0:0:0:
192,192,218142,1,2,0:0:0:0:
320,192,218142,1,0,0:0:0:0:
64,192,218284,1,2,0:0:0:0:
192,192,218284,1,4,0:0:0:0:
448,192,218284,128,0,218570:0:0:0:0:
64,192,218570,1,0,0:0:0:70:tom1.wav
192,192,218570,1,0,0:0:0:0:
320,192,218642,1,0,0:0:0:70:tom1.wav
64,192,218713,1,0,0:0:0:70:tom2.wav
448,192,218713,1,0,0:0:0:0:
192,192,218856,1,2,0:0:0:0:
320,192,218856,1,0,0:0:0:0:
64,192,218927,1,2,0:0:0:0:
320,192,218999,1,8,0:0:0:0:
448,192,218999,1,2,0:0:0:0:
192,192,219142,1,8,0:0:0:0:
320,192,219142,1,2,0:0:0:0:
64,192,219284,1,8,0:0:0:0:
192,192,219284,1,2,0:0:0:0:
320,192,219427,1,2,0:0:0:0:
448,192,219427,1,8,0:0:0:0:
448,192,219713,128,0,219856:0:0:0:0:
320,192,219856,128,0,219999:0:0:0:0:
64,192,219999,128,0,220142:0:0:0:0:
192,192,220142,128,0,220284:0:0:0:0:
320,192,220284,128,0,220427:0:0:0:0:
64,192,220427,1,2,0:0:0:0:
192,192,220427,1,0,0:0:0:0:
448,192,220499,1,2,0:0:0:0:
192,192,220570,1,8,0:0:0:0:
320,192,220570,1,0,0:0:0:0:
64,192,220713,1,2,0:0:0:0:
192,192,220856,1,8,0:0:0:0:
320,192,220856,1,2,0:0:0:0:
448,192,220856,1,0,0:0:0:0:
192,192,220999,1,8,0:0:0:0:
320,192,220999,128,4,221570:0:0:0:0:
448,192,220999,128,0,221856:0:0:0:0:
