osu file format v14

[General]
AudioFilename: Girlish Love.mp3
AudioLeadIn: 0
PreviewTime: 53368
Countdown: 0
SampleSet: Soft
StackLeniency: 0.7
Mode: 0
LetterboxInBreaks: 0
WidescreenStoryboard: 1

[Editor]
Bookmarks: 310,10522,15629,20735,30948,41001,46267,51533,63820,84565,89671,92224,94618,101799
DistanceSpacing: 0.9
BeatDivisor: 4
GridSize: 32
TimelineZoom: 2

[Metadata]
Title:Girlish * Love (Short Ver.)
TitleUnicode:Girlish☆Love (Short Ver.)
Artist:Ouse Akira
ArtistUnicode:逢瀬アキラ
Creator:tomatas95
Version:Light Insane
Source:けもの道☆ガーリッシュスクエア
Tags:Kemonomichi ☆ Girlish Square eroge whirlpool galgame visual novel vn opening op jpop j-pop pop rock j-rock jrock video game japanese Animal Trail
BeatmapID:3472819
BeatmapSetID:1644043

[Difficulty]
HPDrainRate:5
CircleSize:3.6
OverallDifficulty:7
ApproachRate:8.5
SliderMultiplier:1.4
SliderTickRate:1

[Events]
//Background and Video events
Video,0,"CuteIdolAngelss.mp4"
0,0,"SumeragiDaisuki.jpg",0,0
//Break Periods
//Storyboard Layer 0 (Background)
//Storyboard Layer 1 (Fail)
//Storyboard Layer 2 (Pass)
//Storyboard Layer 3 (Foreground)
//Storyboard Layer 4 (Overlay)
//Storyboard Sound Samples

[TimingPoints]
310,319.148936170213,4,2,3,75,1,0
310,-125,4,2,3,75,0,0
629,-125,4,2,3,50,0,0
1427,-111.111111111111,4,2,3,75,0,0
2384,-111.111111111111,4,2,3,70,0,0
2544,-111.111111111111,4,2,3,65,0,0
2703,-111.111111111111,4,2,3,60,0,0
2783,-111.111111111111,4,2,3,5,0,0
2863,-125,4,2,3,75,0,0
3182,-125,4,2,3,55,0,0
3341,-125,4,2,1,55,0,0
3980,-111.111111111111,4,2,2,75,0,0
4139,-111.111111111111,4,2,3,75,0,0
4778,-111.111111111111,4,2,1,75,0,0
4937,-111.111111111111,4,2,3,75,0,0
5336,-111.111111111111,4,2,3,5,0,0
5416,-111.111111111111,4,2,3,75,0,0
5735,-111.111111111111,4,2,3,55,0,0
6054,-125,4,2,3,55,0,0
6214,-125,4,2,1,55,0,0
6533,-111.111111111111,4,2,3,75,0,0
7490,-111.111111111111,4,2,3,70,0,0
7650,-111.111111111111,4,2,3,65,0,0
7809,-111.111111111111,4,2,3,60,0,0
7889,-111.111111111111,4,2,3,5,0,0
7969,-125,4,2,3,75,0,0
8288,-125,4,2,3,55,0,0
8927,-125,4,2,3,65,0,0
9086,-111.111111111111,4,2,3,75,0,0
9405,-111.111111111111,4,2,3,55,0,0
9565,-111.111111111111,4,2,3,60,0,0
9724,-111.111111111111,4,2,3,65,0,0
9884,-111.111111111111,4,2,3,70,0,0
10203,-111.111111111111,4,2,3,65,0,0
10363,-111.111111111111,4,2,3,60,0,0
10522,-100,4,2,5,70,0,0
10841,-100,4,2,1,70,0,0
11639,-100,4,2,3,70,0,0
11799,-100,4,2,1,70,0,0
13075,-100,4,2,4,70,0,0
13235,-100,4,2,1,70,0,0
13395,-100,4,2,1,70,0,0
14192,-100,4,2,2,70,0,0
14512,-100,4,2,1,70,0,0
15310,-100,4,2,3,70,0,0
15469,-100,4,2,1,65,0,0
15629,-100,4,2,1,80,0,0
15788,-100,4,2,2,70,0,0
16107,-100,4,2,1,80,0,0
16266,-100,4,2,2,70,0,0
16586,-100,4,2,1,80,0,0
16745,-100,4,2,2,70,0,0
17065,-100,4,2,1,80,0,0
17224,-100,4,2,2,70,0,0
17544,-100,4,2,1,80,0,0
17703,-100,4,2,2,70,0,0
17863,-100,4,2,1,80,0,0
18022,-100,4,2,2,70,0,0
18182,-100,4,2,4,80,0,0
18341,-100,4,2,2,70,0,0
19299,-100,4,2,2,80,0,0
19618,-100,4,2,2,75,0,0
19937,-100,4,2,2,70,0,0
20097,-100,4,2,2,65,0,0
20256,-100,4,2,2,60,0,0
20416,-100,4,2,2,55,0,0
20575,-100,4,2,2,50,0,0
20735,-125,4,2,2,70,0,0
21054,-125,4,2,1,60,0,0
22012,-125,4,2,4,60,0,0
22331,-125,4,2,1,60,0,0
23288,-125,4,2,4,60,0,0
23607,-125,4,2,1,60,0,0
24565,-125,4,2,4,60,0,0
24724,-125,4,2,1,60,0,0
25841,-125,4,2,4,70,0,0
26161,-125,4,2,1,60,0,0
26480,-125,4,2,4,70,0,0
26639,-125,4,2,1,60,0,0
27118,-125,4,2,4,70,0,0
27277,-125,4,2,1,60,0,0
27756,-125,4,2,4,70,0,0
27915,-125,4,2,1,60,0,0
28395,-125,4,2,4,70,0,0
28554,-125,4,2,1,60,0,0
29512,-125,4,2,1,70,0,0
29831,-125,4,2,2,70,0,0
30629,-125,4,2,2,55,0,0
30788,-125,4,2,2,65,0,0
30948,-100,4,2,2,70,0,0
31267,-100,4,2,1,65,0,0
31586,-100,4,2,1,70,0,0
32065,-100,4,2,1,65,0,0
33341,-100,4,2,2,65,0,0
33501,-100,4,2,1,70,0,0
33820,-100,4,2,1,65,0,0
34139,-100,4,2,1,70,0,0
34618,-100,4,2,1,65,0,0
35895,-100,4,2,2,65,0,0
36055,-100,4,2,4,70,0,0
36373,-100,4,2,1,65,0,0
36692,-100,4,2,4,70,0,0
36852,-100,4,2,1,70,0,0
37171,-100,4,2,1,65,0,0
37331,-100,4,2,4,70,0,0
37491,-100,4,2,1,70,0,0
37969,-100,4,2,4,70,0,0
38129,-100,4,2,1,70,0,0
38448,-100,4,2,1,65,0,0
38607,-100,4,2,1,70,0,0
38927,-100,4,2,1,65,0,0
39246,-100,4,2,1,70,0,0
39724,-100,4,2,1,75,0,0
40044,-100,4,2,1,70,0,0
40442,-100,4,2,1,60,0,0
41001,-100,4,2,4,75,0,0
41320,-100,4,2,1,65,0,0
42278,-100,4,2,4,75,0,0
42597,-100,4,2,1,65,0,0
43554,-100,4,2,4,75,0,0
43873,-100,4,2,1,65,0,0
44831,-100,4,2,4,75,0,0
45150,-100,4,2,1,65,0,0
45469,-100,4,2,2,65,0,0
45629,-100,4,2,1,65,0,0
46107,-100,4,2,2,65,0,0
46267,-100,4,2,3,75,0,0
46427,-100,4,2,2,70,0,0
47544,-100,4,2,3,75,0,0
47704,-100,4,2,2,70,0,0
48820,-100,4,2,4,80,0,0
49139,-100,4,2,2,75,0,0
49937,-100,4,2,3,75,0,0
50256,-100,4,2,2,75,0,0
51373,-100,4,2,2,60,0,0
51533,-100,4,2,3,80,0,0
51852,-100,4,2,3,70,0,0
52012,-100,4,2,3,80,0,0
52331,-100,4,2,3,70,0,0
52490,-100,4,2,2,80,0,0
52730,-111.111111111111,4,2,3,5,0,0
52810,-100,4,2,2,85,0,0
53927,-90.9090909090909,4,2,5,85,0,1
54246,-90.9090909090909,4,2,2,85,0,1
55044,-90.9090909090909,4,2,1,85,0,1
55363,-90.9090909090909,4,2,2,85,0,1
56320,-90.9090909090909,4,2,4,85,0,1
56639,-90.9090909090909,4,2,2,85,0,1
57118,-90.9090909090909,4,2,2,80,0,1
58554,-90.9090909090909,4,2,2,85,0,1
59033,-90.9090909090909,4,2,3,85,0,1
59352,-90.9090909090909,4,2,2,85,0,1
60150,-90.9090909090909,4,2,1,85,0,1
60469,-90.9090909090909,4,2,2,85,0,1
60788,-90.9090909090909,4,2,2,80,0,1
61586,-90.9090909090909,4,2,2,85,0,1
62703,-90.9090909090909,4,2,1,95,0,1
63661,-90.9090909090909,4,2,1,75,0,1
63820,-100,4,2,2,75,0,0
64139,-90.9090909090909,4,2,5,85,0,1
64458,-90.9090909090909,4,2,2,85,0,1
65256,-90.9090909090909,4,2,1,85,0,1
65575,-90.9090909090909,4,2,2,85,0,1
66532,-90.9090909090909,4,2,4,85,0,1
66852,-90.9090909090909,4,2,2,85,0,1
67331,-90.9090909090909,4,2,2,80,0,1
68767,-90.9090909090909,4,2,2,85,0,1
69246,-90.9090909090909,4,2,3,85,0,1
69565,-90.9090909090909,4,2,2,85,0,1
70363,-90.9090909090909,4,2,1,85,0,1
70682,-90.9090909090909,4,2,2,85,0,1
71001,-90.9090909090909,4,2,2,80,0,1
71799,-90.9090909090909,4,2,2,85,0,1
72916,-90.9090909090909,4,2,1,95,0,1
73235,-90.9090909090909,4,2,2,90,0,1
73554,-90.9090909090909,4,2,1,95,0,1
73714,-90.9090909090909,4,2,1,90,0,1
73873,-90.9090909090909,4,2,1,85,0,1
74033,-125,4,2,3,90,0,0
74272,-111.111111111111,4,2,3,5,0,0
74352,-90.9090909090909,4,2,2,85,0,1
75469,-90.9090909090909,4,2,1,60,0,1
75629,-90.9090909090909,4,2,2,60,0,1
75788,-90.9090909090909,4,2,1,70,0,1
75948,-90.9090909090909,4,2,2,70,0,1
76107,-90.9090909090909,4,2,1,80,0,1
76267,-90.9090909090909,4,2,2,80,0,1
76427,-90.9090909090909,4,2,1,90,0,1
76586,-90.9090909090909,4,2,2,90,0,1
76746,-90.9090909090909,4,2,1,75,0,1
76905,-90.9090909090909,4,2,2,85,0,1
78022,-90.9090909090909,4,2,1,85,0,1
78182,-90.9090909090909,4,2,2,85,0,1
78341,-90.9090909090909,4,2,1,90,0,1
78501,-90.9090909090909,4,2,2,90,0,1
78661,-90.9090909090909,4,2,1,95,0,1
78740,-90.9090909090909,4,2,2,95,0,1
78820,-90.9090909090909,4,2,2,90,0,1
78980,-90.9090909090909,4,2,2,85,0,1
79139,-90.9090909090909,4,2,2,80,0,1
79299,-90.9090909090909,4,2,2,75,0,1
79458,-90.9090909090909,4,2,4,90,0,1
79618,-90.9090909090909,4,2,2,85,0,1
80575,-90.9090909090909,4,2,1,60,0,1
80735,-90.9090909090909,4,2,2,60,0,1
80895,-90.9090909090909,4,2,1,70,0,1
81054,-90.9090909090909,4,2,2,70,0,1
81214,-90.9090909090909,4,2,1,80,0,1
81373,-90.9090909090909,4,2,2,80,0,1
81533,-90.9090909090909,4,2,1,90,0,1
81692,-90.9090909090909,4,2,2,90,0,1
81852,-90.9090909090909,4,2,1,95,0,1
82012,-90.9090909090909,4,2,2,90,0,1
82171,-90.9090909090909,4,2,2,85,0,1
83129,-90.9090909090909,4,2,4,90,0,1
83448,-90.9090909090909,4,2,2,85,0,1
84565,-100,4,2,5,70,0,0
84884,-100,4,2,1,70,0,0
85682,-100,4,2,3,70,0,0
85842,-100,4,2,1,70,0,0
87118,-100,4,2,4,70,0,0
87278,-100,4,2,1,70,0,0
87438,-100,4,2,1,70,0,0
88235,-100,4,2,2,70,0,0
88555,-100,4,2,1,70,0,0
89353,-100,4,2,3,70,0,0
89512,-100,4,2,1,65,0,0
89671,-100,4,2,1,80,0,0
89831,-100,4,2,2,70,0,0
90150,-100,4,2,1,80,0,0
90309,-100,4,2,2,70,0,0
90629,-100,4,2,1,80,0,0
90788,-100,4,2,2,70,0,0
91108,-100,4,2,1,80,0,0
91267,-100,4,2,2,70,0,0
91587,-100,4,2,1,80,0,0
91746,-100,4,2,2,70,0,0
91906,-100,4,2,1,80,0,0
92065,-100,4,2,2,70,0,0
92224,-100,4,2,4,80,0,0
92384,-100,4,2,2,70,0,0
93342,-100,4,2,2,80,0,0
93661,-100,4,2,2,75,0,0
93820,-100,4,2,2,70,0,0
93980,-100,4,2,2,65,0,0
94139,-100,4,2,2,60,0,0
94299,-100,4,2,2,55,0,0
94458,-100,4,2,2,50,0,0
94618,-200,4,2,5,70,0,0
94778,-200,4,2,6,70,0,0
95097,-200,4,2,6,65,0,0
95735,-200,4,2,6,60,0,0
96373,-200,4,2,6,55,0,0
97012,-200,4,2,6,50,0,0
97650,-200,4,2,6,45,0,0
98288,-200,4,2,6,40,0,0
98927,-200,4,2,6,35,0,0
99565,-200,4,2,6,30,0,0
100203,-200,4,2,6,25,0,0
100841,-200,4,2,6,20,0,0
101480,-200,4,2,6,15,0,0
101799,-100,4,2,6,5,0,0

[Colours]
Combo1 : 252,181,133
Combo2 : 20,219,235
Combo3 : 250,146,210
Combo4 : 164,164,255

[HitObjects]
0,49,310,5,14,3:2:0:0:
113,0,469,1,10,3:2:0:0:
113,0,1427,6,0,B|106:39|106:39|111:68|111:68|94:137,1,125.999996154785,14|10,0:0|0:0,0:0:0:0:
8,204,1905,1,0,3:0:0:0:
97,123,2065,1,2,3:2:0:0:
109,218,2224,1,10,0:0:0:0:
20,299,2384,1,0,3:0:0:0:
36,384,2544,2,0,L|141:367,1,94.499997116089,2|0,3:2|0:0,0:0:0:0:
140,368,2863,5,14,3:2:0:0:
20,299,3022,1,10,3:2:0:0:
20,287,3341,6,0,L|12:243,2,28,8|8|0,0:0|0:0|3:0,0:0:0:0:
36,384,3661,1,8,3:3:0:0:
36,384,3820,1,4,3:3:0:0:
16,259,3980,6,0,B|52:242|80:243|80:243|111:273|157:256,1,125.999996154785,14|10,3:2|0:0,0:0:0:0:
220,169,4458,1,0,3:0:0:0:
316,251,4618,1,2,3:2:0:0:
225,260,4778,1,8,0:0:0:0:
226,273,4857,1,8,0:0:0:0:
227,286,4937,1,2,3:2:0:0:
219,152,5097,2,0,P|218:119|204:32,1,94.499997116089,0|0,3:2|0:0,0:0:0:0:
204,46,5416,5,14,3:2:0:0:
333,0,5575,1,10,3:2:0:0:
333,0,6054,6,0,L|327:40,2,28,0|0|10,3:0|3:0|0:0,0:0:0:0:
413,30,6373,1,0,3:2:0:0:
476,138,6533,6,0,L|495:5,1,125.999996154785,14|10,0:0|0:0,0:0:0:0:
393,118,7012,1,0,3:0:0:0:
413,30,7171,1,2,3:2:0:0:
476,138,7331,1,10,0:0:0:0:
456,226,7490,1,0,3:0:0:0:
385,108,7650,2,0,B|338:88|338:88|274:108,1,94.499997116089,2|0,3:2|0:0,0:0:0:0:
285,106,7969,5,14,3:2:0:0:
320,241,8129,1,10,3:2:0:0:
321,230,8448,5,8,0:0:0:0:
321,230,8607,2,0,L|330:165,1,56,0|8,3:0|0:0,0:0:0:0:
385,108,8927,1,0,3:0:0:0:
503,172,9086,6,0,B|468:166|444:182|444:182|457:216|442:255,1,125.999996154785,14|8,3:2|0:0,0:0:0:0:
480,372,9565,1,8,0:0:0:0:
445,245,9724,1,8,0:0:0:0:
398,366,9884,1,8,0:0:0:0:
507,296,10043,1,8,0:0:0:0:
376,288,10203,1,8,0:0:0:0:
344,286,10282,1,8,0:0:0:0:
316,299,10362,1,8,0:0:0:0:
296,323,10442,1,8,0:0:0:0:
290,354,10522,6,0,B|245:349|245:349|211:370|211:370|144:356,1,140,6|10,3:2|0:0,0:0:0:0:
45,384,11001,2,0,L|32:301,1,70,2|0,0:0|3:0,0:0:0:0:
12,160,11320,2,0,L|25:243,1,70,0|10,3:0|0:0,0:0:0:0:
157,358,11639,2,0,L|133:207,1,140,6|0,3:2|3:2,0:0:0:0:
119,81,12118,5,10,0:0:0:0:
12,160,12278,2,0,P|45:152|80:157,1,70,2|0,0:0|3:0,0:0:0:0:
242,148,12597,2,0,P|208:140|174:146,1,70,2|10,3:2|0:0,0:0:0:0:
80,157,12916,1,0,0:0:0:0:
140,0,13075,5,4,3:2:0:0:
230,0,13235,1,2,0:0:0:0:
50,0,13395,1,10,0:0:0:0:
139,69,13554,2,0,P|136:34|142:-13,1,70,2|0,0:0|3:0,0:0:0:0:
327,3,13873,2,0,P|329:37|327:72,1,70,2|8,3:2|0:0,0:0:0:0:
232,139,14192,6,0,B|229:101|229:101|235:68|235:68|230:-14,1,140,6|2,3:2|3:2,0:0:0:0:
151,151,14671,1,8,0:0:0:0:
314,158,14831,2,0,P|352:151|402:167,1,70,2|0,0:0|3:0,0:0:0:0:
469,257,15150,2,0,P|431:250|381:266,1,70,0|8,3:0|0:0,0:0:0:0:
503,185,15469,1,8,3:3:0:0:
504,171,15549,1,8,3:3:0:0:
504,157,15629,6,0,B|500:115|514:78|514:78|498:48|468:36,1,140,14|0,0:0|3:0,0:0:0:0:
314,158,16107,2,0,B|318:116|304:79|304:79|320:49|350:37,1,140,14|0,0:0|3:0,0:0:0:0:
400,255,16586,6,0,P|400:208|415:87,1,140,14|0,0:0|3:0,0:0:0:0:
226,263,17065,2,0,P|225:193|217:123,1,140,14|0,0:0|3:0,0:0:0:0:
174,20,17544,1,12,3:2:0:0:
217,123,17703,1,0,3:0:0:0:
90,21,17863,1,12,3:2:0:0:
133,124,18022,1,0,3:0:0:0:
6,22,18182,6,0,L|24:178,1,140,12|10,3:2|0:0,0:0:0:0:
42,342,18661,1,0,3:0:0:0:
0,253,18820,2,0,L|87:243,1,70,0|8,3:0|0:0,0:0:0:0:
83,244,19060,1,8,0:0:0:0:
96,243,19139,1,8,0:0:0:0:
212,368,19299,6,0,B|176:379|176:379|153:337|175:270,1,140,4|0,3:2|3:0,0:0:0:0:
92,208,19778,2,0,L|98:270,3,35,8|8|4|4,0:0|0:0|3:3|3:3,0:0:0:0:
224,188,20097,2,0,L|230:250,3,35,0|0|0|0,3:0|3:0|3:0|3:0,0:0:0:0:
150,143,20416,5,0,3:0:0:0:
147,118,20495,1,0,3:0:0:0:
145,94,20575,1,0,3:0:0:0:
143,69,20655,1,0,3:0:0:0:
140,43,20735,6,0,B|179:43|194:23|194:23|221:7|271:20,1,112,12|10,0:0|0:0,0:0:0:0:
405,11,21214,1,2,0:0:0:0:
405,11,21373,1,10,0:0:0:0:
325,81,21533,2,0,P|325:50|317:3,1,56,2|8,3:2|0:0,0:0:0:0:
491,7,21852,6,0,P|484:62|489:118,1,112,2|0,3:2|0:0,0:0:0:0:
492,174,22331,2,0,P|492:143|484:96,1,56,10|0,0:0|3:0,0:0:0:0:
405,94,22650,1,10,0:0:0:0:
408,205,22810,2,0,P|411:133|403:86,1,112,2|2,3:2|3:2,0:0:0:0:
405,11,23288,1,10,0:0:0:0:
509,275,23607,6,0,L|441:269,2,56,10|2|10,0:0|0:0|0:0,0:0:0:0:
506,361,24086,2,0,L|370:350,1,112,2|2,3:2|3:2,0:0:0:0:
234,339,24565,1,10,0:0:0:0:
312,273,24724,1,2,0:0:0:0:
320,384,24884,6,0,L|311:263,1,112,10|10,0:0|0:0,0:0:0:0:
307,216,25363,2,0,L|311:276,1,56,2|8,3:2|0:0,0:0:0:0:
380,171,25682,1,0,3:0:0:0:
225,215,25841,6,0,P|178:197|102:231,1,112,14|8,3:2|0:0,0:0:0:0:
170,279,26320,1,2,0:0:0:0:
15,214,26480,6,0,P|62:196|138:230,1,112,10|8,0:0|0:0,0:0:0:0:
70,278,26959,1,2,3:2:0:0:
15,343,27118,6,0,P|66:361|119:344,1,112,10|8,0:0|0:0,0:0:0:0:
70,278,27597,1,2,3:2:0:0:
224,343,27756,6,0,P|173:361|120:344,1,112,10|8,0:0|0:0,0:0:0:0:
170,279,28235,1,2,3:2:0:0:
15,214,28395,6,0,P|15:164|4:78,1,112,2|10,3:2|0:0,0:0:0:0:
6,46,28873,2,0,P|5:72|11:119,1,56,2|8,0:0|0:0,0:0:0:0:
175,92,29192,2,0,P|174:65|180:18,1,56,2|8,3:2|0:0,0:0:0:0:
87,1,29512,6,0,L|94:137,1,112,6|8,3:2|0:0,0:0:0:0:
7,101,29990,1,8,0:0:0:0:
175,92,30150,1,8,0:0:0:0:
86,0,30310,1,8,0:0:0:0:
92,112,30469,1,8,0:0:0:0:
280,22,30788,1,8,0:0:0:0:
290,19,30868,1,8,0:0:0:0:
303,23,30948,6,0,B|342:33|374:5|374:5|415:-6|464:18,1,140,6|10,3:2|0:0,0:0:0:0:
512,149,31427,1,2,0:0:0:0:
436,7,31586,1,2,3:2:0:0:
474,78,31746,1,2,3:2:0:0:
487,78,32065,6,0,L|349:96,1,140,10|0,0:0|3:0,0:0:0:0:
370,188,32544,2,0,L|450:177,1,70,10|0,0:0|0:0,0:0:0:0:
348,96,32863,1,2,3:2:0:0:
276,193,33022,1,0,3:0:0:0:
371,282,33182,1,8,0:0:0:0:
368,187,33341,1,2,3:2:0:0:
368,187,33421,1,2,3:2:0:0:
368,187,33501,1,6,3:2:0:0:
475,361,33820,6,0,L|486:274,1,70,10|2,0:0|0:0,0:0:0:0:
512,160,34139,1,2,3:2:0:0:
483,291,34299,1,2,3:2:0:0:
486,277,34618,6,0,B|446:280|412:270|412:270|396:306|402:340,1,140,10|2,0:0|3:2,0:0:0:0:
241,380,35097,2,0,L|227:297,1,70,10|2,0:0|0:0,0:0:0:0:
331,380,35416,1,2,3:2:0:0:
296,226,35575,2,0,L|310:309,1,70,2|8,3:2|0:0,0:0:0:0:
378,170,35895,1,2,3:2:0:0:
369,160,35974,1,2,3:2:0:0:
358,151,36054,6,0,P|296:131|219:171,1,140,6|8,3:2|0:0,0:0:0:0:
165,211,36533,1,2,0:0:0:0:
36,203,36692,6,0,P|98:183|175:223,1,140,2|0,3:2|0:0,0:0:0:0:
229,263,37171,1,8,0:0:0:0:
357,255,37331,6,0,P|295:235|218:275,1,140,2|10,0:0|0:0,0:0:0:0:
164,315,37810,1,2,0:0:0:0:
35,307,37969,6,0,P|97:287|174:327,1,140,2|8,3:2|0:0,0:0:0:0:
228,367,38448,1,2,0:0:0:0:
228,262,38607,6,0,L|213:102,1,140,6|10,3:2|0:0,0:0:0:0:
210,20,39086,1,2,0:0:0:0:
301,68,39246,1,2,3:2:0:0:
123,74,39405,1,2,3:2:0:0:
121,87,39724,6,0,B|106:120|106:120|117:59|99:7,1,140,10|8,0:0|3:2,0:0:0:0:
13,12,40203,2,0,L|17:97,1,70,8|0,0:0|0:0,0:0:0:0:
18,95,40442,1,8,0:0:0:0:
17,108,40522,1,10,0:0:0:0:
121,87,40682,1,2,3:2:0:0:
178,209,40841,1,10,0:0:0:0:
175,195,40921,1,8,0:0:0:0:
164,185,41001,6,0,P|103:162|30:203,1,140,6|0,3:2|0:0,0:0:0:0:
109,308,41480,2,0,L|104:232,1,70,8|0,0:0|0:0,0:0:0:0:
186,298,41799,1,2,3:2:0:0:
29,300,41958,1,2,3:2:0:0:
104,238,42118,1,8,0:0:0:0:
74,384,42278,6,0,L|232:374,1,140,6|2,3:2|3:2,0:0:0:0:
376,368,42756,1,10,0:0:0:0:
213,375,42916,1,2,0:0:0:0:
287,241,43075,1,2,3:2:0:0:
299,384,43235,2,0,P|299:348|290:298,1,70,2|10,3:2|0:0,0:0:0:0:
456,383,43554,6,0,P|455:314|467:236,1,140,6|2,3:2|3:2,0:0:0:0:
497,122,44033,1,10,0:0:0:0:
405,100,44192,1,2,0:0:0:0:
373,221,44352,1,2,3:2:0:0:
465,243,44511,1,2,3:2:0:0:
435,172,44671,1,10,0:0:0:0:
512,34,44831,6,0,L|365:17,1,140,6|2,3:2|3:2,0:0:0:0:
232,63,45310,1,10,0:0:0:0:
372,17,45469,1,2,3:2:0:0:
289,0,45629,1,2,0:0:0:0:
325,150,45788,2,0,L|314:66,1,70,2|10,3:2|0:0,0:0:0:0:
146,5,46107,1,10,0:0:0:0:
146,19,46187,1,10,0:0:0:0:
142,34,46267,6,0,P|146:74|152:116,2,70,6|2|8,3:2|0:0|0:0,0:0:0:0:
24,46,46746,1,2,0:0:0:0:
61,207,46905,1,10,0:0:0:0:
0,136,47065,2,0,L|93:116,1,70,2|8,3:2|0:0,0:0:0:0:
232,63,47384,1,2,3:2:0:0:
231,77,47464,1,0,3:0:0:0:
232,90,47544,5,10,0:0:0:0:
151,104,47703,1,2,0:0:0:0:
176,233,47863,1,10,0:0:0:0:
257,219,48022,1,2,3:2:0:0:
282,348,48182,1,10,0:0:0:0:
201,362,48341,2,0,L|119:352,1,70,2|8,3:2|0:0,0:0:0:0:
40,245,48661,1,2,3:2:0:0:
44,384,48820,6,0,P|45:324|35:214,1,140,6|10,3:2|0:0,0:0:0:0:
0,151,49299,1,2,0:0:0:0:
153,195,49458,1,10,3:2:0:0:
84,98,49618,2,0,L|77:168,1,70,2|8,3:2|0:0,0:0:0:0:
0,25,49937,6,0,L|155:9,1,140,6|0,3:2|3:2,0:0:0:0:
298,29,50416,1,10,0:0:0:0:
219,1,50575,1,0,3:2:0:0:
189,129,50735,1,10,0:0:0:0:
268,157,50894,1,0,3:2:0:0:
298,29,51054,2,0,B|342:29|373:7|373:7|406:4|446:28,1,140,10|0,0:0|3:0,0:0:0:0:
444,29,51453,1,0,3:0:0:0:
454,38,51533,5,10,0:0:0:0:
497,176,51692,2,0,L|510:96,1,70,10|0,0:0|0:0,0:0:0:0:
424,214,52012,5,10,0:0:0:0:
467,352,52171,2,0,L|480:272,1,70,10|0,0:0|3:0,0:0:0:0:
333,384,52490,6,0,L|347:261,1,105,14|0,0:0|0:0,0:0:0:0:
347,265,52810,5,10,0:0:0:0:
467,352,52969,1,10,0:0:0:0:
3,358,53927,6,0,B|45:349|79:366|79:366|95:332|81:280,1,154.000004699707,6|10,3:2|0:0,0:0:0:0:
0,178,54405,2,0,L|9:268,1,77.0000023498536,2|0,0:0|3:0,0:0:0:0:
146,235,54724,2,0,L|137:145,1,77.0000023498536,2|8,3:2|0:0,0:0:0:0:
20,32,55044,6,0,P|56:26|108:38,1,77.0000023498536,6|0,3:2|0:0,0:0:0:0:
252,33,55363,2,0,P|216:27|164:39,1,77.0000023498536,2|8,3:2|0:0,0:0:0:0:
15,145,55682,2,0,P|43:121|94:106,1,77.0000023498536,2|0,0:0|3:2,0:0:0:0:
261,142,56001,2,0,P|232:118|181:103,1,77.0000023498536,2|8,3:2|0:0,0:0:0:0:
27,224,56320,6,0,B|41:263|36:321|36:321|57:342|90:336,1,154.000004699707,6|2,3:2|3:2,0:0:0:0:
138,158,56799,2,0,L|152:251,1,77.0000023498536,10|0,0:0|0:0,0:0:0:0:
87,336,57118,1,2,3:2:0:0:
149,234,57278,1,2,3:2:0:0:
225,340,57437,1,10,0:0:0:0:
147,218,57597,6,0,B|193:190|221:198|221:198|261:239|302:228,1,154.000004699707,2|2,3:2|3:2,0:0:0:0:
483,201,58075,1,8,0:0:0:0:
401,324,58235,2,0,L|371:151,1,154.000004699707,2|2,0:0|3:2,0:0:0:0:
349,22,58714,1,10,0:0:0:0:
265,46,58873,1,2,0:0:0:0:
434,3,59033,6,0,B|472:10|501:-2|501:-2|528:39|508:83,1,154.000004699707,6|10,3:2|0:0,0:0:0:0:
374,172,59512,2,0,P|413:166|462:179,1,77.0000023498536,2|0,0:0|3:0,0:0:0:0:
509,79,59831,2,0,P|470:85|421:72,1,77.0000023498536,2|8,3:2|0:0,0:0:0:0:
265,30,60150,6,0,P|257:96|251:197,1,154.000004699707,6|2,3:2|3:2,0:0:0:0:
271,383,60629,1,10,0:0:0:0:
204,315,60788,2,0,P|270:287|353:338,1,154.000004699707,2|0,3:2|3:0,0:0:0:0:
500,376,61267,1,8,0:0:0:0:
340,319,61427,1,2,0:0:0:0:
412,384,61586,6,0,L|437:219,1,154.000004699707,2|10,3:2|0:0,0:0:0:0:
511,299,62065,2,0,L|497:388,1,77.0000023498536,2|0,0:0|3:2,0:0:0:0:
512,217,62384,1,10,0:0:0:0:
511,201,62464,1,8,0:0:0:0:
510,185,62544,1,10,0:0:0:0:
354,238,62703,6,0,L|254:223,1,77.0000023498536,6|0,3:2|0:0,0:0:0:0:
422,150,63022,2,0,L|322:135,1,77.0000023498536,6|0,3:2|0:0,0:0:0:0:
490,62,63341,2,0,L|331:38,1,154.000004699707,6|0,3:2|3:0,0:0:0:0:
158,19,63820,1,10,0:0:0:0:
180,10,63899,1,8,0:0:0:0:
204,7,63979,1,10,0:0:0:0:
229,10,64059,1,8,0:0:0:0:
251,16,64139,6,0,B|242:77|242:77|247:99|247:99|226:179,1,154.000004699707,6|10,3:2|0:0,0:0:0:0:
160,109,64618,2,0,L|75:99,1,77.0000023498536,2|0,0:0|3:0,0:0:0:0:
229,166,64937,2,0,L|314:156,1,77.0000023498536,2|8,3:2|0:0,0:0:0:0:
218,324,65256,6,0,P|221:285|212:238,1,77.0000023498536,6|0,3:2|0:0,0:0:0:0:
326,297,65575,2,0,P|312:333|291:365,1,77.0000023498536,2|8,3:2|0:0,0:0:0:0:
135,325,65895,2,0,P|118:289|86:253,1,77.0000023498536,2|0,0:0|3:2,0:0:0:0:
0,333,66214,2,0,P|36:347|68:369,1,77.0000023498536,2|8,3:2|0:0,0:0:0:0:
6,204,66533,6,0,P|8:147|-5:24,1,154.000004699707,6|2,3:2|3:2,0:0:0:0:
98,0,67012,2,0,P|97:28|103:90,1,77.0000023498536,10|0,0:0|0:0,0:0:0:0:
167,220,67331,1,2,3:2:0:0:
254,79,67490,1,2,3:2:0:0:
175,130,67650,1,10,0:0:0:0:
229,285,67810,6,0,B|247:325|242:365|242:365|276:382|324:369,1,154.000004699707,2|2,3:2|3:2,0:0:0:0:
405,289,68288,1,8,0:0:0:0:
508,384,68448,2,0,P|505:326|513:228,1,154.000004699707,2|2,0:0|3:2,0:0:0:0:
475,30,68927,1,10,0:0:0:0:
505,127,69086,1,10,0:0:0:0:
505,137,69166,1,8,0:0:0:0:
492,145,69246,6,0,B|449:134|411:152|411:152|396:113|405:63,1,154.000004699707,6|10,3:2|0:0,0:0:0:0:
339,21,69724,2,0,L|255:13,1,77.0000023498536,2|0,0:0|3:0,0:0:0:0:
101,0,70044,2,0,L|185:8,1,77.0000023498536,2|8,3:2|0:0,0:0:0:0:
225,227,70363,6,0,P|227:182|212:57,1,154.000004699707,6|2,3:2|3:2,0:0:0:0:
130,102,70841,1,10,0:0:0:0:
139,255,71001,2,0,P|141:210|126:85,1,154.000004699707,2|0,3:2|3:0,0:0:0:0:
20,11,71480,1,8,0:0:0:0:
130,102,71639,1,2,0:0:0:0:
50,246,71799,6,0,B|43:201|43:201|51:163|51:163|45:86,1,154.000004699707,2|10,3:2|0:0,0:0:0:0:
122,25,72278,2,0,L|133:134,1,77.0000023498536,2|0,0:0|3:0,0:0:0:0:
139,255,72597,1,10,0:0:0:0:
138,239,72677,1,8,0:0:0:0:
136,223,72756,1,10,0:0:0:0:
57,322,72916,6,0,L|46:213,1,77.0000023498536,6|0,3:2|0:0,0:0:0:0:
142,333,73235,1,10,0:0:0:0:
143,349,73315,1,8,0:0:0:0:
145,365,73394,1,10,0:0:0:0:
229,309,73554,2,0,L|213:134,1,154.000004699707,6|0,3:2|3:0,0:0:0:0:
184,28,74033,6,0,B|216:25|216:25|236:34|236:34|281:27,1,84,14|0,0:0|0:0,0:0:0:0:
281,28,74352,6,0,L|291:111,2,77.0000023498536,14|2|10,0:0|0:0|0:0,0:0:0:0:
390,110,74831,1,2,0:0:0:0:
477,24,74990,1,10,0:0:0:0:
380,33,75150,2,0,L|390:116,1,77.0000023498536,2|8,3:2|0:0,0:0:0:0:
475,209,75469,6,0,P|475:168|459:108,1,77.0000023498536,14|0,0:0|3:0,0:0:0:0:
473,288,75788,2,0,P|469:327|481:389,1,77.0000023498536,14|0,0:0|3:0,0:0:0:0:
311,220,76107,2,0,P|310:179|326:119,1,77.0000023498536,14|0,0:0|3:0,0:0:0:0:
313,299,76426,2,0,P|316:338|304:400,1,77.0000023498536,14|0,0:0|3:2,0:0:0:0:
296,377,76666,1,8,3:2:0:0:
281,382,76746,1,0,3:0:0:0:
394,272,76905,6,0,P|395:231|390:163,2,77.0000023498536,6|2|10,3:2|0:0|0:0,0:0:0:0:
393,374,77384,1,2,0:0:0:0:
393,374,77544,1,10,0:0:0:0:
265,380,77703,2,0,L|163:366,1,77.0000023498536,2|8,3:2|0:0,0:0:0:0:
6,288,78022,6,0,B|12:326|12:326|2:375,1,77.0000023498536,14|0,0:0|3:0,0:0:0:0:
188,369,78341,2,0,B|182:331|182:331|192:282,1,77.0000023498536,14|0,0:0|3:0,0:0:0:0:
96,281,78661,1,14,0:0:0:0:
99,295,78740,1,8,0:0:0:0:
100,315,78820,2,0,P|103:341|101:366,1,38.5000011749268,8|8,0:0|0:0,0:0:0:0:
44,207,78980,1,8,3:3:0:0:
44,207,79060,1,8,3:3:0:0:
44,207,79139,1,8,3:3:0:0:
67,193,79218,1,4,3:3:0:0:
93,187,79298,1,4,3:3:0:0:
120,190,79378,1,4,3:3:0:0:
146,202,79458,6,0,P|146:162|158:108,2,77.0000023498536,14|2|2,0:0|3:2|3:2,0:0:0:0:
235,85,79937,1,10,0:0:0:0:
79,69,80097,1,2,3:2:0:0:
152,125,80256,2,0,L|160:27,1,77.0000023498536,2|8,3:2|0:0,0:0:0:0:
0,161,80575,6,0,P|42:165|84:146,1,77.0000023498536,6|8,3:2|3:2,0:0:0:0:
301,172,80895,2,0,P|259:176|217:157,1,77.0000023498536,6|8,3:2|3:2,0:0:0:0:
0,258,81214,2,0,P|37:253|74:265,1,77.0000023498536,6|8,3:2|3:2,0:0:0:0:
301,269,81534,2,0,P|263:264|226:276,1,77.0000023498536,6|8,3:2|3:2,0:0:0:0:
149,214,81852,1,6,3:2:0:0:
150,368,82012,6,0,B|145:321|145:321|151:286|151:286|149:183,1,154.000004699707,14|0,0:0|3:0,0:0:0:0:
82,26,82490,1,8,0:0:0:0:
82,164,82650,1,0,3:0:0:0:
162,52,82810,1,2,3:2:0:0:
30,93,82969,1,10,0:0:0:0:
162,136,83129,6,0,L|334:120,1,154.000004699707,6|0,3:2|3:0,0:0:0:0:
478,115,83607,2,0,L|392:122,1,77.0000023498536,8|0,0:0|3:0,0:0:0:0:
356,197,83927,1,10,0:0:0:0:
361,47,84086,1,8,3:3:0:0:
359,31,84166,1,8,3:3:0:0:
359,15,84246,1,8,3:3:0:0:
401,122,84405,1,8,0:0:0:0:
508,21,84565,6,0,B|505:70|505:70|511:95|511:95|500:188,1,140,6|10,3:2|0:0,0:0:0:0:
490,312,85044,2,0,L|499:210,1,70,2|0,0:0|3:0,0:0:0:0:
401,122,85363,2,0,L|394:191,1,70,0|10,3:0|0:0,0:0:0:0:
425,360,85682,6,0,P|371:336|294:363,1,140,6|0,3:2|3:2,0:0:0:0:
137,384,86161,1,10,0:0:0:0:
210,305,86320,2,0,L|217:374,1,70,2|0,0:0|3:0,0:0:0:0:
200,226,86639,2,0,L|192:156,1,70,2|10,3:2|0:0,0:0:0:0:
198,64,86958,1,2,0:0:0:0:
21,16,87118,5,4,3:2:0:0:
88,131,87278,1,2,0:0:0:0:
109,40,87437,1,10,0:0:0:0:
0,107,87597,2,0,P|4:147|5:202,1,70,2|0,0:0|3:0,0:0:0:0:
90,283,87916,2,0,P|91:248|95:213,1,70,2|8,3:2|0:0,0:0:0:0:
1,350,88235,6,0,B|39:345|39:345|73:367|73:367|140:353,1,140,6|2,3:2|3:2,0:0:0:0:
207,222,88714,1,8,0:0:0:0:
238,384,88873,2,0,L|227:290,1,70,2|0,0:0|3:0,0:0:0:0:
297,203,89192,2,0,L|308:297,1,70,0|8,3:0|0:0,0:0:0:0:
308,286,89432,1,8,0:0:0:0:
310,299,89512,1,8,3:3:0:0:
471,348,89671,6,0,B|433:340|404:355|404:355|385:319|393:279,1,140,14|0,0:0|3:0,0:0:0:0:
474,132,90150,2,0,B|436:140|407:125|407:125|388:161|396:201,1,140,14|0,0:0|3:0,0:0:0:0:
512,261,90629,6,0,B|471:257|450:225|450:225|432:194|392:194,1,140,14|0,0:0|3:0,0:0:0:0:
275,352,91107,2,0,B|316:348|337:316|337:316|355:285|395:285,1,140,14|0,0:0|3:0,0:0:0:0:
474,132,91586,5,12,3:2:0:0:
319,167,91746,1,0,3:0:0:0:
449,52,91905,1,12,3:2:0:0:
294,87,92065,1,0,3:0:0:0:
401,172,92224,6,0,P|380:104|361:37,1,140,12|10,3:2|0:0,0:0:0:0:
319,167,92703,1,0,3:0:0:0:
361,37,92863,1,0,3:0:0:0:
474,132,93022,1,8,0:0:0:0:
476,145,93102,1,8,0:0:0:0:
479,158,93182,1,8,0:0:0:0:
359,23,93341,6,0,B|318:10|292:22|292:22|256:56|216:36,1,140,4|0,3:2|3:0,0:0:0:0:
137,42,93820,2,0,L|139:7,3,35,8|8|0|0,0:0|0:0|3:2|3:0,0:0:0:0:
51,46,94139,2,0,L|53:11,3,35,8|8|8|8,3:3|3:3|3:3|3:3,0:0:0:0:
98,108,94458,1,8,0:0:0:0:
98,123,94538,1,8,0:0:0:0:
99,135,94618,22,0,B|161:80|267:95|267:95|139:39|9:131|0:238|7:329|142:380|142:380|79:290|121:189|245:151|317:187|327:260|306:316|232:316|232:316|229:312|236:315|236:315|295:304|355:327|387:380|387:380|431:287|418:195|369:144,1,1575,6|0,3:2|0:0,0:0:0:0:
