osu file format v14

[General]
AudioFilename: Girlish Love.mp3
AudioLeadIn: 0
PreviewTime: 53368
Countdown: 0
SampleSet: Soft
StackLeniency: 0.7
Mode: 0
LetterboxInBreaks: 0
WidescreenStoryboard: 1

[Editor]
Bookmarks: 310,10522,15629,20735,30948,41001,46267,51533,63820,84565,89671,92224,94618,101799
DistanceSpacing: 0.3
BeatDivisor: 4
GridSize: 32
TimelineZoom: 2

[Metadata]
Title:Girlish * Love (Short Ver.)
TitleUnicode:Girlish☆Love (Short Ver.)
Artist:Ouse Akira
ArtistUnicode:逢瀬アキラ
Creator:tomatas95
Version:Insane
Source:けもの道☆ガーリッシュスクエア
Tags:Kemonomichi ☆ Girlish Square eroge whirlpool galgame visual novel vn opening op jpop j-pop pop rock j-rock jrock video game japanese Animal Trail
BeatmapID:3472818
BeatmapSetID:1644043

[Difficulty]
HPDrainRate:5.5
CircleSize:3.8
OverallDifficulty:8
ApproachRate:9
SliderMultiplier:1.6
SliderTickRate:1

[Events]
//Background and Video events
Video,0,"CuteIdolAngelss.mp4"
0,0,"NitaniDate.jpg",0,0
//Break Periods
//Storyboard Layer 0 (Background)
//Storyboard Layer 1 (Fail)
//Storyboard Layer 2 (Pass)
//Storyboard Layer 3 (Foreground)
//Storyboard Layer 4 (Overlay)
//Storyboard Sound Samples

[TimingPoints]
310,319.148936170213,4,2,3,75,1,0
310,-125,4,2,3,75,0,0
629,-125,4,2,3,50,0,0
1427,-100,4,2,3,75,0,0
2384,-100,4,2,3,70,0,0
2544,-142.857142857143,4,2,3,65,0,0
2703,-142.857142857143,4,2,3,60,0,0
2783,-142.857142857143,4,2,3,5,0,0
2863,-125,4,2,3,75,0,0
3182,-125,4,2,3,55,0,0
3341,-125,4,2,1,55,0,0
3980,-100,4,2,2,75,0,0
4139,-100,4,2,3,75,0,0
4778,-100,4,2,1,75,0,0
4937,-100,4,2,3,75,0,0
5735,-100,4,2,3,55,0,0
6054,-142.857142857143,4,2,3,55,0,0
6214,-142.857142857143,4,2,1,55,0,0
6533,-100,4,2,3,75,0,0
7490,-100,4,2,3,70,0,0
7650,-142.857142857143,4,2,3,65,0,0
7809,-142.857142857143,4,2,3,60,0,0
7889,-142.857142857143,4,2,3,5,0,0
7969,-125,4,2,3,75,0,0
8288,-125,4,2,3,55,0,0
8927,-125,4,2,3,65,0,0
9086,-100,4,2,3,75,0,0
9405,-100,4,2,3,55,0,0
9565,-100,4,2,3,60,0,0
9724,-100,4,2,3,65,0,0
9884,-100,4,2,3,70,0,0
10203,-100,4,2,3,65,0,0
10363,-100,4,2,3,60,0,0
10522,-100,4,2,5,70,0,0
10841,-100,4,2,1,70,0,0
11639,-100,4,2,3,70,0,0
11799,-100,4,2,1,70,0,0
13075,-100,4,2,4,70,0,0
13235,-100,4,2,1,70,0,0
13395,-100,4,2,1,70,0,0
14192,-100,4,2,2,70,0,0
14512,-100,4,2,1,70,0,0
15310,-100,4,2,3,70,0,0
15469,-100,4,2,1,65,0,0
15629,-90.9090909090909,4,2,1,80,0,0
15788,-90.9090909090909,4,2,2,70,0,0
16107,-90.9090909090909,4,2,1,80,0,0
16266,-90.9090909090909,4,2,2,70,0,0
16586,-90.9090909090909,4,2,1,80,0,0
16745,-90.9090909090909,4,2,2,70,0,0
17065,-90.9090909090909,4,2,1,80,0,0
17224,-90.9090909090909,4,2,2,70,0,0
17544,-90.9090909090909,4,2,1,80,0,0
17703,-90.9090909090909,4,2,2,70,0,0
17863,-90.9090909090909,4,2,1,80,0,0
18022,-90.9090909090909,4,2,2,70,0,0
18182,-90.9090909090909,4,2,4,80,0,0
18341,-90.9090909090909,4,2,2,70,0,0
19299,-83.3333333333333,4,2,2,80,0,0
19618,-83.3333333333333,4,2,2,75,0,0
19778,-100,4,2,2,75,0,0
19937,-100,4,2,2,70,0,0
20097,-100,4,2,2,65,0,0
20256,-100,4,2,2,60,0,0
20416,-100,4,2,2,55,0,0
20575,-100,4,2,2,50,0,0
20735,-125,4,2,2,70,0,0
21054,-125,4,2,1,60,0,0
22012,-125,4,2,4,60,0,0
22331,-125,4,2,1,60,0,0
23288,-125,4,2,4,60,0,0
23607,-125,4,2,1,60,0,0
24565,-125,4,2,4,60,0,0
24724,-125,4,2,1,60,0,0
25841,-125,4,2,4,70,0,0
26161,-125,4,2,1,60,0,0
26480,-125,4,2,4,70,0,0
26639,-125,4,2,1,60,0,0
27118,-125,4,2,4,70,0,0
27277,-125,4,2,1,60,0,0
27756,-125,4,2,4,70,0,0
27915,-125,4,2,1,60,0,0
28395,-125,4,2,4,70,0,0
28554,-125,4,2,1,60,0,0
29512,-125,4,2,1,70,0,0
29831,-125,4,2,2,70,0,0
30629,-125,4,2,2,55,0,0
30788,-125,4,2,2,65,0,0
30948,-111.111111111111,4,2,2,70,0,0
31267,-111.111111111111,4,2,1,65,0,0
31586,-111.111111111111,4,2,1,70,0,0
32065,-111.111111111111,4,2,1,65,0,0
33341,-111.111111111111,4,2,2,65,0,0
33501,-111.111111111111,4,2,1,70,0,0
33820,-111.111111111111,4,2,1,65,0,0
34139,-111.111111111111,4,2,1,70,0,0
34618,-111.111111111111,4,2,1,65,0,0
35895,-111.111111111111,4,2,2,65,0,0
36055,-111.111111111111,4,2,4,70,0,0
36373,-111.111111111111,4,2,1,65,0,0
36692,-111.111111111111,4,2,4,70,0,0
36852,-111.111111111111,4,2,1,70,0,0
37171,-111.111111111111,4,2,1,65,0,0
37331,-111.111111111111,4,2,4,70,0,0
37491,-111.111111111111,4,2,1,70,0,0
37969,-111.111111111111,4,2,4,70,0,0
38129,-111.111111111111,4,2,1,70,0,0
38448,-111.111111111111,4,2,1,65,0,0
38607,-111.111111111111,4,2,1,70,0,0
38927,-111.111111111111,4,2,1,65,0,0
39246,-111.111111111111,4,2,1,70,0,0
39724,-111.111111111111,4,2,1,75,0,0
40044,-111.111111111111,4,2,1,70,0,0
40442,-111.111111111111,4,2,1,60,0,0
41001,-100,4,2,4,75,0,0
41320,-100,4,2,1,65,0,0
42278,-100,4,2,4,75,0,0
42597,-100,4,2,1,65,0,0
43554,-100,4,2,4,75,0,0
43873,-100,4,2,1,65,0,0
44831,-100,4,2,4,75,0,0
45150,-100,4,2,1,65,0,0
45469,-100,4,2,2,65,0,0
45629,-100,4,2,1,65,0,0
46107,-100,4,2,2,65,0,0
46267,-100,4,2,3,75,0,0
46427,-100,4,2,2,70,0,0
47544,-100,4,2,3,75,0,0
47704,-100,4,2,2,70,0,0
48820,-90.9090909090909,4,2,4,80,0,0
49139,-90.9090909090909,4,2,2,75,0,0
49618,-100,4,2,2,75,0,0
49937,-90.9090909090909,4,2,3,75,0,0
50256,-90.9090909090909,4,2,2,75,0,0
51054,-90.9090909090909,4,2,2,75,0,0
51373,-90.9090909090909,4,2,2,60,0,0
51533,-100,4,2,3,80,0,0
51852,-100,4,2,3,70,0,0
52012,-100,4,2,3,80,0,0
52331,-100,4,2,3,70,0,0
52490,-76.9230769230769,4,2,2,80,0,0
52730,-142.857142857143,4,2,3,5,0,0
52810,-76.9230769230769,4,2,2,85,0,0
53927,-90.9090909090909,4,2,5,85,0,1
54246,-90.9090909090909,4,2,2,85,0,1
55044,-90.9090909090909,4,2,1,85,0,1
55363,-90.9090909090909,4,2,2,85,0,1
56320,-90.9090909090909,4,2,4,85,0,1
56639,-90.9090909090909,4,2,2,85,0,1
57118,-90.9090909090909,4,2,2,80,0,1
58554,-90.9090909090909,4,2,2,85,0,1
59033,-90.9090909090909,4,2,3,85,0,1
59352,-90.9090909090909,4,2,2,85,0,1
60150,-90.9090909090909,4,2,1,85,0,1
60469,-90.9090909090909,4,2,2,85,0,1
60788,-90.9090909090909,4,2,2,80,0,1
61586,-90.9090909090909,4,2,2,85,0,1
62703,-90.9090909090909,4,2,1,95,0,1
63661,-90.9090909090909,4,2,1,75,0,1
63820,-100,4,2,2,75,0,0
64139,-90.9090909090909,4,2,5,85,0,1
64458,-90.9090909090909,4,2,2,85,0,1
65256,-90.9090909090909,4,2,1,85,0,1
65575,-90.9090909090909,4,2,2,85,0,1
66532,-90.9090909090909,4,2,4,85,0,1
66852,-90.9090909090909,4,2,2,85,0,1
67331,-90.9090909090909,4,2,2,80,0,1
68767,-90.9090909090909,4,2,2,85,0,1
69246,-90.9090909090909,4,2,3,85,0,1
69565,-90.9090909090909,4,2,2,85,0,1
70363,-90.9090909090909,4,2,1,85,0,1
70682,-90.9090909090909,4,2,2,85,0,1
71001,-90.9090909090909,4,2,2,80,0,1
71799,-90.9090909090909,4,2,2,85,0,1
72916,-90.9090909090909,4,2,1,95,0,1
73235,-90.9090909090909,4,2,2,90,0,1
73554,-90.9090909090909,4,2,1,95,0,1
73714,-90.9090909090909,4,2,1,90,0,1
73873,-90.9090909090909,4,2,1,85,0,1
74033,-166.666666666667,4,2,3,90,0,0
74272,-142.857142857143,4,2,3,5,0,0
74352,-90.9090909090909,4,2,2,85,0,1
75469,-90.9090909090909,4,2,1,60,0,1
75629,-90.9090909090909,4,2,2,60,0,1
75788,-90.9090909090909,4,2,1,70,0,1
75948,-90.9090909090909,4,2,2,70,0,1
76107,-90.9090909090909,4,2,1,80,0,1
76267,-90.9090909090909,4,2,2,80,0,1
76427,-90.9090909090909,4,2,1,90,0,1
76586,-90.9090909090909,4,2,2,90,0,1
76746,-90.9090909090909,4,2,1,75,0,1
76905,-90.9090909090909,4,2,2,85,0,1
78022,-90.9090909090909,4,2,1,85,0,1
78182,-90.9090909090909,4,2,2,85,0,1
78341,-90.9090909090909,4,2,1,90,0,1
78501,-90.9090909090909,4,2,2,90,0,1
78661,-90.9090909090909,4,2,1,95,0,1
78740,-90.9090909090909,4,2,2,95,0,1
78820,-90.9090909090909,4,2,2,90,0,1
78980,-90.9090909090909,4,2,2,85,0,1
79139,-90.9090909090909,4,2,2,80,0,1
79299,-90.9090909090909,4,2,2,75,0,1
79458,-90.9090909090909,4,2,4,90,0,1
79618,-90.9090909090909,4,2,2,85,0,1
80575,-90.9090909090909,4,2,1,60,0,1
80735,-90.9090909090909,4,2,2,60,0,1
80895,-90.9090909090909,4,2,1,70,0,1
81054,-90.9090909090909,4,2,2,70,0,1
81214,-90.9090909090909,4,2,1,80,0,1
81373,-90.9090909090909,4,2,2,80,0,1
81533,-90.9090909090909,4,2,1,90,0,1
81692,-90.9090909090909,4,2,2,90,0,1
81852,-90.9090909090909,4,2,1,95,0,1
82012,-90.9090909090909,4,2,2,90,0,1
82171,-90.9090909090909,4,2,2,85,0,1
83129,-90.9090909090909,4,2,4,90,0,1
83448,-90.9090909090909,4,2,2,85,0,1
84565,-100,4,2,5,70,0,0
84884,-100,4,2,1,70,0,0
85682,-100,4,2,3,70,0,0
85842,-100,4,2,1,70,0,0
87118,-100,4,2,4,70,0,0
87278,-100,4,2,1,70,0,0
87438,-100,4,2,1,70,0,0
88235,-100,4,2,2,70,0,0
88555,-100,4,2,1,70,0,0
89353,-100,4,2,3,70,0,0
89512,-100,4,2,1,65,0,0
89671,-90.9090909090909,4,2,1,80,0,0
89831,-90.9090909090909,4,2,2,70,0,0
90150,-90.9090909090909,4,2,1,80,0,0
90309,-90.9090909090909,4,2,2,70,0,0
90629,-90.9090909090909,4,2,1,80,0,0
90788,-90.9090909090909,4,2,2,70,0,0
91108,-90.9090909090909,4,2,1,80,0,0
91267,-90.9090909090909,4,2,2,70,0,0
91587,-90.9090909090909,4,2,1,80,0,0
91746,-90.9090909090909,4,2,2,70,0,0
91906,-90.9090909090909,4,2,1,80,0,0
92065,-90.9090909090909,4,2,2,70,0,0
92224,-100,4,2,4,80,0,0
92384,-100,4,2,2,70,0,0
93341,-83.3333333333333,4,2,2,80,0,0
93661,-83.3333333333333,4,2,2,75,0,0
93820,-100,4,2,2,70,0,0
93980,-100,4,2,2,65,0,0
94139,-100,4,2,2,60,0,0
94299,-100,4,2,2,55,0,0
94458,-100,4,2,2,50,0,0
94618,-250,4,2,5,70,0,0
94778,-250,4,2,6,70,0,0
95097,-250,4,2,6,65,0,0
95735,-250,4,2,6,60,0,0
96373,-250,4,2,6,55,0,0
97012,-250,4,2,6,50,0,0
97650,-250,4,2,6,45,0,0
98288,-250,4,2,6,40,0,0
98927,-250,4,2,6,35,0,0
99565,-250,4,2,6,30,0,0
100203,-250,4,2,6,25,0,0
100841,-250,4,2,6,20,0,0
101480,-250,4,2,6,15,0,0
101799,-100,4,2,6,5,0,0

[Colours]
Combo1 : 252,181,133
Combo2 : 20,219,235
Combo3 : 250,146,210
Combo4 : 164,164,255

[HitObjects]
9,17,310,5,14,3:2:0:0:
83,185,469,1,10,3:2:0:0:
83,185,1427,6,0,B|43:199|9:184|9:184|23:143|-4:90,1,160,14|10,0:0|0:0,0:0:0:0:
21,19,1905,1,0,3:0:0:0:
144,123,2065,1,2,3:2:0:0:
1,102,2224,1,10,0:0:0:0:
164,40,2384,1,0,3:0:0:0:
82,71,2544,6,0,L|61:176,1,83.9999974365235,2|0,3:2|0:0,0:0:0:0:
61,172,2863,5,14,3:2:0:0:
164,40,3022,1,10,3:2:0:0:
164,40,3341,5,8,0:0:0:0:
164,27,3421,1,8,0:0:0:0:
165,14,3501,1,0,3:0:0:0:
276,6,3661,1,8,3:3:0:0:
390,0,3820,1,4,3:3:0:0:
295,164,3980,6,0,L|273:-16,1,160,14|10,3:2|0:0,0:0:0:0:
485,76,4458,1,0,3:0:0:0:
390,0,4618,1,2,3:2:0:0:
457,159,4778,1,8,0:0:0:0:
457,159,4857,1,8,0:0:0:0:
457,159,4937,1,2,3:2:0:0:
362,83,5097,1,0,3:2:0:0:
429,242,5256,1,2,3:2:0:0:
485,76,5416,5,14,3:2:0:0:
429,258,5575,1,10,3:2:0:0:
429,258,6054,6,0,L|469:263,2,27.9999991455078,0|0|10,3:0|3:0|0:0,0:0:0:0:
277,250,6373,1,0,3:2:0:0:
357,384,6533,6,0,P|354:320|356:208,1,160,14|10,0:0|0:0,0:0:0:0:
277,374,7012,1,0,3:0:0:0:
355,224,7171,1,2,3:2:0:0:
440,384,7331,1,10,0:0:0:0:
440,384,7411,1,0,3:0:0:0:
440,384,7490,1,0,3:0:0:0:
357,208,7650,6,0,P|355:172|357:114,1,83.9999974365235,2|0,3:2|0:0,0:0:0:0:
363,113,7969,5,14,3:2:0:0:
194,206,8129,1,10,3:2:0:0:
195,193,8448,5,8,0:0:0:0:
107,113,8607,1,0,3:0:0:0:
5,191,8767,1,8,0:0:0:0:
89,367,8927,1,0,3:0:0:0:
89,367,9006,1,0,3:0:0:0:
88,366,9086,6,0,L|101:198,1,160,14|8,3:2|0:0,0:0:0:0:
10,323,9565,1,8,0:0:0:0:
173,344,9724,1,8,0:0:0:0:
20,226,9884,1,8,0:0:0:0:
183,247,10043,1,8,0:0:0:0:
88,366,10203,5,8,0:0:0:0:
91,326,10282,1,8,0:0:0:0:
94,286,10362,1,8,0:0:0:0:
97,246,10442,1,8,0:0:0:0:
100,206,10522,6,0,B|106:161|86:123|86:123|89:77|127:49,1,160,6|10,3:2|0:0,0:0:0:0:
21,0,11001,2,0,L|9:105,1,80,2|0,0:0|3:0,0:0:0:0:
206,83,11320,2,0,L|218:-22,1,80,0|10,3:0|0:0,0:0:0:0:
413,153,11639,6,0,P|340:123|253:168,1,160,6|0,3:2|3:2,0:0:0:0:
427,45,12118,1,10,0:0:0:0:
493,191,12278,2,0,L|501:90,1,80,2|0,0:0|3:0,0:0:0:0:
417,231,12597,2,0,L|410:310,1,80,2|10,3:2|0:0,0:0:0:0:
502,288,12916,1,2,0:0:0:0:
328,351,13075,5,4,3:2:0:0:
409,310,13235,1,2,0:0:0:0:
250,297,13395,1,10,0:0:0:0:
334,257,13554,2,0,P|333:217|330:178,1,80,2|0,0:0|3:0,0:0:0:0:
250,297,13873,2,0,P|246:336|245:376,1,80,2|8,3:2|0:0,0:0:0:0:
92,384,14192,6,0,B|88:335|88:335|92:307|92:307|91:220,1,160,6|2,3:2|3:2,0:0:0:0:
83,124,14671,1,8,0:0:0:0:
0,173,14831,1,2,0:0:0:0:
0,173,14911,1,2,0:0:0:0:
0,173,14990,1,0,3:0:0:0:
172,172,15150,1,0,3:0:0:0:
78,24,15310,1,8,0:0:0:0:
112,4,15389,1,8,0:0:0:0:
151,0,15469,1,8,3:3:0:0:
190,6,15549,1,8,3:3:0:0:
222,25,15629,6,0,B|269:38|310:-2|310:-2|353:-14|411:15,1,176.000005371094,14|0,0:0|3:0,0:0:0:0:
512,131,16107,2,0,B|465:144|424:104|424:104|381:92|323:121,1,176.000005371094,14|0,0:0|3:0,0:0:0:0:
503,305,16586,6,0,P|498:233|516:114,1,176.000005371094,14|0,0:0|3:0,0:0:0:0:
392,376,17065,2,0,P|389:303|359:187,1,176.000005371094,14|0,0:0|3:0,0:0:0:0:
503,305,17544,5,12,3:2:0:0:
365,203,17703,1,0,3:0:0:0:
254,274,17863,1,12,3:2:0:0:
392,376,18022,1,0,3:0:0:0:
364,185,18182,6,0,B|367:119|346:70|346:70|393:20,1,176.000005371094,12|10,3:2|0:0,0:0:0:0:
512,0,18661,1,0,3:0:0:0:
512,0,18740,1,0,3:0:0:0:
512,0,18820,1,0,3:0:0:0:
465,154,18980,1,8,0:0:0:0:
465,154,19060,1,8,0:0:0:0:
465,154,19139,1,8,0:0:0:0:
257,76,19299,6,0,B|217:54|178:64|178:64|123:113|66:59,1,191.999994140625,4|0,3:2|3:0,0:0:0:0:
10,0,19778,1,8,0:0:0:0:
7,15,19857,1,8,0:0:0:0:
4,30,19937,2,0,L|-4:97,1,40,4|4,3:3|3:3,0:0:0:0:
67,139,20097,1,0,3:0:0:0:
70,124,20176,1,0,3:0:0:0:
73,109,20256,2,0,L|81:42,1,40,0|0,3:0|3:0,0:0:0:0:
0,222,20416,1,0,3:0:0:0:
38,211,20495,1,0,3:0:0:0:
76,221,20575,1,0,3:0:0:0:
105,248,20655,1,0,3:0:0:0:
114,289,20735,6,0,B|98:333|110:373|110:373|84:379|56:378,1,128,12|10,0:0|0:0,0:0:0:0:
33,299,21214,1,2,0:0:0:0:
33,299,21373,1,10,0:0:0:0:
182,336,21533,2,0,L|261:343,1,64,2|8,3:2|0:0,0:0:0:0:
402,356,21852,1,2,3:2:0:0:
321,382,22012,6,0,P|320:333|306:236,2,128,10|10|10,3:2|0:0|0:0,0:0:0:0:
482,381,22810,2,0,P|483:332|497:235,1,128,2|2,3:2|3:2,0:0:0:0:
401,257,23288,5,10,0:0:0:0:
401,269,23607,2,0,L|400:338,2,64,10|2|10,0:0|0:0|0:0,0:0:0:0:
493,253,24086,2,0,L|494:121,1,128,2|2,3:2|3:2,0:0:0:0:
472,31,24565,5,10,0:0:0:0:
376,23,24725,1,2,0:0:0:0:
339,111,24884,2,0,L|347:185,1,64,10|0,0:0|3:0,0:0:0:0:
420,94,25203,1,10,0:0:0:0:
259,99,25363,2,0,P|201:78|121:106,1,128,2|0,3:2|3:0,0:0:0:0:
69,265,25841,6,0,P|71:201|63:137,1,128,14|8,3:2|0:0,0:0:0:0:
138,93,26320,1,2,0:0:0:0:
177,297,26480,6,0,P|179:233|171:169,1,128,10|8,0:0|0:0,0:0:0:0:
246,125,26959,1,2,3:2:0:0:
285,329,27118,6,0,P|287:265|279:201,1,128,10|8,0:0|0:0,0:0:0:0:
354,157,27597,1,2,3:2:0:0:
393,361,27756,6,0,P|395:297|387:233,1,128,10|8,0:0|0:0,0:0:0:0:
489,231,28235,1,2,3:2:0:0:
489,231,28315,1,2,0:0:0:0:
489,231,28395,6,0,P|486:294|494:358,1,128,2|10,3:2|0:0,0:0:0:0:
485,148,28873,2,0,P|483:116|487:84,1,64,2|8,0:0|0:0,0:0:0:0:
352,93,29192,2,0,P|355:123|353:156,1,64,2|8,3:2|0:0,0:0:0:0:
469,12,29512,6,0,L|323:17,1,128,6|8,3:2|0:0,0:0:0:0:
201,28,29990,1,8,0:0:0:0:
353,156,30150,1,8,0:0:0:0:
341,16,30310,1,8,0:0:0:0:
213,168,30469,1,8,0:0:0:0:
215,155,30788,1,8,0:0:0:0:
214,142,30868,1,8,0:0:0:0:
211,129,30948,6,0,B|176:123|140:137|140:137|119:104|130:52,1,143.999995605469,6|10,3:2|0:0,0:0:0:0:
0,0,31427,1,2,0:0:0:0:
127,67,31586,5,2,3:2:0:0:
53,225,31746,1,2,3:2:0:0:
53,210,32065,6,0,L|41:55,1,143.999995605469,10|0,0:0|3:0,0:0:0:0:
225,63,32544,2,0,L|231:144,1,71.9999978027344,10|0,0:0|0:0,0:0:0:0:
133,69,32863,1,2,3:2:0:0:
149,230,33022,2,0,L|142:148,1,71.9999978027344,0|8,3:0|0:0,0:0:0:0:
14,295,33341,1,2,3:2:0:0:
14,295,33421,1,2,3:2:0:0:
14,295,33501,6,0,P|73:285|132:364,1,143.999995605469,6|10,3:2|0:0,0:0:0:0:
53,365,33980,1,2,0:0:0:0:
76,200,34139,5,2,3:2:0:0:
271,205,34299,1,2,3:2:0:0:
271,219,34618,6,0,L|292:361,1,143.999995605469,10|2,0:0|3:2,0:0:0:0:
187,226,35097,1,10,0:0:0:0:
353,208,35256,1,2,0:0:0:0:
292,361,35416,1,2,3:2:0:0:
271,219,35575,2,0,P|267:181|259:127,1,71.9999978027344,2|8,3:2|0:0,0:0:0:0:
271,21,35895,1,2,3:2:0:0:
271,21,35974,1,2,3:2:0:0:
271,21,36054,6,0,B|315:18|315:18|346:37|346:37|427:19,1,143.999995605469,6|8,3:2|0:0,0:0:0:0:
512,0,36533,1,2,0:0:0:0:
429,165,36692,6,0,L|406:13,1,143.999995605469,2|0,3:2|0:0,0:0:0:0:
494,80,37171,1,8,0:0:0:0:
361,257,37331,6,0,L|338:105,1,143.999995605469,2|10,0:0|0:0,0:0:0:0:
276,198,37810,1,2,0:0:0:0:
450,307,37969,6,0,L|427:155,1,143.999995605469,2|8,3:2|0:0,0:0:0:0:
512,206,38448,1,2,0:0:0:0:
398,367,38607,6,0,L|233:352,1,143.999995605469,6|10,3:2|0:0,0:0:0:0:
87,293,39086,1,2,0:0:0:0:
95,384,39246,5,2,3:2:0:0:
78,201,39405,1,2,3:2:0:0:
82,214,39724,6,0,B|128:204|153:213|153:213|167:172|158:141,1,143.999995605469,10|8,0:0|3:2,0:0:0:0:
178,24,40203,1,8,0:0:0:0:
40,122,40442,5,8,0:0:0:0:
40,122,40522,1,10,0:0:0:0:
60,4,40682,1,2,3:2:0:0:
158,142,40841,1,10,0:0:0:0:
313,29,41001,6,0,L|474:15,1,160,6|0,3:2|0:0,0:0:0:0:
484,169,41480,2,0,L|389:177,1,80,8|0,0:0|0:0,0:0:0:0:
435,93,41799,1,2,3:2:0:0:
451,248,41958,1,2,3:2:0:0:
404,175,42118,1,8,0:0:0:0:
497,328,42278,6,0,B|456:330|425:360|425:360|379:359|344:332,1,160,6|2,3:2|3:2,0:0:0:0:
258,212,42756,1,10,0:0:0:0:
199,270,42916,1,2,0:0:0:0:
278,292,43076,1,2,3:2:0:0:
178,189,43235,1,2,3:2:0:0:
338,235,43395,1,10,0:0:0:0:
219,349,43554,6,0,B|167:343|167:343|128:362|128:362|54:346,1,160,6|2,3:2|3:2,0:0:0:0:
1,194,44033,1,10,0:0:0:0:
78,162,44192,1,2,0:0:0:0:
65,348,44352,1,2,3:2:0:0:
33,271,44512,1,2,3:2:0:0:
110,239,44671,1,10,0:0:0:0:
12,112,44831,6,0,B|18:64|2:21|2:21|26:-3|77:-2,1,160,6|2,3:2|3:2,0:0:0:0:
221,53,45310,1,10,0:0:0:0:
67,0,45469,1,2,3:2:0:0:
153,0,45629,5,2,0:0:0:0:
101,155,45788,2,0,P|111:118|125:69,1,80,2|10,3:2|0:0,0:0:0:0:
311,7,46107,1,10,0:0:0:0:
311,7,46187,1,10,0:0:0:0:
311,7,46267,5,6,3:2:0:0:
221,53,46427,1,2,0:0:0:0:
286,174,46586,1,10,0:0:0:0:
376,128,46746,1,2,0:0:0:0:
299,91,46905,1,10,0:0:0:0:
370,228,47065,2,0,L|364:311,1,80,2|8,3:2|0:0,0:0:0:0:
496,360,47384,1,2,3:2:0:0:
496,360,47464,1,0,3:0:0:0:
496,360,47544,6,0,L|502:277,1,80,10|2,0:0|0:0,0:0:0:0:
376,128,47863,1,10,0:0:0:0:
370,228,48022,1,2,3:2:0:0:
501,280,48182,1,10,0:0:0:0:
507,180,48341,1,2,3:2:0:0:
507,180,48421,1,0,3:0:0:0:
507,180,48501,2,0,L|501:97,1,80,8|2,0:0|3:2,0:0:0:0:
370,228,48820,6,0,L|355:31,1,176.000005371094,6|10,3:2|0:0,0:0:0:0:
274,15,49299,1,2,0:0:0:0:
451,17,49458,1,10,3:2:0:0:
363,132,49618,2,0,L|357:49,1,80,2|8,3:2|0:0,0:0:0:0:
174,5,49937,6,0,P|182:69|189:207,1,176.000005371094,6|0,3:2|3:2,0:0:0:0:
188,360,50416,1,10,0:0:0:0:
188,180,50575,1,0,3:2:0:0:
81,324,50735,1,10,0:0:0:0:
252,270,50895,1,0,3:2:0:0:
79,213,51054,2,0,B|70:166|70:166|81:123|81:123|60:22,1,176.000005371094,10|0,0:0|3:0,0:0:0:0:
0,129,51533,5,10,0:0:0:0:
159,12,51692,2,0,L|271:21,1,80,10|0,0:0|0:0,0:0:0:0:
2,152,52012,5,10,0:0:0:0:
161,35,52171,2,0,L|273:44,1,80,10|0,0:0|3:0,0:0:0:0:
512,72,52490,6,0,L|327:57,1,155.999992858887,14|0,0:0|0:0,0:0:0:0:
335,61,52810,5,10,0:0:0:0:
495,209,52969,1,10,0:0:0:0:
9,352,53927,6,0,B|50:332|85:341|85:341|136:386|182:345,1,176.000005371094,6|10,3:2|0:0,0:0:0:0:
296,287,54405,2,0,L|316:414,1,88.000002685547,2|0,0:0|3:0,0:0:0:0:
173,351,54724,2,0,L|153:224,1,88.000002685547,2|8,3:2|0:0,0:0:0:0:
83,120,55044,6,0,P|40:111|-20:143,1,88.000002685547,6|0,3:2|0:0,0:0:0:0:
193,162,55363,2,0,P|235:171|276:157,1,88.000002685547,2|8,3:2|0:0,0:0:0:0:
116,17,55682,2,0,P|149:46|163:88,1,88.000002685547,2|0,0:0|3:2,0:0:0:0:
159,264,56001,2,0,P|126:235|113:194,1,88.000002685547,2|8,3:2|0:0,0:0:0:0:
226,22,56320,6,0,L|422:8,1,176.000005371094,6|2,3:2|3:2,0:0:0:0:
512,109,56799,2,0,L|413:116,1,88.000002685547,10|0,0:0|0:0,0:0:0:0:
262,127,57118,1,2,3:2:0:0:
347,180,57278,2,0,L|340:81,1,88.000002685547,2|10,3:2|0:0,0:0:0:0:
512,218,57597,6,0,P|441:212|401:320,1,176.000005371094,2|2,3:2|3:2,0:0:0:0:
472,288,58075,1,8,0:0:0:0:
314,298,58235,1,2,3:2:0:0:
314,298,58315,1,2,3:2:0:0:
314,298,58395,1,0,3:0:0:0:
489,291,58554,1,2,3:2:0:0:
296,297,58714,1,10,0:0:0:0:
386,208,58873,1,2,0:0:0:0:
402,383,59033,6,0,L|384:194,1,176.000005371094,6|10,3:2|0:0,0:0:0:0:
368,22,59512,2,0,P|324:30|275:14,1,88.000002685547,2|0,0:0|3:0,0:0:0:0:
428,86,59831,2,0,P|471:94|521:78,1,88.000002685547,2|8,3:2|0:0,0:0:0:0:
385,209,60150,6,0,P|327:181|214:225,1,176.000005371094,6|2,3:2|3:2,0:0:0:0:
46,263,60629,1,10,0:0:0:0:
148,384,60788,2,0,L|132:209,1,176.000005371094,2|0,3:2|3:0,0:0:0:0:
46,23,61267,1,8,0:0:0:0:
0,160,61427,1,2,0:0:0:0:
178,70,61586,6,0,B|223:70|249:33|249:33|292:12|358:33,1,176.000005371094,2|10,3:2|0:0,0:0:0:0:
511,58,62065,1,2,0:0:0:0:
511,58,62145,1,2,0:0:0:0:
511,58,62224,1,0,3:2:0:0:
400,192,62384,1,10,0:0:0:0:
400,192,62464,1,8,0:0:0:0:
400,192,62544,1,10,0:0:0:0:
427,6,62703,6,0,L|412:98,1,88.000002685547,6|0,3:2|0:0,0:0:0:0:
238,2,63022,2,0,L|223:94,1,88.000002685547,6|0,3:2|0:0,0:0:0:0:
48,3,63341,2,0,L|14:208,1,176.000005371094,6|0,3:2|3:0,0:0:0:0:
9,359,63820,1,10,0:0:0:0:
41,335,63899,1,8,0:0:0:0:
80,327,63979,1,10,0:0:0:0:
118,335,64059,1,8,0:0:0:0:
151,355,64139,6,0,B|189:384|189:384|223:323|176:241,1,176.000005371094,6|10,3:2|0:0,0:0:0:0:
19,176,64618,2,0,L|127:188,1,88.000002685547,2|0,0:0|3:0,0:0:0:0:
273,251,64937,2,0,L|165:263,1,88.000002685547,2|8,3:2|0:0,0:0:0:0:
481,384,65256,6,0,P|479:335|487:283,1,88.000002685547,6|0,3:2|0:0,0:0:0:0:
364,110,65575,2,0,P|366:153|361:197,1,88.000002685547,2|8,3:2|0:0,0:0:0:0:
361,375,65895,2,0,P|363:332|358:288,1,88.000002685547,2|0,0:0|3:2,0:0:0:0:
484,118,66214,2,0,P|482:167|490:219,1,88.000002685547,2|8,3:2|0:0,0:0:0:0:
512,37,66533,6,0,L|308:25,1,176.000005371094,6|2,3:2|3:2,0:0:0:0:
155,17,67012,2,0,L|256:23,1,88.000002685547,10|0,0:0|0:0,0:0:0:0:
336,26,67331,1,2,3:2:0:0:
280,193,67490,2,0,L|286:91,1,88.000002685547,2|10,3:2|0:0,0:0:0:0:
44,10,67810,6,0,P|51:71|50:212,1,176.000005371094,2|2,3:2|3:2,0:0:0:0:
0,297,68288,1,8,0:0:0:0:
162,240,68448,1,2,0:0:0:0:
108,349,68607,1,0,3:0:0:0:
53,186,68767,1,2,3:2:0:0:
116,364,68927,1,10,0:0:0:0:
149,336,69006,1,8,0:0:0:0:
191,325,69086,1,10,0:0:0:0:
235,336,69166,1,8,0:0:0:0:
267,363,69246,6,0,B|319:368|346:336|346:336|395:325|443:349,1,176.000005371094,6|10,3:2|0:0,0:0:0:0:
498,164,69724,2,0,L|512:271,1,88.000002685547,2|0,0:0|3:0,0:0:0:0:
433,344,70044,2,0,L|419:237,1,88.000002685547,2|8,3:2|0:0,0:0:0:0:
329,110,70363,6,0,B|381:127|419:100|419:100|400:54|439:6,1,176.000005371094,6|2,3:2|3:2,0:0:0:0:
491,70,70841,1,10,0:0:0:0:
341,36,71001,2,0,L|148:29,1,176.000005371094,2|0,3:2|3:0,0:0:0:0:
1,24,71480,1,8,0:0:0:0:
165,29,71639,1,2,0:0:0:0:
86,180,71799,6,0,P|88:102|80:-6,1,176.000005371094,2|10,3:2|0:0,0:0:0:0:
179,122,72278,2,0,P|178:161|182:215,1,88.000002685547,2|0,0:0|3:0,0:0:0:0:
5,129,72597,1,10,0:0:0:0:
5,129,72677,1,8,0:0:0:0:
5,129,72756,1,10,0:0:0:0:
0,325,72916,6,0,B|43:303|78:317|78:317|117:362|176:336,1,176.000005371094,6|10,3:2|0:0,0:0:0:0:
181,339,73315,1,8,0:0:0:0:
195,329,73395,1,10,0:0:0:0:
345,193,73554,2,0,B|301:171|266:185|266:185|228:230|168:204,1,176.000005371094,6|0,3:2|3:0,0:0:0:0:
6,131,74033,6,0,L|14:53,1,71.9999978027344,14|0,0:0|0:0,0:0:0:0:
16,42,74352,5,14,0:0:0:0:
143,21,74512,1,2,0:0:0:0:
270,0,74671,1,10,0:0:0:0:
145,38,74831,5,2,0:0:0:0:
275,16,74990,1,10,0:0:0:0:
397,0,75150,2,0,L|414:108,1,88.000002685547,2|8,3:2|0:0,0:0:0:0:
499,272,75469,6,0,P|495:226|506:169,1,88.000002685547,14|0,0:0|3:0,0:0:0:0:
410,86,75788,2,0,P|375:113|335:131,1,88.000002685547,14|0,0:0|3:0,0:0:0:0:
422,313,76107,2,0,P|459:286|514:267,1,88.000002685547,14|0,0:0|3:0,0:0:0:0:
335,131,76426,2,0,P|294:114|258:89,1,88.000002685547,14|0,0:0|3:2,0:0:0:0:
246,76,76666,1,8,3:2:0:0:
234,62,76746,1,0,3:0:0:0:
101,6,76905,5,6,3:2:0:0:
15,117,77065,1,2,0:0:0:0:
69,247,77224,1,10,0:0:0:0:
15,99,77384,5,2,0:0:0:0:
118,6,77544,1,10,0:0:0:0:
155,136,77703,2,0,L|170:232,1,88.000002685547,2|8,3:2|0:0,0:0:0:0:
25,366,78022,6,0,P|72:357|135:377,1,88.000002685547,14|0,0:0|3:0,0:0:0:0:
254,224,78341,2,0,P|207:215|144:235,1,88.000002685547,14|0,0:0|3:0,0:0:0:0:
25,366,78661,5,14,0:0:0:0:
25,366,78740,1,8,0:0:0:0:
25,366,78820,2,0,L|16:310,1,44.0000013427735,8|8,0:0|0:0,0:0:0:0:
0,129,78980,1,8,3:3:0:0:
19,146,79059,1,8,3:3:0:0:
42,159,79139,1,8,3:3:0:0:
68,164,79219,1,4,3:3:0:0:
94,163,79299,1,4,3:3:0:0:
119,155,79378,1,4,3:3:0:0:
143,140,79458,6,0,L|151:48,1,88.000002685547,14|2,0:0|3:2,0:0:0:0:
71,81,79778,1,2,3:2:0:0:
219,14,79937,1,10,0:0:0:0:
286,162,80097,1,2,3:2:0:0:
138,229,80256,2,0,L|154:337,1,88.000002685547,2|8,3:2|0:0,0:0:0:0:
309,368,80575,6,0,P|306:323|292:277,1,88.000002685547,6|8,3:2|3:2,0:0:0:0:
427,378,80895,2,0,P|430:333|444:287,1,88.000002685547,6|8,3:2|3:2,0:0:0:0:
294,281,81214,2,0,P|256:255|223:220,1,88.000002685547,6|8,3:2|3:2,0:0:0:0:
441,291,81533,2,0,P|478:265|511:230,1,88.000002685547,6|8,3:2|3:2,0:0:0:0:
371,245,81852,1,6,3:2:0:0:
503,94,82012,6,0,L|312:77,1,176.000005371094,14|0,0:0|3:0,0:0:0:0:
429,10,82490,1,8,0:0:0:0:
413,166,82650,1,0,3:0:0:0:
327,78,82810,1,2,3:2:0:0:
503,94,82969,1,10,0:0:0:0:
297,2,83129,6,0,P|249:53|302:156,1,176.000005371094,6|0,3:2|3:0,0:0:0:0:
404,260,83607,1,8,0:0:0:0:
413,166,83767,1,0,3:0:0:0:
310,251,83927,1,10,0:0:0:0:
394,354,84086,1,8,3:3:0:0:
394,354,84166,1,8,3:3:0:0:
394,354,84246,1,8,3:3:0:0:
497,269,84406,1,8,0:0:0:0:
310,251,84565,6,0,B|268:244|242:271|242:271|269:311|251:367,1,160,6|10,3:2|0:0,0:0:0:0:
91,362,85044,2,0,L|-9:352,1,80,2|0,0:0|3:0,0:0:0:0:
175,361,85363,2,0,L|275:351,1,80,0|10,3:0|0:0,0:0:0:0:
117,134,85682,6,0,L|133:322,1,160,6|0,3:2|3:2,0:0:0:0:
39,198,86161,1,10,0:0:0:0:
206,191,86320,2,0,L|306:181,1,80,2|0,0:0|3:0,0:0:0:0:
512,171,86639,2,0,L|412:181,1,80,2|10,3:2|0:0,0:0:0:0:
360,181,86958,1,2,0:0:0:0:
434,1,87118,5,4,3:2:0:0:
300,96,87278,1,2,0:0:0:0:
445,82,87437,1,10,0:0:0:0:
288,14,87597,2,0,L|200:3,1,80,2|0,0:0|3:0,0:0:0:0:
178,154,87916,2,0,L|266:165,1,80,2|8,0:0|0:0,0:0:0:0:
75,12,88235,6,0,B|65:74|65:74|74:97|74:97|56:182,1,160,6|2,3:2|3:2,0:0:0:0:
19,328,88714,1,8,0:0:0:0:
65,175,88873,1,2,0:0:0:0:
65,175,88953,1,2,0:0:0:0:
65,175,89033,1,0,3:0:0:0:
224,218,89192,1,0,3:0:0:0:
181,377,89352,1,8,0:0:0:0:
215,357,89431,1,8,0:0:0:0:
254,351,89511,1,8,3:3:0:0:
293,359,89591,1,8,3:3:0:0:
328,379,89671,6,0,B|370:388|370:388|397:321|349:257,1,176.000005371094,14|0,0:0|3:0,0:0:0:0:
511,376,90150,2,0,B|469:385|469:385|442:318|490:254,1,176.000005371094,14|0,0:0|3:0,0:0:0:0:
328,150,90629,6,0,P|405:184|498:137,1,176.000005371094,14|0,0:0|3:0,0:0:0:0:
352,262,91107,2,0,P|275:296|182:249,1,176.000005371094,14|0,0:0|3:0,0:0:0:0:
64,155,91586,1,12,3:2:0:0:
11,235,91746,1,0,3:0:0:0:
141,343,91905,1,12,3:2:0:0:
194,263,92065,1,0,3:0:0:0:
64,155,92224,6,0,B|72:119|42:82|42:82|53:27|114:19,1,160,12|10,3:2|0:0,0:0:0:0:
284,52,92703,1,0,3:0:0:0:
92,24,92863,1,0,3:0:0:0:
197,10,93022,1,8,0:0:0:0:
197,10,93102,1,8,0:0:0:0:
197,10,93182,1,8,0:0:0:0:
152,178,93341,6,0,B|202:158|244:176|244:176|285:219|358:191,1,191.999994140625,4|0,3:2|3:0,0:0:0:0:
460,144,93820,1,8,0:0:0:0:
461,160,93900,1,8,0:0:0:0:
460,176,93980,2,0,L|466:236,1,40,0|0,3:2|3:0,0:0:0:0:
512,361,94139,1,8,3:3:0:0:
493,345,94218,1,8,3:3:0:0:
471,335,94298,1,8,3:3:0:0:
448,330,94378,1,8,3:3:0:0:
424,332,94458,1,8,0:0:0:0:
401,339,94537,1,8,0:0:0:0:
381,348,94618,6,0,B|370:267|445:195|364:134|364:134|370:195|355:237|324:294|269:313|216:321|216:321|194:294|178:259|178:259|122:119|201:62|290:84|339:140|312:258|212:260|131:252|78:184|78:184|77:89|138:42|168:26|211:19|255:17|296:37|332:75,1,1440,6|0,3:2|0:0,0:0:0:0:
