osu file format v14

[General]
AudioFilename: audio.mp3
AudioLeadIn: 0
PreviewTime: 137397
Countdown: 0
SampleSet: Normal
StackLeniency: 0.7
Mode: 1
LetterboxInBreaks: 0
WidescreenStoryboard: 0

[Editor]
Bookmarks: 48844,183964,197391,210817,224244,237670,249419,274593
DistanceSpacing: 0.3
BeatDivisor: 8
GridSize: 32
TimelineZoom: 4.199999

[Metadata]
Title:Black Hole Generator
TitleUnicode:Black Hole Generator
Artist:Ouroboros
ArtistUnicode:Ouroboros
Creator:Raiden
Version:Shallow Depths
Source:
Tags:bhg technical thrash death metal english glorification of a myth opening track
BeatmapID:2524705
BeatmapSetID:1213038

[Difficulty]
HPDrainRate:4
CircleSize:2
OverallDifficulty:6.5
ApproachRate:10
SliderMultiplier:1.4
SliderTickRate:1

[Events]
//Background and Video events
0,0,"dck43a7-a3227564-70d7-409b-b40a-0844295a7513.jpg",0,0
//Break Periods
2,27102,31771
2,293715,298380
//Storyboard Layer 0 (Background)
//Storyboard Layer 1 (Fail)
//Storyboard Layer 2 (Pass)
//Storyboard Layer 3 (Foreground)
//Storyboard Layer 4 (Overlay)
//Storyboard Sound Samples

[TimingPoints]
308,428.571428571429,4,1,0,80,1,0
308,-57.1428571428571,4,1,0,80,0,0
1728,209.79020979021,4,1,0,80,1,0
3406,-125,4,1,0,80,0,0
5084,-100,4,1,0,80,0,0
6762,-125,4,1,0,80,0,0
8441,-100,4,1,0,80,0,0
9280,-100,4,1,0,80,0,0
9350,-101.694949727102,4,1,0,80,0,0
9420,-103.448240190262,4,1,0,80,0,0
9490,-105.263157894737,4,1,0,80,0,0
9560,-107.142895408177,4,1,0,80,0,0
9630,-109.090869421502,4,1,0,80,0,0
9700,-111.111111111111,4,1,0,80,0,0
9769,-113.207589889657,4,1,0,80,0,0
9839,-115.384571005934,4,1,0,80,0,0
9909,-117.647058823529,4,1,0,80,0,0
9979,-120.000048000019,4,1,0,80,0,0
10049,-122.448929612682,4,1,0,80,0,0
10119,-125,4,1,0,80,0,0
11797,-100,4,1,0,80,0,0
12637,-100,4,1,0,80,0,0
12707,-100.840302238554,4,1,0,80,0,0
12776,-101.694949727102,4,1,0,80,0,0
12846,-102.564102564103,4,1,0,80,0,0
12916,-103.448240190262,4,1,0,80,0,0
12986,-104.347862381865,4,1,0,80,0,0
13056,-105.263157894737,4,1,0,80,0,0
13126,-106.194652674459,4,1,0,80,0,0
13196,-107.142895408177,4,1,0,80,0,0
13266,-108.108108108108,4,1,0,80,0,0
13336,-109.090869421502,4,1,0,80,0,0
13406,-110.091783519921,4,1,0,80,0,0
13476,-111.111111111111,4,1,0,80,0,0
14315,-111.111111111111,4,1,0,80,0,0
14385,-112.149490785237,4,1,0,80,0,0
14455,-113.207589889657,4,1,0,80,0,0
14525,-114.285714285714,4,1,0,80,0,0
14595,-115.384571005934,4,1,0,80,0,0
14665,-116.504899613553,4,1,0,80,0,0
14734,-117.647058823529,4,1,0,80,0,0
14804,-118.811834133927,4,1,0,80,0,0
14874,-120.000048000019,4,1,0,80,0,0
14944,-121.212121212121,4,1,0,80,0,0
15014,-122.448929612682,4,1,0,80,0,0
15084,-123.711391221192,4,1,0,80,0,0
15154,419.58041958042,2,1,0,80,1,0
15154,-62.5000000000001,4,1,0,80,0,0
26902,342.857142857143,4,1,0,80,1,0
26902,-66.6666666666667,4,1,0,80,0,0
26907,342.857142857143,4,1,0,80,1,8
28278,-100,4,1,0,80,0,0
32213,-66.6666666666667,4,1,0,80,0,0
36499,-66.6666666666667,4,1,0,80,0,0
36584,-67.5105485232068,4,1,0,80,0,0
36670,-68.3760683760684,4,1,0,80,0,0
36756,-69.2640692640693,4,1,0,80,0,0
36841,-70.1754385964912,4,1,0,80,0,0
36927,-71.1111111111111,4,1,0,80,0,0
37013,-72.0720720720721,4,1,0,80,0,0
37099,-73.0593607305936,4,1,0,80,0,0
37184,-74.0740740740741,4,1,0,80,0,0
37270,-75.1173708920188,4,1,0,80,0,0
37356,-76.1904761904762,4,1,0,80,0,0
37441,-77.2946859903382,4,1,0,80,0,0
37527,-78.4313725490196,4,1,0,80,0,0
37613,-79.6019900497512,4,1,0,80,0,0
37699,-80.8080808080808,4,1,0,80,0,0
37784,-82.0512820512821,4,1,0,80,0,0
37870,-83.3333333333333,4,1,0,80,0,0
47470,-83.3333333333333,4,1,0,80,0,0
47556,-83.7696335078534,4,1,0,80,0,0
47641,-84.2105263157895,4,1,0,80,0,0
47727,-84.6560846560847,4,1,0,80,0,0
47813,-85.1063829787234,4,1,0,80,0,0
47899,-85.5614973262032,4,1,0,80,0,0
47984,-86.0215053763441,4,1,0,80,0,0
48070,-86.4864864864865,4,1,0,80,0,0
48156,-86.9565217391304,4,1,0,80,0,0
48241,-87.431693989071,4,1,0,80,0,0
48327,-87.9120879120879,4,1,0,80,0,0
48413,-88.3977900552486,4,1,0,80,0,0
48499,-88.8888888888889,4,1,0,80,0,0
48584,-89.3854748603352,4,1,0,80,0,0
48670,-89.8876404494382,4,1,0,80,0,0
48756,-90.3954802259887,4,1,0,80,0,0
72164,365.853658536585,4,1,0,80,1,0
72164,-84.7457627118644,4,1,0,80,0,0
73627,365.853658536585,4,1,0,80,1,8
73632,375,4,1,0,80,1,0
75132,379.746835443038,4,1,0,80,1,0
75132,-83.3333333333333,4,1,0,80,0,0
76081,-83.3333333333333,4,1,0,80,0,0
76144,-84.9056443574256,4,1,0,80,0,0
76207,-86.5384282544507,4,1,0,80,0,0
76271,-88.2353200692118,4,1,0,80,0,0
76366,-90.9090909090909,4,1,0,80,0,0
76461,-93.7499707031342,4,1,0,80,0,0
76556,-96.774224765879,4,1,0,80,0,0
76650,370.37037037037,4,1,0,80,1,0
76650,-102.53164556962,4,1,0,80,0,0
78131,379.746835443038,4,1,0,80,1,0
78131,-83.3333333333333,4,1,0,80,0,0
79080,-83.3333333333333,4,1,0,80,0,0
79143,-84.9056443574256,4,1,0,80,0,0
79206,-86.5384282544507,4,1,0,80,0,0
79270,-88.2353200692118,4,1,0,80,0,0
79365,-90.9090909090909,4,1,0,80,0,0
79460,-93.7499707031342,4,1,0,80,0,0
79555,-96.774224765879,4,1,0,80,0,0
79649,370.37037037037,4,1,0,80,1,0
79649,-102.53164556962,4,1,0,80,0,0
81130,384.615384615385,4,1,0,80,1,0
81130,-83.3333333333333,4,1,0,80,0,0
82091,-83.3333333333333,4,1,0,80,0,0
82155,-84.883734748515,4,1,0,80,0,0
82219,-86.4929196895942,4,1,0,80,0,0
82283,-88.1642181993869,4,1,0,80,0,0
82380,-90.7960086074616,4,1,0,80,0,0
82476,-93.589756788299,4,1,0,80,0,0
82572,-96.1538461538461,4,1,0,80,0,0
82668,370.37037037037,4,1,0,80,1,0
82668,-99.7267487085386,4,1,0,80,0,0
84149,400,4,1,0,50,1,0
85249,-200,4,1,0,50,0,0
85449,-80,4,1,0,80,0,0
100149,-71.4285714285714,4,1,0,80,0,1
112949,-68.9655172413793,4,1,0,80,0,1
114549,-62.5,4,1,0,80,0,0
116149,-80,4,1,0,80,0,0
133749,487.80487804878,2,1,0,80,1,0
133749,-55.5555555555556,2,1,0,80,0,0
136675,-55.5555555555556,2,1,0,80,0,0
136757,-56.0693690233557,2,1,0,80,0,0
136838,-56.5927753662967,2,1,0,80,0,0
136919,-57.1260457636753,2,1,0,80,0,0
137001,-57.6694284555954,2,1,0,80,0,0
137082,-58.2232816271777,2,1,0,80,0,0
137163,-58.7878762938477,2,1,0,80,0,0
137244,-59.3635279982143,2,1,0,80,0,0
137326,-59.9505647642954,2,1,0,80,0,0
137407,-60.5493277208143,2,1,0,80,0,0
137488,-61.1601343565832,2,1,0,80,0,0
137570,-61.7834280782203,2,1,0,80,0,0
137651,-62.4195567961789,2,1,0,80,0,0
154175,-40,2,1,0,80,0,0
155273,-58.8235294117647,2,1,0,80,0,0
156127,-40,2,1,0,80,0,0
157224,-62.5,2,1,0,80,0,0
158078,-40,2,1,0,80,0,0
159175,-62.5,2,1,0,80,0,0
161980,-40,2,1,0,80,0,0
163077,-62.5,2,1,0,80,0,0
163931,-40,2,1,0,80,0,0
165028,-62.5,2,1,0,80,0,0
165883,-40,2,1,0,80,0,0
166980,-62.5,2,1,0,80,0,0
168870,419.58041958042,4,1,0,50,1,0
168870,-76.9230769230769,4,1,0,50,0,0
169709,-100,4,1,0,50,0,0
170548,419.58041958042,2,1,0,80,1,0
170548,-66.6666666666667,2,1,0,80,0,0
183974,-62.5,2,1,0,80,0,0
196561,-62.5,2,1,0,80,0,0
196631,-63.1510478337612,2,1,0,80,0,0
196701,-63.8158020689083,2,1,0,80,0,0
196771,-64.4947001480153,2,1,0,80,0,0
196841,-65.1881558335903,2,1,0,80,0,0
196911,-65.8967292817388,2,1,0,80,0,0
196981,-66.6208759179524,2,1,0,80,0,0
197051,-67.3611148533953,2,1,0,80,0,0
197121,-68.1179885302931,2,1,0,80,0,0
197191,-68.8920640475741,2,1,0,80,0,0
197261,-69.6838860194613,2,1,0,80,0,0
197331,-70.4941711894552,2,1,0,80,0,0
197401,-71.4285714285714,2,1,0,80,0,0
210827,-62.5,2,1,0,80,0,0
224254,-66.6666666666667,2,1,0,80,0,0
237680,-62.5,2,1,0,80,0,0
248589,-62.5,2,1,0,80,0,0
248659,-62.8238175144008,2,1,0,80,0,0
248729,-63.1510478337612,2,1,0,80,0,0
248799,-63.4816645908162,2,1,0,80,0,0
248869,-63.8158020689083,2,1,0,80,0,0
248939,-64.1534344861919,2,1,0,80,0,0
249009,-64.4947001480153,2,1,0,80,0,0
249079,-64.8395739261918,2,1,0,80,0,0
249149,-65.1881558335903,2,1,0,80,0,0
249219,-65.5405489545299,2,1,0,80,0,0
249289,-65.8967292817388,2,1,0,80,0,0
249359,-66.2568459886118,2,1,0,80,0,0
249429,-66.6666666666667,2,1,0,80,0,0
260757,-66.6666666666667,2,1,0,80,0,0
260862,-68.9170376700528,2,1,0,80,0,0
260967,-71.3245903650464,2,1,0,80,0,0
261072,-73.9064979332048,2,1,0,80,0,0
261177,419.58041958042,4,1,0,80,1,0
261177,-76.6822945182895,2,1,0,80,0,0
273764,-76.9230769230769,2,1,0,80,0,0
273869,-77.6699029126214,2,1,0,80,0,0
273974,-78.4313725490196,2,1,0,80,0,0
274079,-79.2079207920792,2,1,0,80,0,0
274183,-80,2,1,0,80,0,0
274288,-80.8080808080808,2,1,0,80,0,0
274393,-81.6326530612245,2,1,0,80,0,0
274498,-82.4742268041237,2,1,0,80,0,0
274603,-83.3333333333333,2,1,0,80,0,0
288030,342.857142857143,4,1,0,80,1,0
288115,-62.5,4,1,0,80,0,0
298830,-66.6666666666667,4,1,0,80,0,0
303115,-66.6666666666667,4,1,0,80,0,0
303201,-67.5061278687573,4,1,0,80,0,0
303287,-68.3669995227984,4,1,0,80,0,0
303372,-69.250111319554,4,1,0,80,0,0
303458,-70.1562871609083,4,1,0,80,0,0
303544,-71.0865436016424,4,1,0,80,0,0
303630,-72.0418015349226,4,1,0,80,0,0
303715,-73.0230825964087,4,1,0,80,0,0
303801,-74.0314648531919,4,1,0,80,0,0
303887,-75.0680867546865,4,1,0,80,0,0
303972,-76.1340934561224,4,1,0,80,0,0
304058,-77.2308716507867,4,1,0,80,0,0
304144,-78.3597118243238,4,1,0,80,0,0
304230,-79.5220407264179,4,1,0,80,0,0
304315,-80.7193710346609,4,1,0,80,0,0
304401,-81.9533079223443,4,1,0,80,0,0
304487,-83.2255562380051,4,1,0,80,0,0
316830,368.098159509202,4,1,0,80,1,0
316830,-76.9230769230769,4,1,0,80,0,0
318302,375,4,1,0,80,1,0
319802,379.746835443038,4,1,0,80,1,0
319802,-83.3333333333333,4,1,0,80,0,0
320751,-83.3333333333333,4,1,0,80,0,0
320814,-84.9056443574256,4,1,0,80,0,0
320877,-86.5384282544507,4,1,0,80,0,0
320941,-88.2353200692118,4,1,0,80,0,0
321036,-90.9090909090909,4,1,0,80,0,0
321131,-93.7499707031342,4,1,0,80,0,0
321226,-96.774224765879,4,1,0,80,0,0
321320,370.37037037037,4,1,0,80,1,0
321320,-102.53164556962,4,1,0,80,0,0
322801,384.615384615385,4,1,0,80,1,0
322801,-83.3333333333333,4,1,0,80,0,0
323762,-83.3333333333333,4,1,0,80,0,0
323826,-84.883734748515,4,1,0,80,0,0
323890,-86.4929196895942,4,1,0,80,0,0
323954,-88.1642181993869,4,1,0,80,0,0
324051,-90.7960086074616,4,1,0,80,0,0
324147,-93.589756788299,4,1,0,80,0,0
324243,-96.5608874331799,4,1,0,80,0,0
324339,370.37037037037,4,1,0,80,1,0
324339,-99.7267487085386,4,1,0,80,0,0
325820,379.746835443038,4,1,0,80,1,0
325820,-83.3333333333333,4,1,0,80,0,0
326769,-83.3333333333333,4,1,0,80,0,0
326832,-84.9056443574256,4,1,0,80,0,0
326895,-86.5384282544507,4,1,0,80,0,0
326959,-88.2353200692118,4,1,0,80,0,0
327054,-90.9090909090909,4,1,0,80,0,0
327149,-93.7499707031342,4,1,0,80,0,0
327244,-96.774224765879,4,1,0,80,0,0
327338,370.37037037037,4,1,0,80,1,0
327338,-102.53164556962,4,1,0,80,0,0
328819,400,4,1,0,80,1,0
329919,-200,4,1,0,50,0,0
330119,-80,4,1,0,80,0,0
344819,-71.4285714285714,4,1,0,80,0,1
370019,-71.4285714285714,4,1,0,80,0,1
370119,-70.2005630085153,4,1,0,80,0,1
370219,-69.0140650664605,4,1,0,80,0,1
370319,-67.8670538708314,4,1,0,80,0,1
370419,-66.6666666666667,4,1,0,80,0,1
372019,409.090909090909,4,1,0,80,1,0
372019,-62.5,4,1,0,80,0,0
373246,-55.5555555555556,4,1,0,80,0,0

[HitObjects]
256,192,308,5,8,0:0:0:0:
256,192,379,5,8,0:0:0:0:
256,192,450,5,0,0:0:0:0:
256,192,593,5,0,0:0:0:0:
256,192,665,5,8,0:0:0:0:
256,192,736,5,8,0:0:0:0:
256,192,808,5,8,0:0:0:0:
256,192,879,5,0,0:0:0:0:
256,192,950,5,0,0:0:0:0:
256,192,1022,5,0,0:0:0:0:
256,192,1093,5,0,0:0:0:0:
256,192,1165,5,0,0:0:0:0:
256,192,1236,5,0,0:0:0:0:
256,192,1308,5,8,0:0:0:0:
256,192,1343,5,8,0:0:0:0:
256,192,1728,5,0,0:0:0:0:
256,192,1832,5,8,0:0:0:0:
256,192,1937,5,0,0:0:0:0:
256,192,2042,5,8,0:0:0:0:
256,192,2147,5,0,0:0:0:0:
256,192,2200,5,0,0:0:0:0:
256,192,2252,5,8,0:0:0:0:
256,192,2357,5,0,0:0:0:0:
256,192,2462,5,0,0:0:0:0:
256,192,2567,5,8,0:0:0:0:
256,192,2672,5,0,0:0:0:0:
256,192,2776,1,0,0:0:0:0:
256,192,2829,1,0,0:0:0:0:
256,192,2881,5,8,0:0:0:0:
256,192,2986,5,0,0:0:0:0:
256,192,3039,5,0,0:0:0:0:
256,192,3091,5,0,0:0:0:0:
256,192,3144,5,0,0:0:0:0:
256,192,3196,5,8,0:0:0:0:
256,192,3406,5,8,0:0:0:0:
256,192,3476,5,0,0:0:0:0:
256,192,3546,5,0,0:0:0:0:
256,192,3616,5,8,0:0:0:0:
256,192,3686,5,0,0:0:0:0:
256,192,3755,5,0,0:0:0:0:
256,192,3825,5,8,0:0:0:0:
256,192,3895,5,8,0:0:0:0:
256,192,3965,5,8,0:0:0:0:
256,192,4035,5,0,0:0:0:0:
256,192,4105,5,0,0:0:0:0:
256,192,4175,5,0,0:0:0:0:
256,192,4245,5,8,0:0:0:0:
256,192,4315,5,0,0:0:0:0:
256,192,4385,5,0,0:0:0:0:
256,192,4455,5,8,0:0:0:0:
256,192,4525,5,0,0:0:0:0:
256,192,4595,5,0,0:0:0:0:
256,192,4665,5,8,0:0:0:0:
256,192,4734,5,8,0:0:0:0:
256,192,4804,5,8,0:0:0:0:
256,192,4874,5,8,0:0:0:0:
256,192,4944,5,8,0:0:0:0:
256,192,5014,5,8,0:0:0:0:
256,192,5084,5,0,0:0:0:0:
256,192,5189,5,8,0:0:0:0:
256,192,5294,5,0,0:0:0:0:
256,192,5399,5,8,0:0:0:0:
256,192,5504,5,0,0:0:0:0:
256,192,5556,5,0,0:0:0:0:
256,192,5609,5,8,0:0:0:0:
256,192,5714,5,0,0:0:0:0:
256,192,5818,5,8,0:0:0:0:
256,192,5923,5,8,0:0:0:0:
256,192,6028,5,0,0:0:0:0:
256,192,6133,5,8,0:0:0:0:
256,192,6186,5,0,0:0:0:0:
256,192,6238,5,8,0:0:0:0:
256,192,6343,5,0,0:0:0:0:
256,192,6395,5,0,0:0:0:0:
256,192,6448,5,0,0:0:0:0:
256,192,6500,5,0,0:0:0:0:
256,192,6553,5,8,0:0:0:0:
256,192,6762,5,8,0:0:0:0:
256,192,6832,5,8,0:0:0:0:
256,192,6902,5,0,0:0:0:0:
256,192,6972,5,8,0:0:0:0:
256,192,7042,5,0,0:0:0:0:
256,192,7112,5,0,0:0:0:0:
256,192,7182,5,8,0:0:0:0:
256,192,7252,5,8,0:0:0:0:
256,192,7322,5,8,0:0:0:0:
256,192,7392,5,0,0:0:0:0:
256,192,7462,5,0,0:0:0:0:
256,192,7532,5,0,0:0:0:0:
256,192,7602,5,8,0:0:0:0:
256,192,7672,1,8,0:0:0:0:
256,192,7741,1,0,0:0:0:0:
256,192,7811,1,8,0:0:0:0:
256,192,7881,1,0,0:0:0:0:
256,192,7951,1,0,0:0:0:0:
256,192,8021,1,8,0:0:0:0:
256,192,8091,1,8,0:0:0:0:
256,192,8161,1,8,0:0:0:0:
256,192,8231,1,0,0:0:0:0:
256,192,8301,1,0,0:0:0:0:
256,192,8371,1,0,0:0:0:0:
256,192,8441,1,8,0:0:0:0:
256,192,8511,5,0,0:0:0:0:
256,192,8581,5,0,0:0:0:0:
256,192,8651,5,8,0:0:0:0:
256,192,8721,5,0,0:0:0:0:
256,192,8790,5,0,0:0:0:0:
256,192,8860,5,8,0:0:0:0:
256,192,8930,5,8,0:0:0:0:
256,192,9000,5,0,0:0:0:0:
256,192,9070,5,8,0:0:0:0:
256,192,9140,5,8,0:0:0:0:
256,192,9210,5,0,0:0:0:0:
256,192,9280,5,8,0:0:0:0:
256,192,9350,1,0,0:0:0:0:
256,192,9420,1,0,0:0:0:0:
256,192,9490,1,8,0:0:0:0:
256,192,9560,1,0,0:0:0:0:
256,192,9630,1,0,0:0:0:0:
256,192,9700,1,8,0:0:0:0:
256,192,9769,1,8,0:0:0:0:
256,192,9839,1,0,0:0:0:0:
256,192,9909,1,8,0:0:0:0:
256,192,9979,1,8,0:0:0:0:
256,192,10049,1,0,0:0:0:0:
256,192,10119,1,8,0:0:0:0:
256,192,10189,5,8,0:0:0:0:
256,192,10259,5,8,0:0:0:0:
256,192,10329,5,0,0:0:0:0:
256,192,10399,5,0,0:0:0:0:
256,192,10469,5,0,0:0:0:0:
256,192,10539,5,8,0:0:0:0:
256,192,10609,5,8,0:0:0:0:
256,192,10679,5,8,0:0:0:0:
256,192,10748,5,0,0:0:0:0:
256,192,10818,5,0,0:0:0:0:
256,192,10888,5,0,0:0:0:0:
256,192,10958,5,8,0:0:0:0:
256,192,11028,5,8,0:0:0:0:
256,192,11098,5,0,0:0:0:0:
256,192,11168,5,8,0:0:0:0:
256,192,11238,5,0,0:0:0:0:
256,192,11308,5,0,0:0:0:0:
256,192,11378,5,8,0:0:0:0:
256,192,11448,5,8,0:0:0:0:
256,192,11518,5,0,0:0:0:0:
256,192,11588,5,8,0:0:0:0:
256,192,11658,5,0,0:0:0:0:
256,192,11728,5,0,0:0:0:0:
256,192,11797,5,8,0:0:0:0:
256,192,11867,5,0,0:0:0:0:
256,192,11937,5,0,0:0:0:0:
256,192,12007,5,8,0:0:0:0:
256,192,12077,5,0,0:0:0:0:
256,192,12147,5,0,0:0:0:0:
256,192,12217,5,8,0:0:0:0:
256,192,12287,5,8,0:0:0:0:
256,192,12357,5,0,0:0:0:0:
256,192,12427,5,8,0:0:0:0:
256,192,12497,5,8,0:0:0:0:
256,192,12567,5,0,0:0:0:0:
256,192,12637,5,8,0:0:0:0:
256,192,12707,1,0,0:0:0:0:
256,192,12776,1,0,0:0:0:0:
256,192,12846,1,8,0:0:0:0:
256,192,12916,1,0,0:0:0:0:
256,192,12986,1,0,0:0:0:0:
256,192,13056,1,8,0:0:0:0:
256,192,13126,1,8,0:0:0:0:
256,192,13196,1,0,0:0:0:0:
256,192,13266,1,8,0:0:0:0:
256,192,13336,1,8,0:0:0:0:
256,192,13406,1,0,0:0:0:0:
256,192,13476,1,8,0:0:0:0:
256,192,13546,5,0,0:0:0:0:
256,192,13616,5,8,0:0:0:0:
256,192,13686,5,8,0:0:0:0:
256,192,13755,5,0,0:0:0:0:
256,192,13825,5,0,0:0:0:0:
256,192,13895,5,8,0:0:0:0:
256,192,13965,5,8,0:0:0:0:
256,192,14035,5,8,0:0:0:0:
256,192,14105,5,8,0:0:0:0:
256,192,14175,5,0,0:0:0:0:
256,192,14245,5,0,0:0:0:0:
256,192,14315,5,8,0:0:0:0:
256,192,14385,1,8,0:0:0:0:
256,192,14455,1,0,0:0:0:0:
256,192,14525,1,0,0:0:0:0:
256,192,14595,1,0,0:0:0:0:
256,192,14665,1,0,0:0:0:0:
256,192,14734,1,8,0:0:0:0:
256,192,14804,1,8,0:0:0:0:
256,192,14874,1,8,0:0:0:0:
256,192,14944,1,0,0:0:0:0:
256,192,15014,1,8,0:0:0:0:
256,192,15084,1,8,0:0:0:0:
256,192,15154,1,0,0:0:0:0:
256,192,15293,5,0,0:0:0:0:
256,192,15363,5,0,0:0:0:0:
256,192,15433,5,8,0:0:0:0:
256,192,15503,5,0,0:0:0:0:
256,192,15573,5,8,0:0:0:0:
256,192,15713,5,8,0:0:0:0:
256,192,15783,5,0,0:0:0:0:
256,192,15853,5,8,0:0:0:0:
256,192,15923,5,8,0:0:0:0:
256,192,15993,5,0,0:0:0:0:
256,192,16133,5,0,0:0:0:0:
256,192,16202,5,0,0:0:0:0:
256,192,16272,5,0,0:0:0:0:
256,192,16342,5,0,0:0:0:0:
256,192,16412,5,8,0:0:0:0:
256,192,16552,5,0,0:0:0:0:
256,192,16692,5,0,0:0:0:0:
256,192,16832,5,8,0:0:0:0:
256,192,16902,5,0,0:0:0:0:
256,192,16972,5,0,0:0:0:0:
256,192,17042,5,0,0:0:0:0:
256,192,17112,5,0,0:0:0:0:
256,192,17181,5,0,0:0:0:0:
256,192,17251,5,8,0:0:0:0:
256,192,17391,5,0,0:0:0:0:
256,192,17531,5,8,0:0:0:0:
256,192,17671,5,0,0:0:0:0:
256,192,17741,5,8,0:0:0:0:
256,192,17811,5,0,0:0:0:0:
256,192,17951,5,0,0:0:0:0:
256,192,18091,5,8,0:0:0:0:
256,192,18230,5,8,0:0:0:0:
256,192,18370,5,0,0:0:0:0:
256,192,18510,5,8,0:0:0:0:
256,192,18580,5,8,0:0:0:0:
256,192,18650,5,8,0:0:0:0:
256,192,18720,5,0,0:0:0:0:
256,192,18790,5,0,0:0:0:0:
256,192,18860,5,0,0:0:0:0:
256,192,18930,5,8,0:0:0:0:
256,192,19070,5,0,0:0:0:0:
256,192,19209,5,0,0:0:0:0:
256,192,19349,5,8,0:0:0:0:
256,192,19489,5,0,0:0:0:0:
256,192,19559,5,0,0:0:0:0:
256,192,19629,5,0,0:0:0:0:
256,192,19769,5,8,0:0:0:0:
256,192,19909,5,8,0:0:0:0:
256,192,20049,5,0,0:0:0:0:
256,192,20188,5,8,0:0:0:0:
256,192,20258,5,8,0:0:0:0:
256,192,20328,5,0,0:0:0:0:
256,192,20398,5,0,0:0:0:0:
256,192,20468,5,0,0:0:0:0:
256,192,20538,5,0,0:0:0:0:
256,192,20608,5,8,0:0:0:0:
256,192,20678,5,0,0:0:0:0:
256,192,20748,5,0,0:0:0:0:
256,192,20818,5,0,0:0:0:0:
256,192,20888,5,0,0:0:0:0:
256,192,20958,5,0,0:0:0:0:
256,192,21028,5,8,0:0:0:0:
256,192,21098,5,8,0:0:0:0:
256,192,21167,5,8,0:0:0:0:
256,192,21237,5,0,0:0:0:0:
256,192,21307,5,0,0:0:0:0:
256,192,21377,5,0,0:0:0:0:
256,192,21447,5,8,0:0:0:0:
256,192,21517,5,8,0:0:0:0:
256,192,21587,5,0,0:0:0:0:
256,192,21657,5,0,0:0:0:0:
256,192,21727,5,0,0:0:0:0:
256,192,21797,5,0,0:0:0:0:
256,192,21867,5,8,0:0:0:0:
256,192,21937,5,0,0:0:0:0:
256,192,22007,5,8,0:0:0:0:
256,192,22077,5,8,0:0:0:0:
256,192,22147,5,0,0:0:0:0:
256,192,22216,5,0,0:0:0:0:
256,192,22286,5,8,0:0:0:0:
256,192,22356,5,0,0:0:0:0:
256,192,22426,5,8,0:0:0:0:
256,192,22496,5,8,0:0:0:0:
256,192,22566,5,8,0:0:0:0:
256,192,22636,5,0,0:0:0:0:
256,192,22706,5,8,0:0:0:0:
256,192,22776,5,8,0:0:0:0:
256,192,22846,5,0,0:0:0:0:
256,192,22916,5,8,0:0:0:0:
256,192,22986,5,0,0:0:0:0:
256,192,23056,5,0,0:0:0:0:
256,192,23126,5,8,0:0:0:0:
256,192,23195,5,8,0:0:0:0:
256,192,23265,5,0,0:0:0:0:
256,192,23335,5,8,0:0:0:0:
256,192,23405,5,0,0:0:0:0:
256,192,23475,5,0,0:0:0:0:
256,192,23545,5,8,0:0:0:0:
256,192,23615,5,8,0:0:0:0:
256,192,23685,5,8,0:0:0:0:
256,192,23755,5,8,0:0:0:0:
256,192,23825,5,0,0:0:0:0:
256,192,23895,5,0,0:0:0:0:
256,192,23965,5,8,0:0:0:0:
256,192,24035,5,0,0:0:0:0:
256,192,24105,5,0,0:0:0:0:
256,192,24174,5,0,0:0:0:0:
256,192,24244,5,0,0:0:0:0:
256,192,24314,5,0,0:0:0:0:
256,192,24384,5,8,0:0:0:0:
256,192,24454,5,8,0:0:0:0:
256,192,24524,5,8,0:0:0:0:
256,192,24594,5,0,0:0:0:0:
256,192,24664,5,0,0:0:0:0:
256,192,24734,5,0,0:0:0:0:
256,192,24804,5,8,0:0:0:0:
256,192,24874,5,8,0:0:0:0:
256,192,24944,5,0,0:0:0:0:
256,192,25014,5,0,0:0:0:0:
256,192,25084,5,0,0:0:0:0:
256,192,25154,5,0,0:0:0:0:
256,192,25223,5,8,0:0:0:0:
256,192,25293,5,8,0:0:0:0:
256,192,25363,5,0,0:0:0:0:
256,192,25433,5,0,0:0:0:0:
256,192,25503,5,0,0:0:0:0:
256,192,25573,5,0,0:0:0:0:
256,192,25643,5,8,0:0:0:0:
256,192,25713,5,8,0:0:0:0:
256,192,25783,5,8,0:0:0:0:
256,192,25853,5,0,0:0:0:0:
256,192,25923,5,0,0:0:0:0:
256,192,25993,5,0,0:0:0:0:
256,192,26063,5,8,0:0:0:0:
256,192,26133,5,8,0:0:0:0:
256,192,26202,5,0,0:0:0:0:
256,192,26272,5,0,0:0:0:0:
256,192,26342,5,0,0:0:0:0:
256,192,26412,5,0,0:0:0:0:
256,192,26482,5,8,0:0:0:0:
256,192,26552,5,0,0:0:0:0:
256,192,26622,5,8,0:0:0:0:
256,192,26692,5,0,0:0:0:0:
256,192,26762,5,8,0:0:0:0:
256,192,26832,5,0,0:0:0:0:
256,192,26902,5,12,0:0:0:0:
256,192,32221,5,0,0:0:0:0:
256,192,32278,5,0,0:0:0:0:
256,192,32335,5,0,0:0:0:0:
256,192,32392,5,8,0:0:0:0:
256,192,32735,5,0,0:0:0:0:
256,192,32792,5,0,0:0:0:0:
256,192,32849,5,0,0:0:0:0:
256,192,32907,5,8,0:0:0:0:
256,192,33078,5,0,0:0:0:0:
256,192,33164,5,0,0:0:0:0:
256,192,33249,5,0,0:0:0:0:
256,192,33335,5,0,0:0:0:0:
256,192,33421,5,12,0:0:0:0:
256,192,33592,5,8,0:0:0:0:
256,192,33678,5,8,0:0:0:0:
256,192,33764,5,0,0:0:0:0:
256,192,33849,5,0,0:0:0:0:
256,192,33935,5,12,0:0:0:0:
256,192,34107,5,8,0:0:0:0:
256,192,34164,5,8,0:0:0:0:
256,192,34221,5,8,0:0:0:0:
256,192,34278,5,0,0:0:0:0:
256,192,34335,5,0,0:0:0:0:
256,192,34392,5,0,0:0:0:0:
256,192,34449,5,8,0:0:0:0:
256,192,34564,5,0,0:0:0:0:
256,192,34621,5,0,0:0:0:0:
256,192,34678,5,0,0:0:0:0:
256,192,34735,5,0,0:0:0:0:
256,192,34792,5,8,0:0:0:0:
256,192,35135,5,8,0:0:0:0:
256,192,35221,5,0,0:0:0:0:
256,192,35307,5,0,0:0:0:0:
256,192,35392,5,0,0:0:0:0:
256,192,35478,5,0,0:0:0:0:
256,192,35564,5,0,0:0:0:0:
256,192,35649,5,8,0:0:0:0:
256,192,35735,5,8,0:0:0:0:
256,192,35821,5,0,0:0:0:0:
256,192,35907,5,0,0:0:0:0:
256,192,35992,5,0,0:0:0:0:
256,192,36078,5,0,0:0:0:0:
256,192,36164,5,8,0:0:0:0:
256,192,36249,5,0,0:0:0:0:
256,192,36335,5,0,0:0:0:0:
256,192,36421,5,0,0:0:0:0:
256,192,36507,5,8,0:0:0:0:
256,192,36592,1,0,0:0:0:0:
256,192,36678,1,8,0:0:0:0:
256,192,36764,1,8,0:0:0:0:
256,192,36849,1,0,0:0:0:0:
256,192,36935,1,0,0:0:0:0:
256,192,37021,1,0,0:0:0:0:
256,192,37107,1,0,0:0:0:0:
256,192,37192,1,8,0:0:0:0:
256,192,37278,1,0,0:0:0:0:
256,192,37364,1,8,0:0:0:0:
256,192,37449,1,0,0:0:0:0:
256,192,37535,1,8,0:0:0:0:
256,192,37621,1,8,0:0:0:0:
256,192,37707,1,8,0:0:0:0:
256,192,37792,1,8,0:0:0:0:
256,192,37878,1,0,0:0:0:0:
256,192,37964,5,0,0:0:0:0:
256,192,38049,5,0,0:0:0:0:
256,192,38135,5,0,0:0:0:0:
256,192,38221,5,8,0:0:0:0:
256,192,38307,5,0,0:0:0:0:
256,192,38392,5,8,0:0:0:0:
256,192,38478,5,8,0:0:0:0:
256,192,38564,5,0,0:0:0:0:
256,192,38649,5,0,0:0:0:0:
256,192,38735,5,0,0:0:0:0:
256,192,38821,5,0,0:0:0:0:
256,192,38907,5,8,0:0:0:0:
256,192,38992,5,8,0:0:0:0:
256,192,39078,5,8,0:0:0:0:
256,192,39164,5,0,0:0:0:0:
256,192,39249,5,0,0:0:0:0:
256,192,39335,5,0,0:0:0:0:
256,192,39421,5,8,0:0:0:0:
256,192,39507,5,0,0:0:0:0:
256,192,39592,5,8,0:0:0:0:
256,192,39678,5,8,0:0:0:0:
256,192,39764,5,0,0:0:0:0:
256,192,39849,5,0,0:0:0:0:
256,192,39935,5,8,0:0:0:0:
256,192,40021,5,0,0:0:0:0:
256,192,40107,5,0,0:0:0:0:
256,192,40192,5,0,0:0:0:0:
256,192,40278,5,8,0:0:0:0:
256,192,40364,5,8,0:0:0:0:
256,192,40449,5,8,0:0:0:0:
256,192,40535,5,0,0:0:0:0:
256,192,40621,5,8,0:0:0:0:
256,192,40707,5,0,0:0:0:0:
256,192,40792,5,0,0:0:0:0:
256,192,40878,5,0,0:0:0:0:
256,192,40964,5,8,0:0:0:0:
256,192,41049,5,0,0:0:0:0:
256,192,41135,5,8,0:0:0:0:
256,192,41221,5,8,0:0:0:0:
256,192,41307,5,0,0:0:0:0:
256,192,41392,5,0,0:0:0:0:
256,192,41478,5,0,0:0:0:0:
256,192,41564,5,0,0:0:0:0:
256,192,41649,5,8,0:0:0:0:
256,192,41735,5,8,0:0:0:0:
256,192,41821,5,0,0:0:0:0:
256,192,41907,5,0,0:0:0:0:
256,192,41992,5,0,0:0:0:0:
256,192,42078,5,0,0:0:0:0:
256,192,42164,5,8,0:0:0:0:
256,192,42249,5,0,0:0:0:0:
256,192,42335,5,8,0:0:0:0:
256,192,42421,5,8,0:0:0:0:
256,192,42507,5,0,0:0:0:0:
256,192,42592,5,0,0:0:0:0:
256,192,42678,5,8,0:0:0:0:
256,192,42764,5,8,0:0:0:0:
256,192,42849,5,8,0:0:0:0:
256,192,42935,5,8,0:0:0:0:
256,192,43021,5,8,0:0:0:0:
256,192,43107,5,8,0:0:0:0:
256,192,43192,5,8,0:0:0:0:
256,192,43278,5,8,0:0:0:0:
256,192,43364,5,0,0:0:0:0:
256,192,43449,5,0,0:0:0:0:
256,192,43535,5,0,0:0:0:0:
256,192,43621,5,0,0:0:0:0:
256,192,43707,5,8,0:0:0:0:
256,192,43792,5,0,0:0:0:0:
256,192,43878,5,8,0:0:0:0:
256,192,43964,5,8,0:0:0:0:
256,192,44049,5,0,0:0:0:0:
256,192,44135,5,0,0:0:0:0:
256,192,44221,5,0,0:0:0:0:
256,192,44307,5,0,0:0:0:0:
256,192,44392,5,8,0:0:0:0:
256,192,44478,5,8,0:0:0:0:
256,192,44564,5,8,0:0:0:0:
256,192,44649,5,0,0:0:0:0:
256,192,44735,5,0,0:0:0:0:
256,192,44821,5,0,0:0:0:0:
256,192,44907,5,8,0:0:0:0:
256,192,44992,5,0,0:0:0:0:
256,192,45078,5,8,0:0:0:0:
256,192,45164,5,8,0:0:0:0:
256,192,45249,5,0,0:0:0:0:
256,192,45335,5,0,0:0:0:0:
256,192,45421,5,8,0:0:0:0:
256,192,45507,5,8,0:0:0:0:
256,192,45592,5,8,0:0:0:0:
256,192,45678,5,0,0:0:0:0:
256,192,45764,5,8,0:0:0:0:
256,192,45849,5,0,0:0:0:0:
256,192,45935,5,0,0:0:0:0:
256,192,46021,5,0,0:0:0:0:
256,192,46107,5,8,0:0:0:0:
256,192,46192,5,8,0:0:0:0:
256,192,46278,5,0,0:0:0:0:
256,192,46364,5,0,0:0:0:0:
256,192,46449,5,8,0:0:0:0:
256,192,46535,5,0,0:0:0:0:
256,192,46621,5,8,0:0:0:0:
256,192,46707,5,8,0:0:0:0:
256,192,46792,5,0,0:0:0:0:
256,192,46878,5,0,0:0:0:0:
256,192,46964,5,0,0:0:0:0:
256,192,47049,5,0,0:0:0:0:
256,192,47135,5,8,0:0:0:0:
256,192,47221,5,8,0:0:0:0:
256,192,47307,5,0,0:0:0:0:
256,192,47392,5,0,0:0:0:0:
256,192,47478,5,0,0:0:0:0:
256,192,47564,1,0,0:0:0:0:
256,192,47649,1,8,0:0:0:0:
256,192,47735,1,8,0:0:0:0:
256,192,47821,1,8,0:0:0:0:
256,192,47907,1,0,0:0:0:0:
256,192,47992,1,0,0:0:0:0:
256,192,48078,1,0,0:0:0:0:
256,192,48164,1,8,0:0:0:0:
256,192,48249,1,8,0:0:0:0:
256,192,48335,1,8,0:0:0:0:
256,192,48421,1,8,0:0:0:0:
256,192,48507,1,0,0:0:0:0:
256,192,48592,1,0,0:0:0:0:
256,192,48678,1,0,0:0:0:0:
256,192,48764,1,0,0:0:0:0:
256,192,48849,1,8,0:0:0:0:
256,192,48935,5,0,0:0:0:0:
256,192,49021,5,0,0:0:0:0:
256,192,49107,5,0,0:0:0:0:
256,192,49192,5,8,0:0:0:0:
256,192,49278,5,0,0:0:0:0:
256,192,49364,5,8,0:0:0:0:
256,192,49449,5,0,0:0:0:0:
256,192,49535,5,8,0:0:0:0:
256,192,49621,5,8,0:0:0:0:
256,192,49707,5,0,0:0:0:0:
256,192,49792,5,0,0:0:0:0:
256,192,49878,5,8,0:0:0:0:
256,192,49964,5,0,0:0:0:0:
256,192,50049,5,0,0:0:0:0:
256,192,50135,5,0,0:0:0:0:
256,192,50221,5,8,0:0:0:0:
256,192,50307,5,0,0:0:0:0:
256,192,50392,5,8,0:0:0:0:
256,192,50478,5,8,0:0:0:0:
256,192,50564,5,8,0:0:0:0:
256,192,50649,5,0,0:0:0:0:
256,192,50735,5,8,0:0:0:0:
256,192,50821,5,0,0:0:0:0:
256,192,50907,5,8,0:0:0:0:
256,192,50992,5,8,0:0:0:0:
256,192,51078,5,0,0:0:0:0:
256,192,51164,5,0,0:0:0:0:
256,192,51249,5,8,0:0:0:0:
256,192,51335,5,0,0:0:0:0:
256,192,51421,5,8,0:0:0:0:
256,192,51507,5,0,0:0:0:0:
256,192,51592,5,8,0:0:0:0:
256,192,51678,5,8,0:0:0:0:
256,192,51764,5,8,0:0:0:0:
256,192,51849,5,0,0:0:0:0:
256,192,51935,5,8,0:0:0:0:
256,192,52021,5,0,0:0:0:0:
256,192,52107,5,8,0:0:0:0:
256,192,52192,5,0,0:0:0:0:
256,192,52278,5,8,0:0:0:0:
256,192,52364,5,0,0:0:0:0:
256,192,52449,5,0,0:0:0:0:
256,192,52535,5,0,0:0:0:0:
256,192,52621,5,8,0:0:0:0:
256,192,52707,5,8,0:0:0:0:
256,192,52792,5,0,0:0:0:0:
256,192,52878,5,0,0:0:0:0:
256,192,52964,5,8,0:0:0:0:
256,192,53049,5,0,0:0:0:0:
256,192,53135,5,8,0:0:0:0:
256,192,53221,5,0,0:0:0:0:
256,192,53307,5,8,0:0:0:0:
256,192,53392,5,8,0:0:0:0:
256,192,53478,5,0,0:0:0:0:
256,192,53564,5,0,0:0:0:0:
256,192,53649,5,8,0:0:0:0:
256,192,53735,5,0,0:0:0:0:
256,192,53821,5,0,0:0:0:0:
256,192,53907,5,0,0:0:0:0:
256,192,53992,5,8,0:0:0:0:
256,192,54078,5,0,0:0:0:0:
256,192,54164,5,8,0:0:0:0:
256,192,54249,5,8,0:0:0:0:
256,192,54335,5,8,0:0:0:0:
256,192,54421,5,0,0:0:0:0:
256,192,54507,5,0,0:0:0:0:
256,192,54592,5,0,0:0:0:0:
256,192,54678,5,8,0:0:0:0:
256,192,54764,5,8,0:0:0:0:
256,192,54849,5,0,0:0:0:0:
256,192,54935,5,0,0:0:0:0:
256,192,55021,5,8,0:0:0:0:
256,192,55107,5,8,0:0:0:0:
256,192,55192,5,8,0:0:0:0:
256,192,55278,5,0,0:0:0:0:
256,192,55364,5,8,0:0:0:0:
256,192,55449,5,8,0:0:0:0:
256,192,55535,5,0,0:0:0:0:
256,192,55621,5,0,0:0:0:0:
256,192,55707,5,8,0:0:0:0:
256,192,55792,5,0,0:0:0:0:
256,192,55878,5,0,0:0:0:0:
256,192,55964,5,0,0:0:0:0:
256,192,56049,5,8,0:0:0:0:
256,192,56135,5,8,0:0:0:0:
256,192,56221,5,8,0:0:0:0:
256,192,56307,5,0,0:0:0:0:
256,192,56392,5,8,0:0:0:0:
256,192,56478,5,8,0:0:0:0:
256,192,56564,5,0,0:0:0:0:
256,192,56649,5,0,0:0:0:0:
256,192,56735,5,8,0:0:0:0:
256,192,56821,5,0,0:0:0:0:
256,192,56907,5,8,0:0:0:0:
256,192,56992,5,0,0:0:0:0:
256,192,57078,5,8,0:0:0:0:
256,192,57164,5,8,0:0:0:0:
256,192,57249,5,0,0:0:0:0:
256,192,57335,5,0,0:0:0:0:
256,192,57421,5,8,0:0:0:0:
256,192,57507,5,0,0:0:0:0:
256,192,57592,5,8,0:0:0:0:
256,192,57678,5,0,0:0:0:0:
256,192,57764,5,8,0:0:0:0:
256,192,57849,5,8,0:0:0:0:
256,192,57935,5,0,0:0:0:0:
256,192,58021,5,0,0:0:0:0:
256,192,58107,5,8,0:0:0:0:
256,192,58192,5,0,0:0:0:0:
256,192,58278,5,8,0:0:0:0:
256,192,58364,5,0,0:0:0:0:
256,192,58449,5,8,0:0:0:0:
256,192,58535,5,0,0:0:0:0:
256,192,58621,5,8,0:0:0:0:
256,192,58707,5,8,0:0:0:0:
256,192,58792,5,8,0:0:0:0:
256,192,58878,5,0,0:0:0:0:
256,192,58964,5,0,0:0:0:0:
256,192,59049,5,0,0:0:0:0:
256,192,59135,5,8,0:0:0:0:
256,192,59221,5,8,0:0:0:0:
256,192,59307,5,8,0:0:0:0:
256,192,59392,5,0,0:0:0:0:
256,192,59478,5,8,0:0:0:0:
256,192,59564,5,8,0:0:0:0:
256,192,59649,5,8,0:0:0:0:
256,192,59735,5,0,0:0:0:0:
256,192,59821,5,8,0:0:0:0:
256,192,59907,5,8,0:0:0:0:
256,192,59992,5,0,0:0:0:0:
256,192,60078,5,0,0:0:0:0:
256,192,60164,5,8,0:0:0:0:
256,192,60249,5,0,0:0:0:0:
256,192,60335,5,8,0:0:0:0:
256,192,60421,5,0,0:0:0:0:
256,192,60507,5,8,0:0:0:0:
256,192,60592,5,0,0:0:0:0:
256,192,60678,5,0,0:0:0:0:
256,192,60764,5,0,0:0:0:0:
256,192,60849,5,8,0:0:0:0:
256,192,60935,5,8,0:0:0:0:
256,192,61021,5,0,0:0:0:0:
256,192,61107,5,0,0:0:0:0:
256,192,61192,5,0,0:0:0:0:
256,192,61278,5,0,0:0:0:0:
256,192,61364,5,8,0:0:0:0:
256,192,61449,5,8,0:0:0:0:
256,192,61535,5,8,0:0:0:0:
256,192,61621,5,0,0:0:0:0:
256,192,61707,5,0,0:0:0:0:
256,192,61792,5,0,0:0:0:0:
256,192,61878,5,8,0:0:0:0:
256,192,61964,5,8,0:0:0:0:
256,192,62049,5,0,0:0:0:0:
256,192,62135,5,0,0:0:0:0:
256,192,62221,5,8,0:0:0:0:
256,192,62307,5,0,0:0:0:0:
256,192,62392,5,8,0:0:0:0:
256,192,62478,5,0,0:0:0:0:
256,192,62564,5,8,0:0:0:0:
256,192,62649,5,0,0:0:0:0:
256,192,62735,5,8,0:0:0:0:
256,192,62821,5,0,0:0:0:0:
256,192,62907,5,8,0:0:0:0:
256,192,62992,5,0,0:0:0:0:
256,192,63078,5,8,0:0:0:0:
256,192,63164,5,0,0:0:0:0:
256,192,63249,5,8,0:0:0:0:
256,192,63335,5,8,0:0:0:0:
256,192,63421,5,0,0:0:0:0:
256,192,63507,5,0,0:0:0:0:
256,192,63592,5,8,0:0:0:0:
256,192,63678,5,0,0:0:0:0:
256,192,63764,5,0,0:0:0:0:
256,192,63849,5,0,0:0:0:0:
256,192,63935,5,8,0:0:0:0:
256,192,64021,5,0,0:0:0:0:
256,192,64107,5,8,0:0:0:0:
256,192,64192,5,8,0:0:0:0:
256,192,64278,5,8,0:0:0:0:
256,192,64364,5,0,0:0:0:0:
256,192,64449,5,0,0:0:0:0:
256,192,64535,5,0,0:0:0:0:
256,192,64621,5,8,0:0:0:0:
256,192,64707,5,0,0:0:0:0:
256,192,64792,5,0,0:0:0:0:
256,192,64878,5,0,0:0:0:0:
256,192,64964,5,8,0:0:0:0:
256,192,65049,5,0,0:0:0:0:
256,192,65135,5,8,0:0:0:0:
256,192,65221,5,8,0:0:0:0:
256,192,65307,5,8,0:0:0:0:
256,192,65392,5,0,0:0:0:0:
256,192,65478,5,0,0:0:0:0:
256,192,65564,5,0,0:0:0:0:
256,192,65649,5,8,0:0:0:0:
256,192,65735,5,8,0:0:0:0:
256,192,65821,5,0,0:0:0:0:
256,192,65907,5,0,0:0:0:0:
256,192,65992,5,8,0:0:0:0:
256,192,66078,5,0,0:0:0:0:
256,192,66164,5,0,0:0:0:0:
256,192,66249,5,0,0:0:0:0:
256,192,66335,5,8,0:0:0:0:
256,192,66421,5,8,0:0:0:0:
256,192,66507,5,0,0:0:0:0:
256,192,66592,5,0,0:0:0:0:
256,192,66678,5,8,0:0:0:0:
256,192,66764,5,8,0:0:0:0:
256,192,66849,5,8,0:0:0:0:
256,192,66935,5,0,0:0:0:0:
256,192,67021,5,8,0:0:0:0:
256,192,67107,5,0,0:0:0:0:
256,192,67192,5,8,0:0:0:0:
256,192,67278,5,0,0:0:0:0:
256,192,67364,5,8,0:0:0:0:
256,192,67449,5,8,0:0:0:0:
256,192,67535,5,0,0:0:0:0:
256,192,67621,5,0,0:0:0:0:
256,192,67707,5,8,0:0:0:0:
256,192,67792,5,8,0:0:0:0:
256,192,67878,5,8,0:0:0:0:
256,192,67964,5,0,0:0:0:0:
256,192,68049,5,8,0:0:0:0:
256,192,68135,5,0,0:0:0:0:
256,192,68221,5,0,0:0:0:0:
256,192,68307,5,0,0:0:0:0:
256,192,68392,5,8,0:0:0:0:
256,192,68478,5,0,0:0:0:0:
256,192,68564,5,8,0:0:0:0:
256,192,68649,5,0,0:0:0:0:
256,192,68735,5,8,0:0:0:0:
256,192,68821,5,8,0:0:0:0:
256,192,68907,5,0,0:0:0:0:
256,192,68992,5,0,0:0:0:0:
256,192,69078,5,8,0:0:0:0:
256,192,69164,5,0,0:0:0:0:
256,192,69249,5,0,0:0:0:0:
256,192,69335,5,0,0:0:0:0:
256,192,69421,5,8,0:0:0:0:
256,192,69507,5,0,0:0:0:0:
256,192,69592,5,8,0:0:0:0:
256,192,69678,5,8,0:0:0:0:
256,192,69764,5,8,0:0:0:0:
256,192,69849,5,0,0:0:0:0:
256,192,69935,5,8,0:0:0:0:
256,192,70021,5,8,0:0:0:0:
256,192,70107,5,0,0:0:0:0:
256,192,70192,5,0,0:0:0:0:
256,192,70278,5,0,0:0:0:0:
256,192,70364,5,0,0:0:0:0:
256,192,70449,5,8,0:0:0:0:
256,192,70535,5,8,0:0:0:0:
256,192,70621,5,8,0:0:0:0:
256,192,70707,5,8,0:0:0:0:
256,192,70792,5,4,0:0:0:0:
256,192,70964,5,8,0:0:0:0:
256,192,71049,5,8,0:0:0:0:
256,192,71135,5,8,0:0:0:0:
256,192,71221,5,8,0:0:0:0:
256,192,71307,5,4,0:0:0:0:
256,192,71478,5,0,0:0:0:0:
256,192,71564,5,8,0:0:0:0:
256,192,71649,5,8,0:0:0:0:
256,192,71735,5,8,0:0:0:0:
256,192,71821,5,0,0:0:0:0:
256,192,71907,5,8,0:0:0:0:
256,192,71992,5,8,0:0:0:0:
256,192,72078,5,8,0:0:0:0:
256,192,72164,5,0,0:0:0:0:
256,192,72224,5,0,0:0:0:0:
256,192,72285,5,0,0:0:0:0:
256,192,72346,5,0,0:0:0:0:
256,192,72407,5,0,0:0:0:0:
256,192,72468,5,0,0:0:0:0:
256,192,72529,5,8,0:0:0:0:
256,192,72621,5,8,0:0:0:0:
256,192,72712,5,8,0:0:0:0:
256,192,72804,5,8,0:0:0:0:
256,192,72895,5,0,0:0:0:0:
256,192,73078,5,0,0:0:0:0:
256,192,73139,5,0,0:0:0:0:
256,192,73200,5,0,0:0:0:0:
256,192,73261,5,8,0:0:0:0:
256,192,73632,5,0,0:0:0:0:
256,192,73725,5,0,0:0:0:0:
256,192,73819,5,8,0:0:0:0:
256,192,73913,5,0,0:0:0:0:
256,192,74007,5,8,0:0:0:0:
256,192,74100,5,8,0:0:0:0:
256,192,74194,5,0,0:0:0:0:
256,192,74288,5,8,0:0:0:0:
256,192,74382,5,8,0:0:0:0:
256,192,74475,5,8,0:0:0:0:
256,192,74569,5,0,0:0:0:0:
256,192,74663,5,0,0:0:0:0:
256,192,74757,5,8,0:0:0:0:
256,192,74850,5,8,0:0:0:0:
256,192,74944,5,8,0:0:0:0:
256,192,75038,5,8,0:0:0:0:
256,192,75132,5,0,0:0:0:0:
256,192,75226,5,0,0:0:0:0:
256,192,75321,5,0,0:0:0:0:
256,192,75416,5,0,0:0:0:0:
256,192,75511,5,8,0:0:0:0:
256,192,75606,5,0,0:0:0:0:
256,192,75701,5,8,0:0:0:0:
256,192,75796,5,8,0:0:0:0:
256,192,75891,5,0,0:0:0:0:
256,192,75986,5,8,0:0:0:0:
256,192,76081,5,0,0:0:0:0:
256,192,76144,1,0,0:0:0:0:
256,192,76207,1,0,0:0:0:0:
256,192,76271,1,8,0:0:0:0:
256,192,76366,1,8,0:0:0:0:
256,192,76461,1,8,0:0:0:0:
256,192,76556,1,8,0:0:0:0:
256,192,76650,1,0,0:0:0:0:
256,192,76742,5,8,0:0:0:0:
256,192,76835,5,0,0:0:0:0:
256,192,76927,5,0,0:0:0:0:
256,192,77020,5,8,0:0:0:0:
256,192,77112,5,0,0:0:0:0:
256,192,77205,5,0,0:0:0:0:
256,192,77298,5,0,0:0:0:0:
256,192,77390,5,8,0:0:0:0:
256,192,77483,5,8,0:0:0:0:
256,192,77575,5,0,0:0:0:0:
256,192,77668,5,0,0:0:0:0:
256,192,77761,5,8,0:0:0:0:
256,192,77853,5,0,0:0:0:0:
256,192,77946,5,8,0:0:0:0:
256,192,78038,5,8,0:0:0:0:
256,192,78131,5,0,0:0:0:0:
256,192,78225,5,0,0:0:0:0:
256,192,78320,5,0,0:0:0:0:
256,192,78415,5,0,0:0:0:0:
256,192,78510,5,8,0:0:0:0:
256,192,78605,5,0,0:0:0:0:
256,192,78700,5,8,0:0:0:0:
256,192,78795,5,8,0:0:0:0:
256,192,78890,5,0,0:0:0:0:
256,192,78985,5,8,0:0:0:0:
256,192,79080,5,0,0:0:0:0:
256,192,79143,1,0,0:0:0:0:
256,192,79206,1,0,0:0:0:0:
256,192,79270,1,8,0:0:0:0:
256,192,79365,1,8,0:0:0:0:
256,192,79460,1,8,0:0:0:0:
256,192,79555,1,8,0:0:0:0:
256,192,79649,1,0,0:0:0:0:
256,192,79741,5,0,0:0:0:0:
256,192,79834,5,8,0:0:0:0:
256,192,79926,5,8,0:0:0:0:
256,192,80019,5,0,0:0:0:0:
256,192,80111,5,8,0:0:0:0:
256,192,80204,5,8,0:0:0:0:
256,192,80297,5,0,0:0:0:0:
256,192,80389,5,8,0:0:0:0:
256,192,80482,5,8,0:0:0:0:
256,192,80574,5,0,0:0:0:0:
256,192,80667,5,0,0:0:0:0:
256,192,80760,5,8,0:0:0:0:
256,192,80852,5,0,0:0:0:0:
256,192,80945,5,8,0:0:0:0:
256,192,81037,5,8,0:0:0:0:
256,192,81130,5,0,0:0:0:0:
256,192,81226,5,0,0:0:0:0:
256,192,81322,5,0,0:0:0:0:
256,192,81418,5,0,0:0:0:0:
256,192,81514,5,8,0:0:0:0:
256,192,81610,5,0,0:0:0:0:
256,192,81706,5,8,0:0:0:0:
256,192,81803,5,8,0:0:0:0:
256,192,81899,5,0,0:0:0:0:
256,192,81995,5,8,0:0:0:0:
256,192,82091,5,0,0:0:0:0:
256,192,82155,5,0,0:0:0:0:
256,192,82219,5,0,0:0:0:0:
256,192,82283,5,8,0:0:0:0:
256,192,82380,5,8,0:0:0:0:
256,192,82476,5,8,0:0:0:0:
256,192,82572,5,8,0:0:0:0:
256,192,82668,5,0,0:0:0:0:
256,192,82760,5,0,0:0:0:0:
256,192,82853,5,8,0:0:0:0:
256,192,82945,5,8,0:0:0:0:
256,192,83038,5,0,0:0:0:0:
256,192,83130,5,8,0:0:0:0:
256,192,83223,5,8,0:0:0:0:
256,192,83316,5,0,0:0:0:0:
256,192,83408,5,8,0:0:0:0:
256,192,83470,5,8,0:0:0:0:
256,192,83532,5,8,0:0:0:0:
256,192,83593,5,0,0:0:0:0:
256,192,83655,5,0,0:0:0:0:
256,192,83717,5,0,0:0:0:0:
256,192,83779,5,8,0:0:0:0:
256,192,84149,5,0,0:0:0:0:
256,192,85349,5,12,0:0:0:0:
256,192,85749,5,8,0:0:0:0:
256,192,85849,5,0,0:0:0:0:
256,192,85949,5,0,0:0:0:0:
256,192,86049,5,8,0:0:0:0:
256,192,86149,5,0,0:0:0:0:
256,192,86249,5,0,0:0:0:0:
256,192,86349,5,8,0:0:0:0:
256,192,86449,5,0,0:0:0:0:
256,192,86549,5,8,0:0:0:0:
256,192,86649,5,8,0:0:0:0:
256,192,86749,5,0,0:0:0:0:
256,192,86849,5,8,0:0:0:0:
256,192,86949,5,0,0:0:0:0:
256,192,87049,5,0,0:0:0:0:
256,192,87149,5,8,0:0:0:0:
256,192,87249,5,0,0:0:0:0:
256,192,87349,5,8,0:0:0:0:
256,192,87449,5,0,0:0:0:0:
256,192,87549,5,0,0:0:0:0:
256,192,87649,5,8,0:0:0:0:
256,192,87749,5,0,0:0:0:0:
256,192,87849,5,0,0:0:0:0:
256,192,87949,5,8,0:0:0:0:
256,192,88049,5,0,0:0:0:0:
256,192,88149,5,8,0:0:0:0:
256,192,88249,5,8,0:0:0:0:
256,192,88349,5,0,0:0:0:0:
256,192,88449,5,8,0:0:0:0:
256,192,88549,5,0,0:0:0:0:
256,192,88649,5,0,0:0:0:0:
256,192,88749,5,8,0:0:0:0:
256,192,88849,5,0,0:0:0:0:
256,192,88949,5,8,0:0:0:0:
256,192,89049,5,0,0:0:0:0:
256,192,89149,5,0,0:0:0:0:
256,192,89249,5,8,0:0:0:0:
256,192,89349,5,0,0:0:0:0:
256,192,89449,5,0,0:0:0:0:
256,192,89549,5,8,0:0:0:0:
256,192,89649,5,8,0:0:0:0:
256,192,89749,5,8,0:0:0:0:
256,192,89849,5,0,0:0:0:0:
256,192,89949,5,0,0:0:0:0:
256,192,90049,5,8,0:0:0:0:
256,192,90149,5,0,0:0:0:0:
256,192,90249,5,0,0:0:0:0:
256,192,90349,5,8,0:0:0:0:
256,192,90449,5,8,0:0:0:0:
256,192,90549,5,0,0:0:0:0:
256,192,90649,5,0,0:0:0:0:
256,192,90749,5,8,0:0:0:0:
256,192,90849,5,0,0:0:0:0:
256,192,90949,5,8,0:0:0:0:
256,192,91015,5,8,0:0:0:0:
256,192,91082,5,8,0:0:0:0:
256,192,91149,5,0,0:0:0:0:
256,192,91249,5,8,0:0:0:0:
256,192,91349,5,0,0:0:0:0:
256,192,91449,5,0,0:0:0:0:
256,192,91549,5,8,0:0:0:0:
256,192,91615,5,0,0:0:0:0:
256,192,91682,5,0,0:0:0:0:
256,192,91749,5,8,0:0:0:0:
256,192,91849,5,0,0:0:0:0:
256,192,91949,5,8,0:0:0:0:
256,192,92049,5,0,0:0:0:0:
256,192,92149,5,8,0:0:0:0:
256,192,92249,5,0,0:0:0:0:
256,192,92349,5,0,0:0:0:0:
256,192,92449,5,8,0:0:0:0:
256,192,92549,5,0,0:0:0:0:
256,192,92649,5,0,0:0:0:0:
256,192,92749,5,8,0:0:0:0:
256,192,92849,5,0,0:0:0:0:
256,192,92949,5,8,0:0:0:0:
256,192,93049,5,8,0:0:0:0:
256,192,93149,5,0,0:0:0:0:
256,192,93249,5,8,0:0:0:0:
256,192,93349,5,0,0:0:0:0:
256,192,93449,5,0,0:0:0:0:
256,192,93549,5,8,0:0:0:0:
256,192,93649,5,0,0:0:0:0:
256,192,93749,5,8,0:0:0:0:
256,192,93849,5,8,0:0:0:0:
256,192,93949,5,0,0:0:0:0:
256,192,94049,5,8,0:0:0:0:
256,192,94149,5,0,0:0:0:0:
256,192,94249,5,0,0:0:0:0:
256,192,94349,5,8,0:0:0:0:
256,192,94449,5,8,0:0:0:0:
256,192,94549,5,8,0:0:0:0:
256,192,94649,5,0,0:0:0:0:
256,192,94749,5,0,0:0:0:0:
256,192,94849,5,8,0:0:0:0:
256,192,94949,5,0,0:0:0:0:
256,192,95049,5,0,0:0:0:0:
256,192,95149,5,8,0:0:0:0:
256,192,95249,5,0,0:0:0:0:
256,192,95349,5,8,0:0:0:0:
256,192,95449,5,8,0:0:0:0:
256,192,95549,5,0,0:0:0:0:
256,192,95649,5,8,0:0:0:0:
256,192,95749,5,8,0:0:0:0:
256,192,95849,5,0,0:0:0:0:
256,192,95949,5,8,0:0:0:0:
256,192,96049,5,0,0:0:0:0:
256,192,96149,5,8,0:0:0:0:
256,192,96215,5,8,0:0:0:0:
256,192,96282,5,8,0:0:0:0:
256,192,96349,5,0,0:0:0:0:
256,192,96449,5,0,0:0:0:0:
256,192,96549,5,8,0:0:0:0:
256,192,96649,5,0,0:0:0:0:
256,192,96749,5,8,0:0:0:0:
256,192,96849,5,8,0:0:0:0:
256,192,96949,5,0,0:0:0:0:
256,192,97049,5,0,0:0:0:0:
256,192,97149,5,8,0:0:0:0:
256,192,97249,5,0,0:0:0:0:
256,192,97349,5,8,0:0:0:0:
256,192,97415,5,8,0:0:0:0:
256,192,97482,5,8,0:0:0:0:
256,192,97549,5,0,0:0:0:0:
256,192,97649,5,0,0:0:0:0:
256,192,97749,5,8,0:0:0:0:
256,192,97849,5,0,0:0:0:0:
256,192,97949,5,8,0:0:0:0:
256,192,98015,5,0,0:0:0:0:
256,192,98082,5,0,0:0:0:0:
256,192,98149,5,8,0:0:0:0:
256,192,98249,5,0,0:0:0:0:
256,192,98349,5,8,0:0:0:0:
256,192,98449,5,0,0:0:0:0:
256,192,98549,5,8,0:0:0:0:
256,192,98649,5,8,0:0:0:0:
256,192,98749,5,8,0:0:0:0:
256,192,98849,5,0,0:0:0:0:
256,192,98949,5,8,0:0:0:0:
256,192,99049,5,8,0:0:0:0:
256,192,99149,5,0,0:0:0:0:
256,192,99249,5,8,0:0:0:0:
256,192,99349,5,8,0:0:0:0:
256,192,99449,5,0,0:0:0:0:
256,192,99549,5,0,0:0:0:0:
256,192,99649,5,0,0:0:0:0:
256,192,99749,5,12,0:0:0:0:
256,192,100149,5,8,0:0:0:0:
256,192,100215,5,8,0:0:0:0:
256,192,100282,5,8,0:0:0:0:
256,192,100349,5,0,0:0:0:0:
256,192,100415,5,0,0:0:0:0:
256,192,100482,5,0,0:0:0:0:
256,192,100549,5,12,0:0:0:0:
256,192,100749,5,12,0:0:0:0:
256,192,100949,5,8,0:0:0:0:
256,192,101049,5,8,0:0:0:0:
256,192,101149,5,0,0:0:0:0:
256,192,101249,5,0,0:0:0:0:
256,192,101349,5,8,0:0:0:0:
256,192,101449,5,8,0:0:0:0:
256,192,101549,5,8,0:0:0:0:
256,192,101649,5,0,0:0:0:0:
256,192,101749,5,8,0:0:0:0:
256,192,101849,5,0,0:0:0:0:
256,192,101949,5,0,0:0:0:0:
256,192,102049,5,0,0:0:0:0:
256,192,102149,5,8,0:0:0:0:
256,192,102249,5,0,0:0:0:0:
256,192,102349,5,8,0:0:0:0:
256,192,102449,5,0,0:0:0:0:
256,192,102549,5,8,0:0:0:0:
256,192,102649,5,8,0:0:0:0:
256,192,102749,5,8,0:0:0:0:
256,192,102849,5,0,0:0:0:0:
256,192,102949,5,8,0:0:0:0:
256,192,103049,5,8,0:0:0:0:
256,192,103149,5,0,0:0:0:0:
256,192,103249,5,0,0:0:0:0:
256,192,103349,5,8,0:0:0:0:
256,192,103449,5,0,0:0:0:0:
256,192,103549,5,8,0:0:0:0:
256,192,103649,5,8,0:0:0:0:
256,192,103749,5,0,0:0:0:0:
256,192,103849,5,0,0:0:0:0:
256,192,103949,5,8,0:0:0:0:
256,192,104049,5,0,0:0:0:0:
256,192,104149,5,8,0:0:0:0:
256,192,104249,5,8,0:0:0:0:
256,192,104349,5,0,0:0:0:0:
256,192,104449,5,0,0:0:0:0:
256,192,104549,5,8,0:0:0:0:
256,192,104649,5,0,0:0:0:0:
256,192,104749,5,8,0:0:0:0:
256,192,104849,5,8,0:0:0:0:
256,192,104949,5,8,0:0:0:0:
256,192,105049,5,0,0:0:0:0:
256,192,105149,5,8,0:0:0:0:
256,192,105249,5,0,0:0:0:0:
256,192,105349,5,8,0:0:0:0:
256,192,105449,5,8,0:0:0:0:
256,192,105549,5,8,0:0:0:0:
256,192,105649,5,0,0:0:0:0:
256,192,105749,5,8,0:0:0:0:
256,192,105849,5,0,0:0:0:0:
256,192,105949,5,8,0:0:0:0:
256,192,106049,5,8,0:0:0:0:
256,192,106149,5,8,0:0:0:0:
256,192,106249,5,0,0:0:0:0:
256,192,106349,5,8,0:0:0:0:
256,192,106449,5,0,0:0:0:0:
256,192,106549,5,8,0:0:0:0:
256,192,106615,5,8,0:0:0:0:
256,192,106682,5,8,0:0:0:0:
256,192,106749,5,0,0:0:0:0:
256,192,106815,5,0,0:0:0:0:
256,192,106882,5,0,0:0:0:0:
256,192,106949,5,12,0:0:0:0:
256,192,107149,5,12,0:0:0:0:
256,192,107349,5,8,0:0:0:0:
256,192,107449,5,0,0:0:0:0:
256,192,107549,5,0,0:0:0:0:
256,192,107649,5,0,0:0:0:0:
256,192,107749,5,8,0:0:0:0:
256,192,107849,5,0,0:0:0:0:
256,192,107949,5,0,0:0:0:0:
256,192,108049,5,0,0:0:0:0:
256,192,108149,5,8,0:0:0:0:
256,192,108249,5,8,0:0:0:0:
256,192,108349,5,0,0:0:0:0:
256,192,108449,5,0,0:0:0:0:
256,192,108549,5,8,0:0:0:0:
256,192,108649,5,8,0:0:0:0:
256,192,108749,5,8,0:0:0:0:
256,192,108849,5,0,0:0:0:0:
256,192,108949,5,8,0:0:0:0:
256,192,109049,5,0,0:0:0:0:
256,192,109149,5,8,0:0:0:0:
256,192,109249,5,0,0:0:0:0:
256,192,109349,5,8,0:0:0:0:
256,192,109449,5,0,0:0:0:0:
256,192,109549,5,0,0:0:0:0:
256,192,109649,5,0,0:0:0:0:
256,192,109749,5,8,0:0:0:0:
256,192,109849,5,0,0:0:0:0:
256,192,109949,5,8,0:0:0:0:
256,192,110049,5,8,0:0:0:0:
256,192,110149,5,0,0:0:0:0:
256,192,110249,5,0,0:0:0:0:
256,192,110349,5,8,0:0:0:0:
256,192,110449,5,0,0:0:0:0:
256,192,110549,5,8,0:0:0:0:
256,192,110649,5,0,0:0:0:0:
256,192,110749,5,0,0:0:0:0:
256,192,110849,5,0,0:0:0:0:
256,192,110949,5,8,0:0:0:0:
256,192,111049,5,0,0:0:0:0:
256,192,111149,5,8,0:0:0:0:
256,192,111249,5,0,0:0:0:0:
256,192,111349,5,8,0:0:0:0:
256,192,111449,5,8,0:0:0:0:
256,192,111549,5,0,0:0:0:0:
256,192,111649,5,0,0:0:0:0:
256,192,111749,5,8,0:0:0:0:
256,192,111849,5,8,0:0:0:0:
256,192,111949,5,8,0:0:0:0:
256,192,112049,5,0,0:0:0:0:
256,192,112149,5,8,0:0:0:0:
256,192,112249,5,8,0:0:0:0:
256,192,112349,5,0,0:0:0:0:
256,192,112449,5,8,0:0:0:0:
256,192,112549,5,8,0:0:0:0:
256,192,112649,5,0,0:0:0:0:
256,192,112749,5,8,0:0:0:0:
256,192,112849,5,0,0:0:0:0:
256,192,112949,5,8,0:0:0:0:
256,192,113015,5,8,0:0:0:0:
256,192,113082,5,8,0:0:0:0:
256,192,113149,5,0,0:0:0:0:
256,192,113215,5,0,0:0:0:0:
256,192,113282,5,0,0:0:0:0:
256,192,113349,5,8,0:0:0:0:
256,192,113415,5,8,0:0:0:0:
256,192,113482,5,8,0:0:0:0:
256,192,113549,5,0,0:0:0:0:
256,192,113615,5,0,0:0:0:0:
256,192,113682,5,0,0:0:0:0:
256,192,113749,5,8,0:0:0:0:
256,192,113849,5,8,0:0:0:0:
256,192,113949,5,8,0:0:0:0:
256,192,114049,5,8,0:0:0:0:
256,192,114149,5,0,0:0:0:0:
256,192,114249,5,0,0:0:0:0:
256,192,114349,5,8,0:0:0:0:
256,192,114549,5,4,0:0:0:0:
256,192,114682,5,0,0:0:0:0:
256,192,114749,5,8,0:0:0:0:
256,192,114815,5,8,0:0:0:0:
256,192,114882,5,8,0:0:0:0:
256,192,114949,5,0,0:0:0:0:
256,192,115082,5,0,0:0:0:0:
256,192,115149,5,0,0:0:0:0:
256,192,115215,5,8,0:0:0:0:
256,192,115282,5,8,0:0:0:0:
256,192,115349,5,0,0:0:0:0:
256,192,115415,5,0,0:0:0:0:
256,192,115482,5,8,0:0:0:0:
256,192,115549,5,8,0:0:0:0:
256,192,115649,5,0,0:0:0:0:
256,192,115749,5,8,0:0:0:0:
256,192,115799,5,8,0:0:0:0:
256,192,116149,5,8,0:0:0:0:
256,192,116249,5,0,0:0:0:0:
256,192,116349,5,0,0:0:0:0:
256,192,116449,5,8,0:0:0:0:
256,192,116549,5,0,0:0:0:0:
256,192,116649,5,0,0:0:0:0:
256,192,116749,5,8,0:0:0:0:
256,192,116849,5,0,0:0:0:0:
256,192,116949,5,8,0:0:0:0:
256,192,117049,5,0,0:0:0:0:
256,192,117149,5,8,0:0:0:0:
256,192,117249,5,8,0:0:0:0:
256,192,117349,5,8,0:0:0:0:
256,192,117449,5,0,0:0:0:0:
256,192,117549,5,8,0:0:0:0:
256,192,117649,5,8,0:0:0:0:
256,192,117749,5,8,0:0:0:0:
256,192,117849,5,0,0:0:0:0:
256,192,117949,5,0,0:0:0:0:
256,192,118049,5,8,0:0:0:0:
256,192,118149,5,0,0:0:0:0:
256,192,118249,5,0,0:0:0:0:
256,192,118349,5,8,0:0:0:0:
256,192,118449,5,0,0:0:0:0:
256,192,118549,5,8,0:0:0:0:
256,192,118649,5,0,0:0:0:0:
256,192,118749,5,8,0:0:0:0:
256,192,118849,5,8,0:0:0:0:
256,192,118949,5,8,0:0:0:0:
256,192,119049,5,0,0:0:0:0:
256,192,119149,5,8,0:0:0:0:
256,192,119249,5,8,0:0:0:0:
256,192,119349,5,8,0:0:0:0:
256,192,119449,5,0,0:0:0:0:
256,192,119549,5,0,0:0:0:0:
256,192,119649,5,8,0:0:0:0:
256,192,119749,5,0,0:0:0:0:
256,192,119849,5,0,0:0:0:0:
256,192,119949,5,8,0:0:0:0:
256,192,120049,5,0,0:0:0:0:
256,192,120149,5,8,0:0:0:0:
256,192,120215,5,8,0:0:0:0:
256,192,120282,5,8,0:0:0:0:
256,192,120349,5,0,0:0:0:0:
256,192,120449,5,8,0:0:0:0:
256,192,120549,5,0,0:0:0:0:
256,192,120649,5,0,0:0:0:0:
256,192,120749,5,8,0:0:0:0:
256,192,120849,5,8,0:0:0:0:
256,192,120949,5,0,0:0:0:0:
256,192,121049,5,8,0:0:0:0:
256,192,121149,5,0,0:0:0:0:
256,192,121249,5,0,0:0:0:0:
256,192,121349,5,8,0:0:0:0:
256,192,121449,5,8,0:0:0:0:
256,192,121549,5,8,0:0:0:0:
256,192,121649,5,8,0:0:0:0:
256,192,121749,5,0,0:0:0:0:
256,192,121849,5,8,0:0:0:0:
256,192,121949,5,8,0:0:0:0:
256,192,122049,5,0,0:0:0:0:
256,192,122149,5,8,0:0:0:0:
256,192,122249,5,0,0:0:0:0:
256,192,122349,5,8,0:0:0:0:
256,192,122449,5,8,0:0:0:0:
256,192,122549,5,8,0:0:0:0:
256,192,122649,5,0,0:0:0:0:
256,192,122749,5,0,0:0:0:0:
256,192,122849,5,8,0:0:0:0:
256,192,122949,5,0,0:0:0:0:
256,192,123049,5,0,0:0:0:0:
256,192,123149,5,8,0:0:0:0:
256,192,123249,5,0,0:0:0:0:
256,192,123349,5,8,0:0:0:0:
256,192,123449,5,8,0:0:0:0:
256,192,123549,5,0,0:0:0:0:
256,192,123649,5,8,0:0:0:0:
256,192,123749,5,8,0:0:0:0:
256,192,123849,5,0,0:0:0:0:
256,192,123949,5,8,0:0:0:0:
256,192,124049,5,8,0:0:0:0:
256,192,124149,5,8,0:0:0:0:
256,192,124249,5,0,0:0:0:0:
256,192,124349,5,0,0:0:0:0:
256,192,124449,5,8,0:0:0:0:
256,192,124549,5,0,0:0:0:0:
256,192,124649,5,0,0:0:0:0:
256,192,124749,5,8,0:0:0:0:
256,192,124849,5,0,0:0:0:0:
256,192,124949,5,8,0:0:0:0:
256,192,125049,5,8,0:0:0:0:
256,192,125099,5,8,0:0:0:0:
256,192,125149,5,0,0:0:0:0:
224,192,125249,5,8,0:0:0:0:
256,192,125349,5,8,0:0:0:0:
256,192,125449,5,0,0:0:0:0:
256,192,125499,5,0,0:0:0:0:
256,192,125549,5,0,0:0:0:0:
256,192,125649,5,8,0:0:0:0:
256,192,125749,5,8,0:0:0:0:
256,192,125849,5,0,0:0:0:0:
256,192,125949,5,8,0:0:0:0:
256,192,126049,5,8,0:0:0:0:
256,192,126149,5,8,0:0:0:0:
256,192,126249,5,0,0:0:0:0:
256,192,126349,5,8,0:0:0:0:
256,192,126449,5,0,0:0:0:0:
256,192,126549,5,8,0:0:0:0:
256,192,126649,5,8,0:0:0:0:
256,192,126749,5,0,0:0:0:0:
256,192,126849,5,0,0:0:0:0:
256,192,126949,5,8,0:0:0:0:
256,192,127049,5,8,0:0:0:0:
256,192,127149,5,0,0:0:0:0:
256,192,127249,5,8,0:0:0:0:
256,192,127349,5,4,0:0:0:0:
256,192,128749,5,0,0:0:0:0:
256,192,128815,5,0,0:0:0:0:
256,192,128882,5,0,0:0:0:0:
256,192,128949,5,8,0:0:0:0:
256,192,129049,5,8,0:0:0:0:
256,192,129149,5,0,0:0:0:0:
256,192,129249,5,0,0:0:0:0:
256,192,129349,5,8,0:0:0:0:
256,192,129449,5,0,0:0:0:0:
256,192,129549,5,8,0:0:0:0:
256,192,129649,5,8,0:0:0:0:
256,192,129749,5,8,0:0:0:0:
256,192,129849,5,8,0:0:0:0:
256,192,129949,5,0,0:0:0:0:
256,192,130049,5,0,0:0:0:0:
256,192,130149,5,8,0:0:0:0:
256,192,130549,5,0,0:0:0:0:
256,192,130682,5,0,0:0:0:0:
256,192,130815,5,0,0:0:0:0:
256,192,130949,5,8,0:0:0:0:
256,192,131082,5,0,0:0:0:0:
256,192,131215,5,0,0:0:0:0:
256,192,131349,5,8,0:0:0:0:
256,192,131482,5,8,0:0:0:0:
256,192,131615,5,0,0:0:0:0:
256,192,131682,5,0,0:0:0:0:
256,192,131749,5,8,0:0:0:0:
256,192,131882,5,0,0:0:0:0:
256,192,132015,5,0,0:0:0:0:
256,192,132149,5,8,0:0:0:0:
256,192,132249,5,8,0:0:0:0:
256,192,132349,5,0,0:0:0:0:
224,192,132449,5,0,0:0:0:0:
256,192,132549,5,8,0:0:0:0:
256,192,132682,5,8,0:0:0:0:
256,192,132815,5,0,0:0:0:0:
256,192,132949,5,8,0:0:0:0:
256,192,133082,5,0,0:0:0:0:
256,192,133215,5,0,0:0:0:0:
256,192,133349,5,8,0:0:0:0:
256,192,133482,5,0,0:0:0:0:
256,192,133615,5,8,0:0:0:0:
256,192,133749,5,4,0:0:0:0:
256,192,134480,5,0,0:0:0:0:
256,192,134541,5,0,0:0:0:0:
256,192,134602,5,0,0:0:0:0:
256,192,134663,5,0,0:0:0:0:
256,192,134724,5,8,0:0:0:0:
256,192,135456,5,0,0:0:0:0:
256,192,135517,5,0,0:0:0:0:
256,192,135578,5,0,0:0:0:0:
256,192,135639,5,0,0:0:0:0:
256,192,135700,5,8,0:0:0:0:
256,192,135944,5,8,0:0:0:0:
256,192,136188,5,8,0:0:0:0:
256,192,136350,5,0,0:0:0:0:
256,192,136431,5,0,0:0:0:0:
256,192,136513,5,0,0:0:0:0:
256,192,136594,5,0,0:0:0:0:
256,192,136675,5,8,0:0:0:0:
256,192,136757,1,8,0:0:0:0:
256,192,136838,1,8,0:0:0:0:
256,192,136919,1,8,0:0:0:0:
256,192,137001,1,0,0:0:0:0:
256,192,137082,1,0,0:0:0:0:
256,192,137163,1,8,0:0:0:0:
256,192,137244,1,0,0:0:0:0:
256,192,137326,1,0,0:0:0:0:
256,192,137407,1,8,0:0:0:0:
256,192,137488,1,8,0:0:0:0:
256,192,137570,1,0,0:0:0:0:
256,192,137651,1,8,0:0:0:0:
256,192,137732,5,8,0:0:0:0:
256,192,137814,5,8,0:0:0:0:
256,192,137895,5,0,0:0:0:0:
256,192,137976,5,0,0:0:0:0:
256,192,138057,5,0,0:0:0:0:
256,192,138139,5,8,0:0:0:0:
256,192,138220,5,0,0:0:0:0:
256,192,138301,5,8,0:0:0:0:
256,192,138383,5,0,0:0:0:0:
256,192,138464,5,8,0:0:0:0:
256,192,138545,5,0,0:0:0:0:
256,192,138627,5,8,0:0:0:0:
256,192,138708,5,0,0:0:0:0:
256,192,138789,5,0,0:0:0:0:
256,192,138870,5,0,0:0:0:0:
256,192,138952,5,8,0:0:0:0:
256,192,139033,5,8,0:0:0:0:
256,192,139114,5,0,0:0:0:0:
256,192,139196,5,0,0:0:0:0:
256,192,139277,5,8,0:0:0:0:
256,192,139358,5,8,0:0:0:0:
256,192,139440,5,8,0:0:0:0:
256,192,139521,5,0,0:0:0:0:
256,192,139602,5,8,0:0:0:0:
256,192,139683,5,8,0:0:0:0:
256,192,139765,5,8,0:0:0:0:
256,192,139846,5,0,0:0:0:0:
256,192,139927,5,0,0:0:0:0:
256,192,140009,5,0,0:0:0:0:
256,192,140090,5,8,0:0:0:0:
256,192,140171,5,0,0:0:0:0:
256,192,140253,5,8,0:0:0:0:
256,192,140334,5,0,0:0:0:0:
256,192,140415,5,8,0:0:0:0:
256,192,140496,5,0,0:0:0:0:
256,192,140578,5,8,0:0:0:0:
256,192,140659,5,0,0:0:0:0:
256,192,140740,5,0,0:0:0:0:
256,192,140822,5,0,0:0:0:0:
256,192,140903,5,8,0:0:0:0:
256,192,140984,5,8,0:0:0:0:
256,192,141066,5,8,0:0:0:0:
256,192,141147,5,0,0:0:0:0:
256,192,141228,5,8,0:0:0:0:
256,192,141309,5,0,0:0:0:0:
256,192,141391,5,0,0:0:0:0:
256,192,141472,5,0,0:0:0:0:
256,192,141553,5,8,0:0:0:0:
256,192,141635,5,8,0:0:0:0:
256,192,141716,5,0,0:0:0:0:
256,192,141797,5,0,0:0:0:0:
256,192,141879,5,0,0:0:0:0:
256,192,141960,5,0,0:0:0:0:
256,192,142041,5,8,0:0:0:0:
256,192,142122,5,0,0:0:0:0:
256,192,142204,5,8,0:0:0:0:
256,192,142285,5,0,0:0:0:0:
256,192,142366,5,8,0:0:0:0:
256,192,142448,5,0,0:0:0:0:
256,192,142529,5,8,0:0:0:0:
256,192,142610,5,8,0:0:0:0:
256,192,142692,5,8,0:0:0:0:
256,192,142773,5,0,0:0:0:0:
256,192,142854,5,8,0:0:0:0:
256,192,142935,5,8,0:0:0:0:
256,192,143017,5,0,0:0:0:0:
256,192,143098,5,0,0:0:0:0:
256,192,143179,5,8,0:0:0:0:
256,192,143261,5,0,0:0:0:0:
256,192,143342,5,0,0:0:0:0:
256,192,143423,5,0,0:0:0:0:
256,192,143505,5,8,0:0:0:0:
256,192,143586,5,8,0:0:0:0:
256,192,143667,5,0,0:0:0:0:
256,192,143749,5,0,0:0:0:0:
256,192,143830,5,0,0:0:0:0:
256,192,143911,5,0,0:0:0:0:
256,192,143992,5,8,0:0:0:0:
256,192,144074,5,0,0:0:0:0:
256,192,144155,5,8,0:0:0:0:
256,192,144236,5,0,0:0:0:0:
256,192,144318,5,8,0:0:0:0:
256,192,144399,5,0,0:0:0:0:
256,192,144480,5,8,0:0:0:0:
256,192,144521,5,8,0:0:0:0:
256,192,144643,5,0,0:0:0:0:
256,192,144724,5,8,0:0:0:0:
256,192,144805,5,0,0:0:0:0:
256,192,144887,5,0,0:0:0:0:
256,192,144968,5,8,0:0:0:0:
256,192,145049,5,8,0:0:0:0:
256,192,145131,5,0,0:0:0:0:
256,192,145212,5,8,0:0:0:0:
256,192,145293,5,0,0:0:0:0:
256,192,145375,5,0,0:0:0:0:
256,192,145456,5,8,0:0:0:0:
256,192,145537,5,8,0:0:0:0:
256,192,145618,5,8,0:0:0:0:
256,192,145700,5,0,0:0:0:0:
256,192,145781,5,0,0:0:0:0:
256,192,145862,5,0,0:0:0:0:
256,192,145944,5,8,0:0:0:0:
256,192,146025,5,0,0:0:0:0:
256,192,146106,5,8,0:0:0:0:
256,192,146188,5,0,0:0:0:0:
256,192,146269,5,8,0:0:0:0:
256,192,146350,5,0,0:0:0:0:
256,192,146431,5,8,0:0:0:0:
256,192,146513,5,8,0:0:0:0:
256,192,146594,5,0,0:0:0:0:
256,192,146675,5,0,0:0:0:0:
256,192,146757,5,8,0:0:0:0:
256,192,146838,5,8,0:0:0:0:
256,192,146919,5,8,0:0:0:0:
256,192,147001,5,0,0:0:0:0:
256,192,147082,5,8,0:0:0:0:
256,192,147163,5,0,0:0:0:0:
256,192,147244,5,0,0:0:0:0:
256,192,147326,5,0,0:0:0:0:
256,192,147407,5,8,0:0:0:0:
256,192,147488,5,0,0:0:0:0:
256,192,147570,5,0,0:0:0:0:
256,192,147651,5,0,0:0:0:0:
256,192,147732,5,0,0:0:0:0:
256,192,147814,5,0,0:0:0:0:
256,192,147895,5,8,0:0:0:0:
256,192,147976,5,0,0:0:0:0:
256,192,148057,5,8,0:0:0:0:
256,192,148139,5,0,0:0:0:0:
256,192,148220,5,8,0:0:0:0:
256,192,148301,5,0,0:0:0:0:
256,192,148383,5,8,0:0:0:0:
256,192,148464,5,8,0:0:0:0:
256,192,148545,5,8,0:0:0:0:
256,192,148627,5,0,0:0:0:0:
256,192,148708,5,8,0:0:0:0:
256,192,148789,5,0,0:0:0:0:
256,192,148870,5,0,0:0:0:0:
256,192,148952,5,0,0:0:0:0:
256,192,149033,5,8,0:0:0:0:
256,192,149114,5,8,0:0:0:0:
256,192,149196,5,0,0:0:0:0:
256,192,149277,5,0,0:0:0:0:
256,192,149358,5,8,0:0:0:0:
256,192,149440,5,8,0:0:0:0:
256,192,149521,5,0,0:0:0:0:
256,192,149602,5,0,0:0:0:0:
256,192,149683,5,0,0:0:0:0:
256,192,149765,5,0,0:0:0:0:
256,192,149846,5,8,0:0:0:0:
256,192,149927,5,0,0:0:0:0:
256,192,150009,5,8,0:0:0:0:
256,192,150090,5,0,0:0:0:0:
256,192,150171,5,8,0:0:0:0:
256,192,150253,5,0,0:0:0:0:
256,192,150334,5,8,0:0:0:0:
256,192,150415,5,8,0:0:0:0:
256,192,150496,5,8,0:0:0:0:
256,192,150578,5,0,0:0:0:0:
256,192,150659,5,8,0:0:0:0:
256,192,150740,5,8,0:0:0:0:
256,192,150822,5,8,0:0:0:0:
256,192,150903,5,0,0:0:0:0:
256,192,150984,5,8,0:0:0:0:
256,192,151066,5,0,0:0:0:0:
256,192,151147,5,0,0:0:0:0:
256,192,151228,5,0,0:0:0:0:
256,192,151309,5,8,0:0:0:0:
256,192,151391,5,0,0:0:0:0:
256,192,151472,5,0,0:0:0:0:
256,192,151553,5,0,0:0:0:0:
256,192,151635,5,0,0:0:0:0:
256,192,151716,5,0,0:0:0:0:
256,192,151797,5,8,0:0:0:0:
256,192,151879,5,0,0:0:0:0:
256,192,151960,5,8,0:0:0:0:
256,192,152041,5,0,0:0:0:0:
256,192,152122,5,8,0:0:0:0:
256,192,152204,5,0,0:0:0:0:
256,192,152285,5,8,0:0:0:0:
256,192,152326,5,8,0:0:0:0:
256,192,152448,5,0,0:0:0:0:
256,192,152488,5,0,0:0:0:0:
256,192,152610,5,0,0:0:0:0:
256,192,152651,5,0,0:0:0:0:
256,192,152773,5,8,0:0:0:0:
256,192,152814,5,8,0:0:0:0:
256,192,152935,5,4,0:0:0:0:
256,192,153098,5,4,0:0:0:0:
256,192,153261,5,12,0:0:0:0:
256,192,153505,5,0,0:0:0:0:
256,192,153566,5,0,0:0:0:0:
256,192,153627,5,0,0:0:0:0:
256,192,153688,5,0,0:0:0:0:
256,192,153748,5,8,0:0:0:0:
256,192,153789,5,8,0:0:0:0:
256,192,153911,5,0,0:0:0:0:
256,192,153952,5,0,0:0:0:0:
256,192,154074,5,0,0:0:0:0:
256,192,154114,5,0,0:0:0:0:
256,192,154236,5,12,0:0:0:0:
256,192,154562,5,4,0:0:0:0:
256,192,154887,5,4,0:0:0:0:
256,192,155212,5,12,0:0:0:0:
256,192,155456,5,0,0:0:0:0:
256,192,155517,5,0,0:0:0:0:
256,192,155578,5,0,0:0:0:0:
256,192,155639,5,0,0:0:0:0:
256,192,155700,5,8,0:0:0:0:
256,192,155740,5,8,0:0:0:0:
256,192,155862,5,0,0:0:0:0:
256,192,155903,5,0,0:0:0:0:
256,192,156025,5,0,0:0:0:0:
256,192,156066,5,0,0:0:0:0:
256,192,156188,5,12,0:0:0:0:
256,192,156513,5,12,0:0:0:0:
256,192,156838,5,4,0:0:0:0:
256,192,157163,5,12,0:0:0:0:
256,192,157407,5,0,0:0:0:0:
256,192,157468,5,0,0:0:0:0:
256,192,157529,5,0,0:0:0:0:
256,192,157590,5,0,0:0:0:0:
256,192,157651,5,8,0:0:0:0:
256,192,157692,5,8,0:0:0:0:
256,192,157814,5,0,0:0:0:0:
256,192,157854,5,0,0:0:0:0:
256,192,157976,5,0,0:0:0:0:
256,192,158017,5,0,0:0:0:0:
256,192,158139,5,4,0:0:0:0:
256,192,158464,5,12,0:0:0:0:
256,192,158789,5,4,0:0:0:0:
256,192,159114,5,12,0:0:0:0:
256,192,159358,5,0,0:0:0:0:
256,192,159419,5,0,0:0:0:0:
256,192,159480,5,0,0:0:0:0:
256,192,159541,5,0,0:0:0:0:
256,192,159602,5,8,0:0:0:0:
256,192,159643,5,8,0:0:0:0:
256,192,159765,5,0,0:0:0:0:
256,192,159805,5,0,0:0:0:0:
256,192,159927,5,0,0:0:0:0:
256,192,159968,5,0,0:0:0:0:
256,192,160090,5,8,0:0:0:0:
256,192,160171,5,8,0:0:0:0:
256,192,160253,5,8,0:0:0:0:
256,192,160334,5,0,0:0:0:0:
256,192,160415,5,0,0:0:0:0:
256,192,160496,5,0,0:0:0:0:
256,192,160578,5,8,0:0:0:0:
256,192,160659,5,8,0:0:0:0:
256,192,160740,5,8,0:0:0:0:
256,192,160822,5,0,0:0:0:0:
256,192,160903,5,8,0:0:0:0:
256,192,160984,5,0,0:0:0:0:
256,192,161066,5,12,0:0:0:0:
256,192,161309,5,0,0:0:0:0:
256,192,161370,5,0,0:0:0:0:
256,192,161431,5,0,0:0:0:0:
256,192,161492,5,0,0:0:0:0:
256,192,161553,5,8,0:0:0:0:
256,192,161594,5,8,0:0:0:0:
256,192,161716,5,0,0:0:0:0:
256,192,161757,5,0,0:0:0:0:
256,192,161879,5,0,0:0:0:0:
256,192,161919,5,0,0:0:0:0:
256,192,162041,5,12,0:0:0:0:
256,192,162366,5,4,0:0:0:0:
256,192,162692,5,12,0:0:0:0:
256,192,163017,5,12,0:0:0:0:
256,192,163261,5,0,0:0:0:0:
256,192,163322,5,0,0:0:0:0:
256,192,163383,5,0,0:0:0:0:
256,192,163444,5,0,0:0:0:0:
256,192,163505,5,8,0:0:0:0:
256,192,163545,5,8,0:0:0:0:
256,192,163667,5,0,0:0:0:0:
256,192,163708,5,0,0:0:0:0:
256,192,163830,5,0,0:0:0:0:
256,192,163870,5,0,0:0:0:0:
256,192,163992,5,12,0:0:0:0:
256,192,164318,5,12,0:0:0:0:
256,192,164643,5,4,0:0:0:0:
256,192,164968,5,12,0:0:0:0:
256,192,165212,5,0,0:0:0:0:
256,192,165273,5,0,0:0:0:0:
256,192,165334,5,0,0:0:0:0:
256,192,165395,5,0,0:0:0:0:
256,192,165456,5,8,0:0:0:0:
256,192,165496,5,8,0:0:0:0:
256,192,165618,5,0,0:0:0:0:
256,192,165659,5,0,0:0:0:0:
256,192,165781,5,0,0:0:0:0:
256,192,165822,5,0,0:0:0:0:
256,192,165944,5,12,0:0:0:0:
256,192,166269,5,12,0:0:0:0:
256,192,166594,5,12,0:0:0:0:
256,192,166919,5,4,0:0:0:0:
256,192,167407,5,8,0:0:0:0:
256,192,167570,5,8,0:0:0:0:
256,192,167732,5,0,0:0:0:0:
256,192,167895,5,8,0:0:0:0:
256,192,167935,5,8,0:0:0:0:
256,192,168057,5,0,0:0:0:0:
256,192,168098,5,0,0:0:0:0:
256,192,168220,5,0,0:0:0:0:
256,192,168383,5,8,0:0:0:0:
256,192,168423,5,8,0:0:0:0:
256,192,168545,5,12,0:0:0:0:
256,192,168708,5,4,0:0:0:0:
256,192,169709,5,12,0:0:0:0:
256,192,170128,5,12,0:0:0:0:
256,192,170548,5,0,0:0:0:0:
256,192,170687,5,0,0:0:0:0:
256,192,170757,5,0,0:0:0:0:
256,192,170827,5,0,0:0:0:0:
256,192,170897,5,0,0:0:0:0:
256,192,170967,5,8,0:0:0:0:
256,192,171107,5,0,0:0:0:0:
256,192,171177,5,8,0:0:0:0:
256,192,171247,5,0,0:0:0:0:
256,192,171317,5,0,0:0:0:0:
256,192,171387,5,8,0:0:0:0:
256,192,171527,5,0,0:0:0:0:
256,192,171596,5,0,0:0:0:0:
256,192,171666,5,8,0:0:0:0:
256,192,171736,5,0,0:0:0:0:
256,192,171806,5,8,0:0:0:0:
256,192,171946,5,8,0:0:0:0:
256,192,172016,5,8,0:0:0:0:
256,192,172086,5,0,0:0:0:0:
256,192,172156,5,0,0:0:0:0:
256,192,172226,5,8,0:0:0:0:
256,192,172366,5,0,0:0:0:0:
256,192,172436,5,0,0:0:0:0:
256,192,172506,5,0,0:0:0:0:
256,192,172575,5,0,0:0:0:0:
256,192,172645,5,8,0:0:0:0:
256,192,172785,5,0,0:0:0:0:
256,192,172855,5,8,0:0:0:0:
256,192,172925,5,0,0:0:0:0:
256,192,172995,5,0,0:0:0:0:
256,192,173065,5,8,0:0:0:0:
256,192,173205,5,0,0:0:0:0:
256,192,173275,5,0,0:0:0:0:
256,192,173345,5,8,0:0:0:0:
256,192,173415,5,8,0:0:0:0:
256,192,173485,5,8,0:0:0:0:
256,192,173624,5,8,0:0:0:0:
256,192,173694,5,0,0:0:0:0:
256,192,173764,5,0,0:0:0:0:
256,192,173834,5,0,0:0:0:0:
256,192,173904,5,8,0:0:0:0:
256,192,174044,5,0,0:0:0:0:
256,192,174114,5,0,0:0:0:0:
256,192,174184,5,0,0:0:0:0:
256,192,174254,5,0,0:0:0:0:
256,192,174324,5,8,0:0:0:0:
256,192,174464,5,0,0:0:0:0:
256,192,174534,5,8,0:0:0:0:
256,192,174603,5,0,0:0:0:0:
256,192,174673,5,0,0:0:0:0:
256,192,174743,5,8,0:0:0:0:
256,192,174883,5,0,0:0:0:0:
256,192,174953,5,0,0:0:0:0:
256,192,175023,5,8,0:0:0:0:
256,192,175093,5,0,0:0:0:0:
256,192,175163,5,8,0:0:0:0:
256,192,175303,5,8,0:0:0:0:
256,192,175373,5,0,0:0:0:0:
256,192,175443,5,0,0:0:0:0:
256,192,175513,5,0,0:0:0:0:
256,192,175582,5,8,0:0:0:0:
256,192,175652,5,8,0:0:0:0:
256,192,175722,5,0,0:0:0:0:
256,192,175792,5,0,0:0:0:0:
256,192,175862,5,0,0:0:0:0:
256,192,175932,5,0,0:0:0:0:
256,192,176002,5,8,0:0:0:0:
256,192,176072,5,0,0:0:0:0:
256,192,176142,5,0,0:0:0:0:
256,192,176212,5,0,0:0:0:0:
256,192,176282,5,0,0:0:0:0:
256,192,176352,5,0,0:0:0:0:
256,192,176422,5,8,0:0:0:0:
256,192,176492,5,0,0:0:0:0:
256,192,176561,5,8,0:0:0:0:
256,192,176631,5,8,0:0:0:0:
256,192,176701,5,0,0:0:0:0:
256,192,176771,5,0,0:0:0:0:
256,192,176841,5,8,0:0:0:0:
256,192,176911,5,0,0:0:0:0:
256,192,176981,5,8,0:0:0:0:
256,192,177051,5,0,0:0:0:0:
256,192,177121,5,8,0:0:0:0:
256,192,177191,5,8,0:0:0:0:
256,192,177261,5,0,0:0:0:0:
256,192,177401,5,0,0:0:0:0:
256,192,177471,5,0,0:0:0:0:
256,192,177541,5,0,0:0:0:0:
256,192,177610,5,0,0:0:0:0:
256,192,177680,5,8,0:0:0:0:
256,192,177820,5,0,0:0:0:0:
256,192,177890,5,0,0:0:0:0:
256,192,177960,5,0,0:0:0:0:
256,192,178030,5,0,0:0:0:0:
256,192,178100,5,8,0:0:0:0:
256,192,178240,5,0,0:0:0:0:
256,192,178310,5,0,0:0:0:0:
256,192,178380,5,8,0:0:0:0:
256,192,178450,5,0,0:0:0:0:
256,192,178520,5,8,0:0:0:0:
256,192,178659,5,8,0:0:0:0:
256,192,178729,5,0,0:0:0:0:
256,192,178799,5,0,0:0:0:0:
256,192,178869,5,0,0:0:0:0:
256,192,178939,5,8,0:0:0:0:
256,192,179079,5,0,0:0:0:0:
256,192,179149,5,0,0:0:0:0:
256,192,179219,5,0,0:0:0:0:
256,192,179289,5,0,0:0:0:0:
256,192,179359,5,8,0:0:0:0:
256,192,179499,5,0,0:0:0:0:
256,192,179568,5,0,0:0:0:0:
256,192,179638,5,0,0:0:0:0:
256,192,179708,5,0,0:0:0:0:
256,192,179778,5,8,0:0:0:0:
256,192,179918,5,0,0:0:0:0:
256,192,179988,5,0,0:0:0:0:
256,192,180058,5,8,0:0:0:0:
256,192,180128,5,0,0:0:0:0:
256,192,180198,5,8,0:0:0:0:
256,192,180338,5,8,0:0:0:0:
256,192,180408,5,0,0:0:0:0:
256,192,180478,5,0,0:0:0:0:
256,192,180548,5,0,0:0:0:0:
256,192,180617,5,8,0:0:0:0:
256,192,180757,5,0,0:0:0:0:
256,192,180827,5,0,0:0:0:0:
256,192,180897,5,0,0:0:0:0:
256,192,180967,5,0,0:0:0:0:
256,192,181037,5,8,0:0:0:0:
256,192,181177,5,0,0:0:0:0:
256,192,181247,5,0,0:0:0:0:
256,192,181317,5,0,0:0:0:0:
256,192,181387,5,0,0:0:0:0:
256,192,181457,5,8,0:0:0:0:
256,192,181596,5,0,0:0:0:0:
256,192,181666,5,0,0:0:0:0:
256,192,181736,5,8,0:0:0:0:
256,192,181806,5,0,0:0:0:0:
256,192,181876,5,8,0:0:0:0:
256,192,182016,5,8,0:0:0:0:
256,192,182086,5,8,0:0:0:0:
256,192,182156,5,0,0:0:0:0:
256,192,182226,5,0,0:0:0:0:
256,192,182296,5,8,0:0:0:0:
256,192,182366,5,0,0:0:0:0:
256,192,182436,5,0,0:0:0:0:
256,192,182506,5,0,0:0:0:0:
256,192,182575,5,0,0:0:0:0:
256,192,182645,5,0,0:0:0:0:
256,192,182715,5,8,0:0:0:0:
256,192,182785,5,8,0:0:0:0:
256,192,182855,5,8,0:0:0:0:
256,192,182925,5,0,0:0:0:0:
256,192,182995,5,0,0:0:0:0:
256,192,183065,5,0,0:0:0:0:
256,192,183135,5,8,0:0:0:0:
256,192,183205,5,0,0:0:0:0:
256,192,183275,5,8,0:0:0:0:
256,192,183345,5,0,0:0:0:0:
256,192,183415,5,8,0:0:0:0:
256,192,183485,5,0,0:0:0:0:
256,192,183554,5,8,0:0:0:0:
256,192,183624,5,0,0:0:0:0:
256,192,183694,5,8,0:0:0:0:
256,192,183764,5,0,0:0:0:0:
256,192,183834,5,8,0:0:0:0:
256,192,183974,5,8,0:0:0:0:
256,192,184044,5,0,0:0:0:0:
256,192,184114,5,0,0:0:0:0:
256,192,184184,5,0,0:0:0:0:
256,192,184254,5,0,0:0:0:0:
256,192,184324,5,0,0:0:0:0:
256,192,184394,5,8,0:0:0:0:
256,192,184464,5,8,0:0:0:0:
256,192,184534,5,8,0:0:0:0:
256,192,184603,5,0,0:0:0:0:
256,192,184673,5,0,0:0:0:0:
256,192,184743,5,0,0:0:0:0:
256,192,184813,5,8,0:0:0:0:
256,192,184883,5,0,0:0:0:0:
256,192,184953,5,0,0:0:0:0:
256,192,185023,5,0,0:0:0:0:
256,192,185093,5,8,0:0:0:0:
256,192,185163,5,0,0:0:0:0:
256,192,185233,5,8,0:0:0:0:
256,192,185303,5,0,0:0:0:0:
256,192,185373,5,8,0:0:0:0:
256,192,185443,5,8,0:0:0:0:
256,192,185513,5,0,0:0:0:0:
256,192,185582,5,0,0:0:0:0:
256,192,185652,5,8,0:0:0:0:
256,192,185722,5,8,0:0:0:0:
256,192,185792,5,8,0:0:0:0:
256,192,185862,5,0,0:0:0:0:
256,192,185932,5,0,0:0:0:0:
256,192,186002,5,0,0:0:0:0:
256,192,186072,5,8,0:0:0:0:
256,192,186142,5,8,0:0:0:0:
256,192,186212,5,0,0:0:0:0:
256,192,186282,5,0,0:0:0:0:
256,192,186352,5,0,0:0:0:0:
256,192,186422,5,0,0:0:0:0:
256,192,186492,5,8,0:0:0:0:
256,192,186561,5,0,0:0:0:0:
256,192,186631,5,0,0:0:0:0:
256,192,186701,5,0,0:0:0:0:
256,192,186771,5,8,0:0:0:0:
256,192,186841,5,8,0:0:0:0:
256,192,186911,5,8,0:0:0:0:
256,192,186981,5,0,0:0:0:0:
256,192,187051,5,8,0:0:0:0:
256,192,187121,5,8,0:0:0:0:
256,192,187191,5,0,0:0:0:0:
256,192,187261,5,0,0:0:0:0:
256,192,187331,5,8,0:0:0:0:
256,192,187401,5,8,0:0:0:0:
256,192,187471,5,0,0:0:0:0:
256,192,187541,5,0,0:0:0:0:
256,192,187610,5,0,0:0:0:0:
256,192,187680,5,0,0:0:0:0:
256,192,187750,5,8,0:0:0:0:
256,192,187820,5,8,0:0:0:0:
256,192,187890,5,8,0:0:0:0:
256,192,187960,5,8,0:0:0:0:
256,192,188030,5,0,0:0:0:0:
256,192,188100,5,0,0:0:0:0:
256,192,188170,5,8,0:0:0:0:
256,192,188240,5,0,0:0:0:0:
256,192,188310,5,0,0:0:0:0:
256,192,188380,5,0,0:0:0:0:
256,192,188450,5,8,0:0:0:0:
256,192,188520,5,0,0:0:0:0:
256,192,188589,5,8,0:0:0:0:
256,192,188659,5,0,0:0:0:0:
256,192,188729,5,8,0:0:0:0:
256,192,188799,5,0,0:0:0:0:
256,192,188869,5,0,0:0:0:0:
256,192,188939,5,0,0:0:0:0:
256,192,189009,5,8,0:0:0:0:
256,192,189079,5,8,0:0:0:0:
256,192,189149,5,8,0:0:0:0:
256,192,189219,5,0,0:0:0:0:
256,192,189289,5,0,0:0:0:0:
256,192,189359,5,0,0:0:0:0:
256,192,189429,5,8,0:0:0:0:
256,192,189499,5,0,0:0:0:0:
256,192,189568,5,0,0:0:0:0:
256,192,189638,5,0,0:0:0:0:
256,192,189708,5,0,0:0:0:0:
256,192,189778,5,0,0:0:0:0:
256,192,189848,5,8,0:0:0:0:
256,192,189918,5,0,0:0:0:0:
256,192,189988,5,8,0:0:0:0:
256,192,190058,5,0,0:0:0:0:
256,192,190128,5,8,0:0:0:0:
256,192,190198,5,0,0:0:0:0:
256,192,190268,5,8,0:0:0:0:
256,192,190338,5,0,0:0:0:0:
256,192,190408,5,8,0:0:0:0:
256,192,190478,5,0,0:0:0:0:
256,192,190548,5,8,0:0:0:0:
256,192,190687,5,8,0:0:0:0:
256,192,190757,5,8,0:0:0:0:
256,192,190827,5,8,0:0:0:0:
256,192,190897,5,0,0:0:0:0:
256,192,190967,5,0,0:0:0:0:
256,192,191037,5,0,0:0:0:0:
256,192,191107,5,8,0:0:0:0:
256,192,191177,5,8,0:0:0:0:
256,192,191247,5,0,0:0:0:0:
256,192,191317,5,0,0:0:0:0:
256,192,191387,5,0,0:0:0:0:
256,192,191457,5,0,0:0:0:0:
256,192,191527,5,8,0:0:0:0:
256,192,191596,5,0,0:0:0:0:
256,192,191666,5,0,0:0:0:0:
256,192,191736,5,0,0:0:0:0:
256,192,191806,5,8,0:0:0:0:
256,192,191876,5,0,0:0:0:0:
256,192,191946,5,8,0:0:0:0:
256,192,192016,5,0,0:0:0:0:
256,192,192086,5,8,0:0:0:0:
256,192,192156,5,0,0:0:0:0:
256,192,192226,5,0,0:0:0:0:
256,192,192296,5,0,0:0:0:0:
256,192,192366,5,8,0:0:0:0:
256,192,192436,5,8,0:0:0:0:
256,192,192506,5,8,0:0:0:0:
256,192,192575,5,0,0:0:0:0:
256,192,192645,5,0,0:0:0:0:
256,192,192715,5,0,0:0:0:0:
256,192,192785,5,8,0:0:0:0:
256,192,192855,5,8,0:0:0:0:
256,192,192925,5,0,0:0:0:0:
256,192,192995,5,0,0:0:0:0:
256,192,193065,5,0,0:0:0:0:
256,192,193135,5,0,0:0:0:0:
256,192,193205,5,8,0:0:0:0:
256,192,193275,5,0,0:0:0:0:
256,192,193345,5,0,0:0:0:0:
256,192,193415,5,0,0:0:0:0:
256,192,193485,5,8,0:0:0:0:
256,192,193554,5,0,0:0:0:0:
256,192,193624,5,8,0:0:0:0:
256,192,193694,5,0,0:0:0:0:
256,192,193764,5,8,0:0:0:0:
256,192,193834,5,0,0:0:0:0:
256,192,193904,5,0,0:0:0:0:
256,192,193974,5,0,0:0:0:0:
256,192,194044,5,8,0:0:0:0:
256,192,194114,5,0,0:0:0:0:
256,192,194184,5,0,0:0:0:0:
256,192,194254,5,0,0:0:0:0:
256,192,194324,5,0,0:0:0:0:
256,192,194394,5,0,0:0:0:0:
256,192,194464,5,8,0:0:0:0:
256,192,194534,5,8,0:0:0:0:
256,192,194603,5,0,0:0:0:0:
256,192,194673,5,0,0:0:0:0:
256,192,194743,5,0,0:0:0:0:
256,192,194813,5,0,0:0:0:0:
256,192,194883,5,8,0:0:0:0:
256,192,194953,5,0,0:0:0:0:
256,192,195023,5,0,0:0:0:0:
256,192,195093,5,0,0:0:0:0:
256,192,195163,5,8,0:0:0:0:
256,192,195233,5,0,0:0:0:0:
256,192,195303,5,8,0:0:0:0:
256,192,195373,5,0,0:0:0:0:
256,192,195443,5,8,0:0:0:0:
256,192,195513,5,8,0:0:0:0:
256,192,195582,5,0,0:0:0:0:
256,192,195652,5,0,0:0:0:0:
256,192,195722,5,8,0:0:0:0:
256,192,195757,5,8,0:0:0:0:
256,192,195862,5,0,0:0:0:0:
256,192,196002,5,0,0:0:0:0:
256,192,196142,5,8,0:0:0:0:
256,192,196177,5,8,0:0:0:0:
256,192,196282,5,0,0:0:0:0:
256,192,196422,5,0,0:0:0:0:
256,192,196561,5,8,0:0:0:0:
256,192,196631,1,8,0:0:0:0:
256,192,196701,1,8,0:0:0:0:
256,192,196771,1,0,0:0:0:0:
256,192,196841,1,0,0:0:0:0:
256,192,196911,1,0,0:0:0:0:
256,192,196981,1,8,0:0:0:0:
256,192,197051,1,8,0:0:0:0:
256,192,197121,1,8,0:0:0:0:
256,192,197191,1,0,0:0:0:0:
256,192,197261,1,0,0:0:0:0:
256,192,197331,1,0,0:0:0:0:
256,192,197401,1,12,0:0:0:0:
256,192,197541,5,0,0:0:0:0:
256,192,197610,5,0,0:0:0:0:
256,192,197680,5,0,0:0:0:0:
256,192,197820,5,8,0:0:0:0:
256,192,197960,5,0,0:0:0:0:
256,192,198100,5,0,0:0:0:0:
256,192,198240,5,8,0:0:0:0:
256,192,198380,5,0,0:0:0:0:
256,192,198450,5,0,0:0:0:0:
256,192,198520,5,0,0:0:0:0:
256,192,198659,5,8,0:0:0:0:
256,192,198799,5,8,0:0:0:0:
256,192,198939,5,0,0:0:0:0:
256,192,199079,5,8,0:0:0:0:
256,192,199149,5,8,0:0:0:0:
256,192,199219,5,8,0:0:0:0:
256,192,199289,5,8,0:0:0:0:
256,192,199359,5,0,0:0:0:0:
256,192,199429,5,0,0:0:0:0:
256,192,199499,5,8,0:0:0:0:
256,192,199638,5,0,0:0:0:0:
256,192,199778,5,8,0:0:0:0:
256,192,199918,5,0,0:0:0:0:
256,192,199988,5,8,0:0:0:0:
256,192,200058,5,8,0:0:0:0:
256,192,200128,5,8,0:0:0:0:
256,192,200198,5,0,0:0:0:0:
256,192,200268,5,0,0:0:0:0:
256,192,200338,5,8,0:0:0:0:
256,192,200478,5,0,0:0:0:0:
256,192,200617,5,8,0:0:0:0:
256,192,200757,5,0,0:0:0:0:
256,192,200827,5,8,0:0:0:0:
256,192,200897,5,0,0:0:0:0:
256,192,200967,5,0,0:0:0:0:
256,192,201037,5,0,0:0:0:0:
256,192,201107,5,0,0:0:0:0:
256,192,201177,5,8,0:0:0:0:
256,192,201317,5,0,0:0:0:0:
256,192,201457,5,0,0:0:0:0:
256,192,201596,5,8,0:0:0:0:
256,192,201736,5,8,0:0:0:0:
256,192,201806,5,8,0:0:0:0:
256,192,201876,5,0,0:0:0:0:
256,192,202016,5,8,0:0:0:0:
256,192,202156,5,0,0:0:0:0:
256,192,202296,5,8,0:0:0:0:
256,192,202436,5,8,0:0:0:0:
256,192,202506,5,8,0:0:0:0:
256,192,202575,5,8,0:0:0:0:
256,192,202645,5,0,0:0:0:0:
256,192,202715,5,0,0:0:0:0:
256,192,202785,5,0,0:0:0:0:
256,192,202855,5,8,0:0:0:0:
256,192,202995,5,0,0:0:0:0:
256,192,203135,5,8,0:0:0:0:
256,192,203275,5,8,0:0:0:0:
256,192,203415,5,8,0:0:0:0:
256,192,203485,5,8,0:0:0:0:
256,192,203554,5,0,0:0:0:0:
256,192,203694,5,8,0:0:0:0:
256,192,203764,5,8,0:0:0:0:
256,192,203834,5,8,0:0:0:0:
256,192,203904,5,8,0:0:0:0:
256,192,203974,5,0,0:0:0:0:
256,192,204044,5,0,0:0:0:0:
256,192,204114,5,12,0:0:0:0:
256,192,204254,5,0,0:0:0:0:
256,192,204324,5,0,0:0:0:0:
256,192,204394,5,0,0:0:0:0:
256,192,204534,5,8,0:0:0:0:
256,192,204673,5,0,0:0:0:0:
256,192,204813,5,0,0:0:0:0:
256,192,204953,5,8,0:0:0:0:
256,192,205093,5,0,0:0:0:0:
256,192,205163,5,0,0:0:0:0:
256,192,205233,5,0,0:0:0:0:
256,192,205373,5,8,0:0:0:0:
256,192,205513,5,8,0:0:0:0:
256,192,205652,5,0,0:0:0:0:
256,192,205792,5,8,0:0:0:0:
256,192,205862,5,8,0:0:0:0:
256,192,205932,5,8,0:0:0:0:
256,192,206002,5,8,0:0:0:0:
256,192,206072,5,0,0:0:0:0:
256,192,206142,5,0,0:0:0:0:
256,192,206212,5,8,0:0:0:0:
256,192,206352,5,0,0:0:0:0:
256,192,206492,5,8,0:0:0:0:
256,192,206631,5,0,0:0:0:0:
256,192,206701,5,8,0:0:0:0:
256,192,206771,5,8,0:0:0:0:
256,192,206841,5,8,0:0:0:0:
256,192,206911,5,0,0:0:0:0:
256,192,206981,5,0,0:0:0:0:
256,192,207051,5,8,0:0:0:0:
256,192,207191,5,0,0:0:0:0:
256,192,207331,5,8,0:0:0:0:
256,192,207471,5,0,0:0:0:0:
256,192,207541,5,8,0:0:0:0:
256,192,207610,5,8,0:0:0:0:
256,192,207680,5,0,0:0:0:0:
256,192,207750,5,0,0:0:0:0:
256,192,207820,5,0,0:0:0:0:
256,192,207890,5,8,0:0:0:0:
256,192,208030,5,0,0:0:0:0:
256,192,208170,5,0,0:0:0:0:
256,192,208310,5,8,0:0:0:0:
256,192,208450,5,8,0:0:0:0:
256,192,208520,5,8,0:0:0:0:
256,192,208589,5,0,0:0:0:0:
256,192,208729,5,8,0:0:0:0:
256,192,208869,5,0,0:0:0:0:
256,192,209009,5,8,0:0:0:0:
256,192,209149,5,8,0:0:0:0:
256,192,209219,5,8,0:0:0:0:
256,192,209289,5,8,0:0:0:0:
256,192,209359,5,0,0:0:0:0:
256,192,209429,5,0,0:0:0:0:
256,192,209499,5,0,0:0:0:0:
256,192,209568,5,8,0:0:0:0:
256,192,209708,5,0,0:0:0:0:
256,192,209848,5,0,0:0:0:0:
256,192,209988,5,8,0:0:0:0:
256,192,210058,5,8,0:0:0:0:
256,192,210128,5,8,0:0:0:0:
256,192,210198,5,0,0:0:0:0:
256,192,210268,5,8,0:0:0:0:
256,192,210338,5,8,0:0:0:0:
256,192,210408,5,8,0:0:0:0:
256,192,210478,5,0,0:0:0:0:
256,192,210548,5,0,0:0:0:0:
256,192,210617,5,0,0:0:0:0:
256,192,210687,5,0,0:0:0:0:
256,192,210827,5,8,0:0:0:0:
256,192,210897,5,8,0:0:0:0:
256,192,210967,5,0,0:0:0:0:
256,192,211037,5,0,0:0:0:0:
256,192,211107,5,0,0:0:0:0:
256,192,211177,5,0,0:0:0:0:
256,192,211247,5,8,0:0:0:0:
256,192,211317,5,0,0:0:0:0:
256,192,211387,5,8,0:0:0:0:
256,192,211457,5,0,0:0:0:0:
256,192,211527,5,8,0:0:0:0:
256,192,211596,5,0,0:0:0:0:
256,192,211666,5,8,0:0:0:0:
256,192,211736,5,0,0:0:0:0:
256,192,211806,5,8,0:0:0:0:
256,192,211876,5,8,0:0:0:0:
256,192,211946,5,0,0:0:0:0:
256,192,212016,5,0,0:0:0:0:
256,192,212086,5,8,0:0:0:0:
256,192,212156,5,0,0:0:0:0:
256,192,212226,5,8,0:0:0:0:
256,192,212296,5,8,0:0:0:0:
256,192,212366,5,0,0:0:0:0:
256,192,212436,5,0,0:0:0:0:
256,192,212506,5,8,0:0:0:0:
256,192,212575,5,8,0:0:0:0:
256,192,212645,5,8,0:0:0:0:
256,192,212715,5,8,0:0:0:0:
256,192,212785,5,0,0:0:0:0:
256,192,212855,5,0,0:0:0:0:
256,192,212925,5,8,0:0:0:0:
256,192,212995,5,0,0:0:0:0:
256,192,213065,5,8,0:0:0:0:
256,192,213135,5,0,0:0:0:0:
256,192,213205,5,8,0:0:0:0:
256,192,213275,5,8,0:0:0:0:
256,192,213345,5,0,0:0:0:0:
256,192,213415,5,8,0:0:0:0:
256,192,213485,5,8,0:0:0:0:
256,192,213554,5,8,0:0:0:0:
256,192,213624,5,0,0:0:0:0:
256,192,213694,5,0,0:0:0:0:
256,192,213764,5,8,0:0:0:0:
256,192,213834,5,8,0:0:0:0:
256,192,213904,5,0,0:0:0:0:
256,192,213974,5,0,0:0:0:0:
256,192,214044,5,8,0:0:0:0:
256,192,214114,5,0,0:0:0:0:
256,192,214184,5,8,0:0:0:0:
256,192,214254,5,0,0:0:0:0:
256,192,214324,5,8,0:0:0:0:
256,192,214394,5,0,0:0:0:0:
256,192,214464,5,0,0:0:0:0:
256,192,214534,5,0,0:0:0:0:
256,192,214603,5,8,0:0:0:0:
256,192,214673,5,0,0:0:0:0:
256,192,214743,5,8,0:0:0:0:
256,192,214813,5,0,0:0:0:0:
256,192,214883,5,8,0:0:0:0:
256,192,214953,5,0,0:0:0:0:
256,192,215023,5,8,0:0:0:0:
256,192,215093,5,0,0:0:0:0:
256,192,215163,5,8,0:0:0:0:
256,192,215233,5,8,0:0:0:0:
256,192,215303,5,0,0:0:0:0:
256,192,215373,5,8,0:0:0:0:
256,192,215443,5,8,0:0:0:0:
256,192,215513,5,0,0:0:0:0:
256,192,215582,5,8,0:0:0:0:
256,192,215652,5,0,0:0:0:0:
256,192,215722,5,8,0:0:0:0:
256,192,215792,5,0,0:0:0:0:
256,192,215862,5,8,0:0:0:0:
256,192,215932,5,8,0:0:0:0:
256,192,216002,5,8,0:0:0:0:
256,192,216072,5,0,0:0:0:0:
256,192,216142,5,0,0:0:0:0:
256,192,216212,5,0,0:0:0:0:
256,192,216282,5,8,0:0:0:0:
256,192,216352,5,8,0:0:0:0:
256,192,216422,5,0,0:0:0:0:
256,192,216492,5,0,0:0:0:0:
256,192,216561,5,8,0:0:0:0:
256,192,216631,5,0,0:0:0:0:
256,192,216701,5,8,0:0:0:0:
256,192,216771,5,8,0:0:0:0:
256,192,216841,5,8,0:0:0:0:
256,192,216911,5,8,0:0:0:0:
256,192,216981,5,0,0:0:0:0:
256,192,217051,5,0,0:0:0:0:
256,192,217121,5,8,0:0:0:0:
256,192,217191,5,8,0:0:0:0:
256,192,217261,5,8,0:0:0:0:
256,192,217331,5,8,0:0:0:0:
256,192,217401,5,0,0:0:0:0:
256,192,217541,5,8,0:0:0:0:
256,192,217610,5,8,0:0:0:0:
256,192,217680,5,0,0:0:0:0:
256,192,217750,5,0,0:0:0:0:
256,192,217820,5,0,0:0:0:0:
256,192,217890,5,0,0:0:0:0:
256,192,217960,5,8,0:0:0:0:
256,192,218030,5,0,0:0:0:0:
256,192,218100,5,8,0:0:0:0:
256,192,218170,5,0,0:0:0:0:
256,192,218240,5,8,0:0:0:0:
256,192,218310,5,0,0:0:0:0:
256,192,218380,5,8,0:0:0:0:
256,192,218450,5,8,0:0:0:0:
256,192,218520,5,0,0:0:0:0:
256,192,218589,5,0,0:0:0:0:
256,192,218659,5,8,0:0:0:0:
256,192,218729,5,0,0:0:0:0:
256,192,218799,5,8,0:0:0:0:
256,192,218869,5,0,0:0:0:0:
256,192,218939,5,8,0:0:0:0:
256,192,219009,5,8,0:0:0:0:
256,192,219079,5,0,0:0:0:0:
256,192,219149,5,0,0:0:0:0:
256,192,219219,5,8,0:0:0:0:
256,192,219289,5,8,0:0:0:0:
256,192,219359,5,8,0:0:0:0:
256,192,219429,5,8,0:0:0:0:
256,192,219499,5,0,0:0:0:0:
256,192,219568,5,0,0:0:0:0:
256,192,219638,5,8,0:0:0:0:
256,192,219708,5,0,0:0:0:0:
256,192,219778,5,8,0:0:0:0:
256,192,219848,5,0,0:0:0:0:
256,192,219918,5,8,0:0:0:0:
256,192,219988,5,8,0:0:0:0:
256,192,220058,5,0,0:0:0:0:
256,192,220128,5,8,0:0:0:0:
256,192,220198,5,8,0:0:0:0:
256,192,220268,5,8,0:0:0:0:
256,192,220338,5,0,0:0:0:0:
256,192,220408,5,0,0:0:0:0:
256,192,220478,5,8,0:0:0:0:
256,192,220548,5,8,0:0:0:0:
256,192,220617,5,0,0:0:0:0:
256,192,220687,5,0,0:0:0:0:
256,192,220757,5,8,0:0:0:0:
256,192,220827,5,8,0:0:0:0:
256,192,220897,5,0,0:0:0:0:
256,192,220967,5,8,0:0:0:0:
256,192,221037,5,8,0:0:0:0:
256,192,221107,5,0,0:0:0:0:
256,192,221177,5,0,0:0:0:0:
256,192,221247,5,0,0:0:0:0:
256,192,221317,5,8,0:0:0:0:
256,192,221387,5,0,0:0:0:0:
256,192,221457,5,8,0:0:0:0:
256,192,221527,5,0,0:0:0:0:
256,192,221596,5,8,0:0:0:0:
256,192,221666,5,0,0:0:0:0:
256,192,221736,5,8,0:0:0:0:
256,192,221806,5,0,0:0:0:0:
256,192,221876,5,8,0:0:0:0:
256,192,221946,5,8,0:0:0:0:
256,192,222016,5,0,0:0:0:0:
256,192,222086,5,0,0:0:0:0:
256,192,222156,5,8,0:0:0:0:
256,192,222226,5,0,0:0:0:0:
256,192,222296,5,8,0:0:0:0:
256,192,222366,5,0,0:0:0:0:
256,192,222436,5,8,0:0:0:0:
256,192,222506,5,0,0:0:0:0:
256,192,222575,5,8,0:0:0:0:
256,192,222645,5,8,0:0:0:0:
256,192,222715,5,8,0:0:0:0:
256,192,222785,5,0,0:0:0:0:
256,192,222855,5,0,0:0:0:0:
256,192,222925,5,0,0:0:0:0:
256,192,222995,5,8,0:0:0:0:
256,192,223065,5,8,0:0:0:0:
256,192,223135,5,0,0:0:0:0:
256,192,223205,5,8,0:0:0:0:
256,192,223275,5,0,0:0:0:0:
256,192,223345,5,0,0:0:0:0:
256,192,223415,5,8,0:0:0:0:
256,192,223554,5,8,0:0:0:0:
256,192,223694,5,8,0:0:0:0:
256,192,223834,5,8,0:0:0:0:
256,192,223974,5,0,0:0:0:0:
256,192,224114,5,0,0:0:0:0:
256,192,224254,5,8,0:0:0:0:
256,192,224324,5,8,0:0:0:0:
256,192,224394,5,0,0:0:0:0:
256,192,224464,5,0,0:0:0:0:
256,192,224534,5,8,0:0:0:0:
256,192,224673,5,8,0:0:0:0:
256,192,224743,5,8,0:0:0:0:
256,192,224813,5,0,0:0:0:0:
256,192,224883,5,0,0:0:0:0:
256,192,224953,5,0,0:0:0:0:
256,192,225093,5,8,0:0:0:0:
256,192,225163,5,0,0:0:0:0:
256,192,225233,5,8,0:0:0:0:
256,192,225303,5,8,0:0:0:0:
256,192,225373,5,0,0:0:0:0:
256,192,225443,5,0,0:0:0:0:
256,192,225513,5,8,0:0:0:0:
256,192,225652,5,0,0:0:0:0:
256,192,225792,5,0,0:0:0:0:
256,192,225932,5,8,0:0:0:0:
256,192,226002,5,0,0:0:0:0:
256,192,226072,5,8,0:0:0:0:
256,192,226142,5,8,0:0:0:0:
256,192,226212,5,0,0:0:0:0:
256,192,226352,5,8,0:0:0:0:
256,192,226422,5,0,0:0:0:0:
256,192,226492,5,0,0:0:0:0:
256,192,226561,5,0,0:0:0:0:
256,192,226631,5,0,0:0:0:0:
256,192,226771,5,8,0:0:0:0:
256,192,226911,5,0,0:0:0:0:
256,192,226981,5,0,0:0:0:0:
256,192,227051,5,0,0:0:0:0:
256,192,227191,5,8,0:0:0:0:
256,192,227331,5,0,0:0:0:0:
256,192,227471,5,0,0:0:0:0:
256,192,227610,5,8,0:0:0:0:
256,192,227680,5,8,0:0:0:0:
256,192,227750,5,8,0:0:0:0:
256,192,227820,5,8,0:0:0:0:
256,192,227890,5,0,0:0:0:0:
256,192,228030,5,8,0:0:0:0:
256,192,228100,5,8,0:0:0:0:
256,192,228170,5,8,0:0:0:0:
256,192,228240,5,0,0:0:0:0:
256,192,228310,5,0,0:0:0:0:
256,192,228450,5,8,0:0:0:0:
256,192,228520,5,8,0:0:0:0:
256,192,228589,5,0,0:0:0:0:
256,192,228659,5,0,0:0:0:0:
256,192,228729,5,0,0:0:0:0:
256,192,228799,5,0,0:0:0:0:
256,192,228869,5,8,0:0:0:0:
256,192,229009,5,0,0:0:0:0:
256,192,229149,5,0,0:0:0:0:
256,192,229289,5,8,0:0:0:0:
256,192,229359,5,8,0:0:0:0:
256,192,229429,5,8,0:0:0:0:
256,192,229499,5,0,0:0:0:0:
256,192,229568,5,0,0:0:0:0:
256,192,229638,5,0,0:0:0:0:
256,192,229708,5,8,0:0:0:0:
256,192,229848,5,8,0:0:0:0:
256,192,229988,5,8,0:0:0:0:
256,192,230128,5,0,0:0:0:0:
256,192,230268,5,0,0:0:0:0:
256,192,230338,5,0,0:0:0:0:
256,192,230408,5,0,0:0:0:0:
256,192,230548,5,8,0:0:0:0:
256,192,230687,5,8,0:0:0:0:
256,192,230827,5,8,0:0:0:0:
256,192,230967,5,8,0:0:0:0:
256,192,231037,5,0,0:0:0:0:
256,192,231107,5,8,0:0:0:0:
256,192,231177,5,8,0:0:0:0:
256,192,231247,5,0,0:0:0:0:
256,192,231317,5,0,0:0:0:0:
256,192,231387,5,8,0:0:0:0:
256,192,231527,5,0,0:0:0:0:
256,192,231666,5,0,0:0:0:0:
256,192,231806,5,8,0:0:0:0:
256,192,231876,5,0,0:0:0:0:
256,192,231946,5,8,0:0:0:0:
256,192,232016,5,0,0:0:0:0:
256,192,232086,5,0,0:0:0:0:
256,192,232156,5,0,0:0:0:0:
256,192,232226,5,8,0:0:0:0:
256,192,232366,5,0,0:0:0:0:
256,192,232506,5,0,0:0:0:0:
256,192,232645,5,8,0:0:0:0:
256,192,232715,5,0,0:0:0:0:
256,192,232785,5,8,0:0:0:0:
256,192,232855,5,8,0:0:0:0:
256,192,232925,5,0,0:0:0:0:
256,192,232995,5,0,0:0:0:0:
256,192,233065,5,8,0:0:0:0:
256,192,233205,5,0,0:0:0:0:
256,192,233345,5,0,0:0:0:0:
256,192,233485,5,8,0:0:0:0:
256,192,233624,5,0,0:0:0:0:
256,192,233694,5,0,0:0:0:0:
256,192,233764,5,8,0:0:0:0:
256,192,233904,5,8,0:0:0:0:
256,192,234044,5,0,0:0:0:0:
256,192,234184,5,8,0:0:0:0:
256,192,234324,5,8,0:0:0:0:
256,192,234394,5,8,0:0:0:0:
256,192,234464,5,8,0:0:0:0:
256,192,234534,5,0,0:0:0:0:
256,192,234603,5,0,0:0:0:0:
256,192,234673,5,0,0:0:0:0:
256,192,234743,5,8,0:0:0:0:
256,192,234883,5,0,0:0:0:0:
256,192,235023,5,0,0:0:0:0:
256,192,235163,5,8,0:0:0:0:
256,192,235233,5,8,0:0:0:0:
256,192,235303,5,0,0:0:0:0:
256,192,235373,5,0,0:0:0:0:
256,192,235443,5,0,0:0:0:0:
256,192,235513,5,0,0:0:0:0:
256,192,235582,5,8,0:0:0:0:
256,192,235722,5,0,0:0:0:0:
256,192,235862,5,0,0:0:0:0:
256,192,236002,5,8,0:0:0:0:
256,192,236072,5,0,0:0:0:0:
256,192,236142,5,8,0:0:0:0:
256,192,236212,5,8,0:0:0:0:
256,192,236282,5,8,0:0:0:0:
256,192,236352,5,0,0:0:0:0:
256,192,236422,5,8,0:0:0:0:
256,192,236561,5,8,0:0:0:0:
256,192,236701,5,8,0:0:0:0:
256,192,236841,5,0,0:0:0:0:
256,192,236981,5,8,0:0:0:0:
256,192,237051,5,0,0:0:0:0:
256,192,237121,5,0,0:0:0:0:
256,192,237261,5,8,0:0:0:0:
256,192,237401,5,8,0:0:0:0:
256,192,237541,5,8,0:0:0:0:
256,192,237680,5,0,0:0:0:0:
256,192,237750,5,0,0:0:0:0:
256,192,237820,5,0,0:0:0:0:
256,192,237890,5,0,0:0:0:0:
256,192,237960,5,0,0:0:0:0:
256,192,238030,5,0,0:0:0:0:
256,192,238100,5,8,0:0:0:0:
256,192,238170,5,0,0:0:0:0:
256,192,238240,5,0,0:0:0:0:
256,192,238310,5,0,0:0:0:0:
256,192,238380,5,0,0:0:0:0:
256,192,238450,5,0,0:0:0:0:
256,192,238520,5,0,0:0:0:0:
256,192,238589,5,0,0:0:0:0:
256,192,238659,5,0,0:0:0:0:
256,192,238729,5,0,0:0:0:0:
256,192,238799,5,8,0:0:0:0:
256,192,238869,5,0,0:0:0:0:
256,192,238939,5,8,0:0:0:0:
256,192,239009,5,0,0:0:0:0:
256,192,239079,5,0,0:0:0:0:
256,192,239149,5,8,0:0:0:0:
256,192,239219,5,8,0:0:0:0:
256,192,239289,5,0,0:0:0:0:
256,192,239359,5,8,0:0:0:0:
256,192,239429,5,8,0:0:0:0:
256,192,239499,5,8,0:0:0:0:
256,192,239568,5,0,0:0:0:0:
256,192,239638,5,0,0:0:0:0:
256,192,239708,5,0,0:0:0:0:
256,192,239778,5,8,0:0:0:0:
256,192,239848,5,0,0:0:0:0:
256,192,239918,5,0,0:0:0:0:
256,192,239988,5,8,0:0:0:0:
256,192,240058,5,8,0:0:0:0:
256,192,240128,5,8,0:0:0:0:
256,192,240198,5,0,0:0:0:0:
256,192,240268,5,0,0:0:0:0:
256,192,240338,5,0,0:0:0:0:
256,192,240408,5,0,0:0:0:0:
256,192,240478,5,8,0:0:0:0:
256,192,240548,5,0,0:0:0:0:
256,192,240617,5,8,0:0:0:0:
256,192,240687,5,0,0:0:0:0:
256,192,240757,5,0,0:0:0:0:
256,192,240827,5,8,0:0:0:0:
256,192,240897,5,0,0:0:0:0:
256,192,240967,5,0,0:0:0:0:
256,192,241037,5,8,0:0:0:0:
256,192,241107,5,8,0:0:0:0:
256,192,241177,5,0,0:0:0:0:
256,192,241247,5,0,0:0:0:0:
256,192,241317,5,8,0:0:0:0:
256,192,241387,5,0,0:0:0:0:
256,192,241457,5,8,0:0:0:0:
256,192,241527,5,0,0:0:0:0:
256,192,241596,5,0,0:0:0:0:
256,192,241666,5,8,0:0:0:0:
256,192,241736,5,0,0:0:0:0:
256,192,241806,5,0,0:0:0:0:
256,192,241876,5,8,0:0:0:0:
256,192,241946,5,8,0:0:0:0:
256,192,242016,5,8,0:0:0:0:
256,192,242086,5,0,0:0:0:0:
256,192,242156,5,0,0:0:0:0:
256,192,242226,5,0,0:0:0:0:
256,192,242296,5,8,0:0:0:0:
256,192,242366,5,8,0:0:0:0:
256,192,242436,5,0,0:0:0:0:
256,192,242506,5,0,0:0:0:0:
256,192,242575,5,8,0:0:0:0:
256,192,242645,5,0,0:0:0:0:
256,192,242715,5,8,0:0:0:0:
256,192,242785,5,8,0:0:0:0:
256,192,242855,5,0,0:0:0:0:
256,192,242925,5,0,0:0:0:0:
256,192,242995,5,8,0:0:0:0:
256,192,243065,5,0,0:0:0:0:
256,192,243135,5,8,0:0:0:0:
256,192,243205,5,0,0:0:0:0:
256,192,243275,5,0,0:0:0:0:
256,192,243345,5,8,0:0:0:0:
256,192,243415,5,0,0:0:0:0:
256,192,243485,5,0,0:0:0:0:
256,192,243554,5,8,0:0:0:0:
256,192,243624,5,8,0:0:0:0:
256,192,243694,5,8,0:0:0:0:
256,192,243764,5,0,0:0:0:0:
256,192,243834,5,0,0:0:0:0:
256,192,243904,5,0,0:0:0:0:
256,192,243974,5,8,0:0:0:0:
256,192,244044,5,0,0:0:0:0:
256,192,244114,5,8,0:0:0:0:
256,192,244184,5,0,0:0:0:0:
256,192,244254,5,8,0:0:0:0:
256,192,244324,5,8,0:0:0:0:
256,192,244394,5,0,0:0:0:0:
256,192,244464,5,0,0:0:0:0:
256,192,244534,5,0,0:0:0:0:
256,192,244603,5,8,0:0:0:0:
256,192,244673,5,8,0:0:0:0:
256,192,244743,5,0,0:0:0:0:
256,192,244813,5,8,0:0:0:0:
256,192,244883,5,8,0:0:0:0:
256,192,244953,5,8,0:0:0:0:
256,192,245023,5,0,0:0:0:0:
256,192,245093,5,0,0:0:0:0:
256,192,245163,5,0,0:0:0:0:
256,192,245233,5,8,0:0:0:0:
256,192,245303,5,8,0:0:0:0:
256,192,245373,5,8,0:0:0:0:
256,192,245443,5,8,0:0:0:0:
256,192,245513,5,0,0:0:0:0:
256,192,245582,5,0,0:0:0:0:
256,192,245652,5,8,0:0:0:0:
256,192,245722,5,0,0:0:0:0:
256,192,245792,5,8,0:0:0:0:
256,192,245862,5,8,0:0:0:0:
256,192,245932,5,0,0:0:0:0:
256,192,246002,5,0,0:0:0:0:
256,192,246072,5,8,0:0:0:0:
256,192,246142,5,8,0:0:0:0:
256,192,246212,5,8,0:0:0:0:
256,192,246282,5,0,0:0:0:0:
256,192,246352,5,8,0:0:0:0:
256,192,246422,5,0,0:0:0:0:
256,192,246492,5,8,0:0:0:0:
256,192,246561,5,0,0:0:0:0:
256,192,246631,5,0,0:0:0:0:
256,192,246701,5,8,0:0:0:0:
256,192,246771,5,0,0:0:0:0:
256,192,246841,5,0,0:0:0:0:
256,192,246911,5,8,0:0:0:0:
256,192,246981,5,8,0:0:0:0:
256,192,247051,5,8,0:0:0:0:
256,192,247121,5,0,0:0:0:0:
256,192,247191,5,0,0:0:0:0:
256,192,247261,5,0,0:0:0:0:
256,192,247331,5,8,0:0:0:0:
256,192,247401,5,0,0:0:0:0:
256,192,247471,5,0,0:0:0:0:
256,192,247541,5,8,0:0:0:0:
256,192,247610,5,0,0:0:0:0:
256,192,247680,5,8,0:0:0:0:
256,192,247750,5,8,0:0:0:0:
256,192,247820,5,0,0:0:0:0:
256,192,247890,5,8,0:0:0:0:
256,192,247960,5,8,0:0:0:0:
256,192,248030,5,0,0:0:0:0:
256,192,248100,5,0,0:0:0:0:
256,192,248170,5,8,0:0:0:0:
256,192,248240,5,0,0:0:0:0:
256,192,248310,5,8,0:0:0:0:
256,192,248380,5,8,0:0:0:0:
256,192,248450,5,0,0:0:0:0:
256,192,248520,5,0,0:0:0:0:
256,192,248589,5,8,0:0:0:0:
256,192,248659,1,8,0:0:0:0:
256,192,248729,1,8,0:0:0:0:
256,192,248799,1,8,0:0:0:0:
256,192,248869,1,0,0:0:0:0:
256,192,248939,1,0,0:0:0:0:
256,192,249009,1,8,0:0:0:0:
256,192,249079,1,8,0:0:0:0:
256,192,249149,1,8,0:0:0:0:
256,192,249219,1,8,0:0:0:0:
256,192,249289,1,0,0:0:0:0:
256,192,249359,1,0,0:0:0:0:
256,192,249429,1,8,0:0:0:0:
256,192,249568,5,0,0:0:0:0:
256,192,249638,5,8,0:0:0:0:
256,192,249708,5,0,0:0:0:0:
256,192,249778,5,0,0:0:0:0:
256,192,249848,5,8,0:0:0:0:
256,192,249988,5,0,0:0:0:0:
256,192,250128,5,8,0:0:0:0:
256,192,250268,5,0,0:0:0:0:
256,192,250408,5,0,0:0:0:0:
256,192,250478,5,0,0:0:0:0:
256,192,250548,5,0,0:0:0:0:
256,192,250617,5,0,0:0:0:0:
256,192,250687,5,8,0:0:0:0:
256,192,250827,5,0,0:0:0:0:
256,192,250967,5,0,0:0:0:0:
256,192,251107,5,8,0:0:0:0:
256,192,251177,5,8,0:0:0:0:
256,192,251247,5,0,0:0:0:0:
256,192,251317,5,0,0:0:0:0:
256,192,251387,5,8,0:0:0:0:
256,192,251457,5,0,0:0:0:0:
256,192,251527,5,8,0:0:0:0:
256,192,251666,5,8,0:0:0:0:
256,192,251806,5,8,0:0:0:0:
256,192,251946,5,8,0:0:0:0:
256,192,252086,5,0,0:0:0:0:
256,192,252226,5,0,0:0:0:0:
256,192,252366,5,8,0:0:0:0:
256,192,252506,5,0,0:0:0:0:
256,192,252645,5,0,0:0:0:0:
256,192,252785,5,0,0:0:0:0:
256,192,252855,5,0,0:0:0:0:
256,192,252925,5,0,0:0:0:0:
256,192,252995,5,8,0:0:0:0:
256,192,253065,5,0,0:0:0:0:
256,192,253135,5,0,0:0:0:0:
256,192,253205,5,8,0:0:0:0:
256,192,253345,5,0,0:0:0:0:
256,192,253485,5,0,0:0:0:0:
256,192,253624,5,8,0:0:0:0:
256,192,253694,5,0,0:0:0:0:
256,192,253764,5,8,0:0:0:0:
256,192,253834,5,8,0:0:0:0:
256,192,253904,5,0,0:0:0:0:
256,192,254044,5,8,0:0:0:0:
256,192,254114,5,8,0:0:0:0:
256,192,254184,5,8,0:0:0:0:
256,192,254254,5,0,0:0:0:0:
256,192,254324,5,0,0:0:0:0:
256,192,254464,5,8,0:0:0:0:
256,192,254534,5,0,0:0:0:0:
256,192,254603,5,8,0:0:0:0:
256,192,254673,5,8,0:0:0:0:
256,192,254743,5,0,0:0:0:0:
256,192,254813,5,0,0:0:0:0:
256,192,254883,5,8,0:0:0:0:
256,192,254953,5,8,0:0:0:0:
256,192,255023,5,0,0:0:0:0:
256,192,255093,5,8,0:0:0:0:
256,192,255163,5,0,0:0:0:0:
256,192,255233,5,0,0:0:0:0:
256,192,255303,5,8,0:0:0:0:
256,192,255373,5,8,0:0:0:0:
256,192,255443,5,8,0:0:0:0:
256,192,255513,5,8,0:0:0:0:
256,192,255582,5,0,0:0:0:0:
256,192,255652,5,0,0:0:0:0:
256,192,255722,5,8,0:0:0:0:
256,192,255792,5,0,0:0:0:0:
256,192,255862,5,8,0:0:0:0:
256,192,255932,5,0,0:0:0:0:
256,192,256002,5,8,0:0:0:0:
256,192,256072,5,8,0:0:0:0:
256,192,256142,5,0,0:0:0:0:
256,192,256212,5,0,0:0:0:0:
256,192,256282,5,0,0:0:0:0:
256,192,256352,5,0,0:0:0:0:
256,192,256422,5,0,0:0:0:0:
256,192,256492,5,0,0:0:0:0:
256,192,256561,5,8,0:0:0:0:
256,192,256701,5,0,0:0:0:0:
256,192,256841,5,0,0:0:0:0:
256,192,256981,5,8,0:0:0:0:
256,192,257121,5,0,0:0:0:0:
256,192,257191,5,0,0:0:0:0:
256,192,257261,5,0,0:0:0:0:
256,192,257331,5,0,0:0:0:0:
256,192,257401,5,8,0:0:0:0:
256,192,257541,5,0,0:0:0:0:
256,192,257680,5,0,0:0:0:0:
256,192,257820,5,0,0:0:0:0:
256,192,257890,5,8,0:0:0:0:
256,192,257960,5,8,0:0:0:0:
256,192,258030,5,0,0:0:0:0:
256,192,258100,5,0,0:0:0:0:
256,192,258170,5,0,0:0:0:0:
256,192,258240,5,8,0:0:0:0:
256,192,258310,5,0,0:0:0:0:
256,192,258380,5,0,0:0:0:0:
256,192,258450,5,8,0:0:0:0:
256,192,258520,5,8,0:0:0:0:
256,192,258589,5,0,0:0:0:0:
256,192,258659,5,8,0:0:0:0:
256,192,258799,5,0,0:0:0:0:
256,192,258939,5,0,0:0:0:0:
256,192,259079,5,8,0:0:0:0:
256,192,259219,5,0,0:0:0:0:
256,192,259359,5,0,0:0:0:0:
256,192,259499,5,8,0:0:0:0:
256,192,259568,5,0,0:0:0:0:
256,192,259638,5,8,0:0:0:0:
256,192,259708,5,8,0:0:0:0:
256,192,259778,5,0,0:0:0:0:
256,192,259848,5,0,0:0:0:0:
256,192,259918,5,8,0:0:0:0:
256,192,259988,5,0,0:0:0:0:
256,192,260058,5,8,0:0:0:0:
256,192,260128,5,8,0:0:0:0:
256,192,260198,5,0,0:0:0:0:
256,192,260268,5,0,0:0:0:0:
256,192,260338,5,8,0:0:0:0:
256,192,260408,5,8,0:0:0:0:
256,192,260478,5,8,0:0:0:0:
256,192,260548,5,0,0:0:0:0:
256,192,260617,5,0,0:0:0:0:
256,192,260687,5,0,0:0:0:0:
256,192,260757,5,8,0:0:0:0:
256,192,260862,1,8,0:0:0:0:
256,192,260967,1,8,0:0:0:0:
256,192,261072,1,8,0:0:0:0:
256,192,261177,1,0,0:0:0:0:
256,192,261281,5,8,0:0:0:0:
256,192,261386,5,8,0:0:0:0:
256,192,261491,5,0,0:0:0:0:
256,192,261596,5,8,0:0:0:0:
256,192,261701,5,8,0:0:0:0:
256,192,261806,5,8,0:0:0:0:
256,192,261911,5,0,0:0:0:0:
256,192,262016,5,8,0:0:0:0:
256,192,262121,5,0,0:0:0:0:
256,192,262225,5,0,0:0:0:0:
256,192,262330,5,8,0:0:0:0:
256,192,262435,5,8,0:0:0:0:
256,192,262540,5,0,0:0:0:0:
256,192,262645,5,8,0:0:0:0:
256,192,262750,5,0,0:0:0:0:
256,192,262855,5,8,0:0:0:0:
256,192,262960,5,0,0:0:0:0:
256,192,263065,5,0,0:0:0:0:
256,192,263170,5,8,0:0:0:0:
256,192,263274,5,8,0:0:0:0:
256,192,263379,5,0,0:0:0:0:
256,192,263484,5,8,0:0:0:0:
256,192,263589,5,8,0:0:0:0:
256,192,263694,5,8,0:0:0:0:
256,192,263799,5,0,0:0:0:0:
256,192,263904,5,0,0:0:0:0:
256,192,264009,5,0,0:0:0:0:
256,192,264114,5,8,0:0:0:0:
256,192,264218,5,8,0:0:0:0:
256,192,264323,5,0,0:0:0:0:
256,192,264428,5,0,0:0:0:0:
256,192,264533,5,8,0:0:0:0:
256,192,264638,5,0,0:0:0:0:
256,192,264743,5,8,0:0:0:0:
256,192,264848,5,8,0:0:0:0:
256,192,264953,5,8,0:0:0:0:
256,192,265058,5,0,0:0:0:0:
256,192,265163,5,0,0:0:0:0:
256,192,265267,5,0,0:0:0:0:
256,192,265372,5,8,0:0:0:0:
256,192,265477,5,8,0:0:0:0:
256,192,265582,5,0,0:0:0:0:
256,192,265687,5,0,0:0:0:0:
256,192,265792,5,8,0:0:0:0:
256,192,265862,5,0,0:0:0:0:
256,192,265932,5,0,0:0:0:0:
256,192,266002,5,8,0:0:0:0:
256,192,266072,5,0,0:0:0:0:
256,192,266142,5,0,0:0:0:0:
256,192,266211,5,8,0:0:0:0:
256,192,266316,5,8,0:0:0:0:
256,192,266421,5,0,0:0:0:0:
256,192,266526,5,0,0:0:0:0:
256,192,266631,5,8,0:0:0:0:
256,192,266736,5,8,0:0:0:0:
256,192,266841,5,0,0:0:0:0:
256,192,266911,5,8,0:0:0:0:
256,192,266981,5,8,0:0:0:0:
256,192,267051,5,0,0:0:0:0:
256,192,267156,5,0,0:0:0:0:
256,192,267260,5,8,0:0:0:0:
256,192,267365,5,0,0:0:0:0:
256,192,267470,5,8,0:0:0:0:
256,192,267575,5,8,0:0:0:0:
256,192,267680,5,8,0:0:0:0:
256,192,267785,5,8,0:0:0:0:
256,192,267890,5,0,0:0:0:0:
256,192,267995,5,8,0:0:0:0:
256,192,268100,5,8,0:0:0:0:
256,192,268204,5,0,0:0:0:0:
256,192,268309,5,8,0:0:0:0:
256,192,268414,5,0,0:0:0:0:
256,192,268519,5,8,0:0:0:0:
256,192,268624,5,0,0:0:0:0:
256,192,268729,5,8,0:0:0:0:
256,192,268834,5,8,0:0:0:0:
256,192,268939,5,0,0:0:0:0:
256,192,269044,5,0,0:0:0:0:
256,192,269149,5,8,0:0:0:0:
256,192,269253,5,0,0:0:0:0:
256,192,269358,5,8,0:0:0:0:
256,192,269463,5,8,0:0:0:0:
256,192,269568,5,0,0:0:0:0:
256,192,269673,5,8,0:0:0:0:
256,192,269778,5,8,0:0:0:0:
256,192,269883,5,0,0:0:0:0:
256,192,269988,5,8,0:0:0:0:
256,192,270093,5,0,0:0:0:0:
256,192,270197,5,0,0:0:0:0:
256,192,270302,5,0,0:0:0:0:
256,192,270407,5,8,0:0:0:0:
256,192,270512,5,0,0:0:0:0:
256,192,270617,5,8,0:0:0:0:
256,192,270722,5,8,0:0:0:0:
256,192,270827,5,8,0:0:0:0:
256,192,270932,5,0,0:0:0:0:
256,192,271037,5,0,0:0:0:0:
256,192,271142,5,0,0:0:0:0:
256,192,271246,5,8,0:0:0:0:
256,192,271316,5,8,0:0:0:0:
256,192,271386,5,8,0:0:0:0:
256,192,271456,5,0,0:0:0:0:
256,192,271561,5,0,0:0:0:0:
256,192,271666,5,8,0:0:0:0:
256,192,271736,5,0,0:0:0:0:
256,192,271806,5,0,0:0:0:0:
256,192,271876,5,8,0:0:0:0:
256,192,271981,5,8,0:0:0:0:
256,192,272086,5,0,0:0:0:0:
256,192,272156,5,8,0:0:0:0:
256,192,272225,5,8,0:0:0:0:
256,192,272295,5,0,0:0:0:0:
256,192,272400,5,0,0:0:0:0:
256,192,272505,5,8,0:0:0:0:
256,192,272575,5,8,0:0:0:0:
256,192,272645,5,8,0:0:0:0:
256,192,272715,5,8,0:0:0:0:
256,192,272820,5,0,0:0:0:0:
256,192,272925,5,8,0:0:0:0:
256,192,273030,5,0,0:0:0:0:
256,192,273135,5,0,0:0:0:0:
256,192,273239,5,0,0:0:0:0:
256,192,273344,5,8,0:0:0:0:
256,192,273449,5,0,0:0:0:0:
256,192,273554,5,8,0:0:0:0:
256,192,273659,5,0,0:0:0:0:
256,192,273764,5,8,0:0:0:0:
256,192,273869,1,8,0:0:0:0:
256,192,273974,1,8,0:0:0:0:
256,192,274079,1,8,0:0:0:0:
256,192,274183,1,8,0:0:0:0:
256,192,274288,1,8,0:0:0:0:
256,192,274393,1,8,0:0:0:0:
256,192,274498,1,8,0:0:0:0:
256,192,274603,1,0,0:0:0:0:
256,192,274708,5,8,0:0:0:0:
256,192,274813,5,0,0:0:0:0:
256,192,274918,5,0,0:0:0:0:
256,192,275023,5,8,0:0:0:0:
256,192,275128,5,0,0:0:0:0:
256,192,275232,5,8,0:0:0:0:
256,192,275337,5,0,0:0:0:0:
256,192,275442,5,0,0:0:0:0:
256,192,275547,5,0,0:0:0:0:
256,192,275652,5,8,0:0:0:0:
256,192,275757,5,0,0:0:0:0:
256,192,275862,5,8,0:0:0:0:
256,192,275967,5,8,0:0:0:0:
256,192,276072,5,8,0:0:0:0:
256,192,276177,5,0,0:0:0:0:
256,192,276281,5,8,0:0:0:0:
256,192,276386,5,0,0:0:0:0:
256,192,276491,5,0,0:0:0:0:
256,192,276596,5,0,0:0:0:0:
256,192,276701,5,8,0:0:0:0:
256,192,276806,5,0,0:0:0:0:
256,192,276911,5,8,0:0:0:0:
256,192,277016,5,8,0:0:0:0:
256,192,277121,5,0,0:0:0:0:
256,192,277225,5,0,0:0:0:0:
256,192,277330,5,8,0:0:0:0:
256,192,277435,5,0,0:0:0:0:
256,192,277540,5,8,0:0:0:0:
256,192,277645,5,0,0:0:0:0:
256,192,277750,5,8,0:0:0:0:
256,192,277855,5,8,0:0:0:0:
256,192,277960,5,8,0:0:0:0:
256,192,278065,5,8,0:0:0:0:
256,192,278170,5,0,0:0:0:0:
256,192,278274,5,0,0:0:0:0:
256,192,278379,5,8,0:0:0:0:
256,192,278484,5,0,0:0:0:0:
256,192,278589,5,8,0:0:0:0:
256,192,278694,5,0,0:0:0:0:
256,192,278799,5,8,0:0:0:0:
256,192,278904,5,8,0:0:0:0:
256,192,279009,5,8,0:0:0:0:
256,192,279114,5,0,0:0:0:0:
256,192,279218,5,8,0:0:0:0:
256,192,279323,5,0,0:0:0:0:
256,192,279428,5,8,0:0:0:0:
256,192,279533,5,8,0:0:0:0:
256,192,279638,5,8,0:0:0:0:
256,192,279743,5,0,0:0:0:0:
256,192,279848,5,0,0:0:0:0:
256,192,279953,5,0,0:0:0:0:
256,192,280058,5,8,0:0:0:0:
256,192,280163,5,0,0:0:0:0:
256,192,280267,5,8,0:0:0:0:
256,192,280372,5,8,0:0:0:0:
256,192,280477,5,0,0:0:0:0:
256,192,280582,5,0,0:0:0:0:
256,192,280687,5,8,0:0:0:0:
256,192,280792,5,0,0:0:0:0:
256,192,280897,5,8,0:0:0:0:
256,192,281002,5,8,0:0:0:0:
256,192,281107,5,8,0:0:0:0:
256,192,281211,5,0,0:0:0:0:
256,192,281316,5,8,0:0:0:0:
256,192,281421,5,8,0:0:0:0:
256,192,281526,5,0,0:0:0:0:
256,192,281631,5,0,0:0:0:0:
256,192,281736,5,8,0:0:0:0:
256,192,281841,5,0,0:0:0:0:
256,192,281946,5,8,0:0:0:0:
256,192,282051,5,0,0:0:0:0:
256,192,282156,5,8,0:0:0:0:
256,192,282260,5,8,0:0:0:0:
256,192,282365,5,8,0:0:0:0:
256,192,282470,5,0,0:0:0:0:
256,192,282575,5,8,0:0:0:0:
256,192,282680,5,0,0:0:0:0:
256,192,282785,5,8,0:0:0:0:
256,192,282890,5,0,0:0:0:0:
256,192,282995,5,8,0:0:0:0:
256,192,283100,5,0,0:0:0:0:
256,192,283204,5,0,0:0:0:0:
256,192,283309,5,0,0:0:0:0:
256,192,283414,5,8,0:0:0:0:
256,192,283519,5,0,0:0:0:0:
256,192,283624,5,8,0:0:0:0:
256,192,283729,5,8,0:0:0:0:
256,192,283834,5,0,0:0:0:0:
256,192,283939,5,0,0:0:0:0:
256,192,284044,5,8,0:0:0:0:
256,192,284149,5,0,0:0:0:0:
256,192,284253,5,8,0:0:0:0:
256,192,284358,5,0,0:0:0:0:
256,192,284463,5,8,0:0:0:0:
256,192,284568,5,8,0:0:0:0:
256,192,284673,5,8,0:0:0:0:
256,192,284778,5,8,0:0:0:0:
256,192,284883,5,0,0:0:0:0:
256,192,284988,5,0,0:0:0:0:
256,192,285093,5,8,0:0:0:0:
256,192,285197,5,0,0:0:0:0:
256,192,285302,5,8,0:0:0:0:
256,192,285407,5,0,0:0:0:0:
256,192,285512,5,0,0:0:0:0:
256,192,285617,5,0,0:0:0:0:
256,192,285722,5,8,0:0:0:0:
256,192,285827,5,0,0:0:0:0:
256,192,285932,5,8,0:0:0:0:
256,192,286037,5,0,0:0:0:0:
256,192,286142,5,8,0:0:0:0:
256,192,286246,5,8,0:0:0:0:
256,192,286351,5,0,0:0:0:0:
256,192,286456,5,0,0:0:0:0:
256,192,286561,5,0,0:0:0:0:
256,192,286666,5,0,0:0:0:0:
256,192,286771,5,8,0:0:0:0:
256,192,286876,5,0,0:0:0:0:
256,192,286981,5,8,0:0:0:0:
256,192,287190,5,8,0:0:0:0:
256,192,287225,5,8,0:0:0:0:
256,192,287400,5,0,0:0:0:0:
256,192,287610,5,8,0:0:0:0:
256,192,287715,5,8,0:0:0:0:
256,192,287820,5,8,0:0:0:0:
256,192,288030,5,4,0:0:0:0:
256,192,288115,12,0,293515,0:0:0:0:
256,192,298830,5,0,0:0:0:0:
256,192,298887,5,0,0:0:0:0:
256,192,298944,5,0,0:0:0:0:
256,192,299001,5,8,0:0:0:0:
256,192,299344,5,0,0:0:0:0:
256,192,299401,5,0,0:0:0:0:
256,192,299458,5,0,0:0:0:0:
256,192,299515,5,8,0:0:0:0:
256,192,299687,5,0,0:0:0:0:
256,192,299772,5,0,0:0:0:0:
256,192,299858,5,0,0:0:0:0:
256,192,299944,5,0,0:0:0:0:
256,192,300030,5,12,0:0:0:0:
256,192,300201,5,8,0:0:0:0:
256,192,300287,5,8,0:0:0:0:
256,192,300372,5,0,0:0:0:0:
256,192,300458,5,0,0:0:0:0:
256,192,300544,5,12,0:0:0:0:
256,192,300715,5,8,0:0:0:0:
256,192,300772,5,8,0:0:0:0:
256,192,300830,5,8,0:0:0:0:
256,192,300887,5,0,0:0:0:0:
256,192,300944,5,0,0:0:0:0:
256,192,301001,5,0,0:0:0:0:
256,192,301058,5,8,0:0:0:0:
256,192,301172,5,0,0:0:0:0:
256,192,301230,5,0,0:0:0:0:
256,192,301287,5,0,0:0:0:0:
256,192,301344,5,0,0:0:0:0:
256,192,301401,5,8,0:0:0:0:
256,192,301744,5,8,0:0:0:0:
256,192,301830,5,0,0:0:0:0:
256,192,301915,5,0,0:0:0:0:
256,192,302001,5,0,0:0:0:0:
256,192,302087,5,0,0:0:0:0:
256,192,302172,5,0,0:0:0:0:
256,192,302258,5,8,0:0:0:0:
256,192,302344,5,8,0:0:0:0:
256,192,302430,5,0,0:0:0:0:
256,192,302515,5,0,0:0:0:0:
256,192,302601,5,0,0:0:0:0:
256,192,302687,5,0,0:0:0:0:
256,192,302772,5,8,0:0:0:0:
256,192,302858,5,0,0:0:0:0:
256,192,302944,5,8,0:0:0:0:
256,192,303030,5,8,0:0:0:0:
256,192,303115,5,8,0:0:0:0:
256,192,303201,1,0,0:0:0:0:
256,192,303287,1,8,0:0:0:0:
256,192,303372,1,8,0:0:0:0:
256,192,303458,1,0,0:0:0:0:
256,192,303544,1,0,0:0:0:0:
256,192,303630,1,0,0:0:0:0:
256,192,303715,1,0,0:0:0:0:
256,192,303801,1,8,0:0:0:0:
256,192,303887,1,0,0:0:0:0:
256,192,303972,1,8,0:0:0:0:
256,192,304058,1,0,0:0:0:0:
256,192,304144,1,8,0:0:0:0:
256,192,304230,1,8,0:0:0:0:
256,192,304315,1,8,0:0:0:0:
256,192,304401,1,0,0:0:0:0:
256,192,304487,1,8,0:0:0:0:
256,192,304572,5,0,0:0:0:0:
256,192,304658,5,0,0:0:0:0:
256,192,304744,5,0,0:0:0:0:
256,192,304830,5,8,0:0:0:0:
256,192,304915,5,0,0:0:0:0:
256,192,305001,5,8,0:0:0:0:
256,192,305087,5,8,0:0:0:0:
256,192,305172,5,0,0:0:0:0:
256,192,305258,5,0,0:0:0:0:
256,192,305344,5,0,0:0:0:0:
256,192,305430,5,0,0:0:0:0:
256,192,305515,5,8,0:0:0:0:
256,192,305601,5,8,0:0:0:0:
256,192,305687,5,8,0:0:0:0:
256,192,305772,5,0,0:0:0:0:
256,192,305858,5,0,0:0:0:0:
256,192,305944,5,0,0:0:0:0:
256,192,306030,5,8,0:0:0:0:
256,192,306115,5,0,0:0:0:0:
256,192,306201,5,8,0:0:0:0:
256,192,306287,5,8,0:0:0:0:
256,192,306372,5,0,0:0:0:0:
256,192,306458,5,0,0:0:0:0:
256,192,306544,5,8,0:0:0:0:
256,192,306630,5,0,0:0:0:0:
256,192,306715,5,0,0:0:0:0:
256,192,306801,5,0,0:0:0:0:
256,192,306887,5,8,0:0:0:0:
256,192,306972,5,8,0:0:0:0:
256,192,307058,5,8,0:0:0:0:
256,192,307144,5,0,0:0:0:0:
256,192,307230,5,8,0:0:0:0:
256,192,307315,5,0,0:0:0:0:
256,192,307401,5,0,0:0:0:0:
256,192,307487,5,0,0:0:0:0:
256,192,307572,5,8,0:0:0:0:
256,192,307658,5,0,0:0:0:0:
256,192,307744,5,8,0:0:0:0:
256,192,307830,5,8,0:0:0:0:
256,192,307915,5,0,0:0:0:0:
256,192,308001,5,0,0:0:0:0:
256,192,308087,5,0,0:0:0:0:
256,192,308172,5,0,0:0:0:0:
256,192,308258,5,8,0:0:0:0:
256,192,308344,5,8,0:0:0:0:
256,192,308430,5,0,0:0:0:0:
256,192,308515,5,0,0:0:0:0:
256,192,308601,5,0,0:0:0:0:
256,192,308687,5,0,0:0:0:0:
256,192,308772,5,8,0:0:0:0:
256,192,308858,5,0,0:0:0:0:
256,192,308944,5,8,0:0:0:0:
256,192,309030,5,8,0:0:0:0:
256,192,309115,5,0,0:0:0:0:
256,192,309201,5,0,0:0:0:0:
256,192,309287,5,8,0:0:0:0:
256,192,309372,5,8,0:0:0:0:
256,192,309458,5,8,0:0:0:0:
256,192,309544,5,8,0:0:0:0:
256,192,309630,5,8,0:0:0:0:
256,192,309715,5,8,0:0:0:0:
256,192,309801,5,8,0:0:0:0:
256,192,309887,5,8,0:0:0:0:
256,192,309972,5,0,0:0:0:0:
256,192,310058,5,0,0:0:0:0:
256,192,310144,5,0,0:0:0:0:
256,192,310230,5,0,0:0:0:0:
256,192,310315,5,8,0:0:0:0:
256,192,310401,5,0,0:0:0:0:
256,192,310487,5,8,0:0:0:0:
256,192,310572,5,8,0:0:0:0:
256,192,310658,5,0,0:0:0:0:
256,192,310744,5,0,0:0:0:0:
256,192,310830,5,0,0:0:0:0:
256,192,310915,5,0,0:0:0:0:
256,192,311001,5,8,0:0:0:0:
256,192,311087,5,8,0:0:0:0:
256,192,311172,5,8,0:0:0:0:
256,192,311258,5,0,0:0:0:0:
256,192,311344,5,0,0:0:0:0:
256,192,311430,5,0,0:0:0:0:
256,192,311515,5,8,0:0:0:0:
256,192,311601,5,0,0:0:0:0:
256,192,311687,5,8,0:0:0:0:
256,192,311772,5,8,0:0:0:0:
256,192,311858,5,0,0:0:0:0:
256,192,311944,5,0,0:0:0:0:
256,192,312030,5,8,0:0:0:0:
256,192,312115,5,8,0:0:0:0:
256,192,312201,5,8,0:0:0:0:
256,192,312287,5,0,0:0:0:0:
256,192,312372,5,8,0:0:0:0:
256,192,312458,5,0,0:0:0:0:
256,192,312544,5,0,0:0:0:0:
256,192,312630,5,0,0:0:0:0:
256,192,312715,5,8,0:0:0:0:
256,192,312801,5,8,0:0:0:0:
256,192,312887,5,0,0:0:0:0:
256,192,312972,5,0,0:0:0:0:
256,192,313058,5,8,0:0:0:0:
256,192,313144,5,0,0:0:0:0:
256,192,313230,5,8,0:0:0:0:
256,192,313315,5,8,0:0:0:0:
256,192,313401,5,0,0:0:0:0:
256,192,313487,5,0,0:0:0:0:
256,192,313572,5,0,0:0:0:0:
256,192,313658,5,0,0:0:0:0:
256,192,313744,5,8,0:0:0:0:
256,192,313830,5,8,0:0:0:0:
256,192,313915,5,0,0:0:0:0:
256,192,314001,5,0,0:0:0:0:
256,192,314087,5,0,0:0:0:0:
256,192,314172,5,0,0:0:0:0:
256,192,314258,5,8,0:0:0:0:
256,192,314344,5,8,0:0:0:0:
256,192,314430,5,8,0:0:0:0:
256,192,314515,5,0,0:0:0:0:
256,192,314601,5,0,0:0:0:0:
256,192,314687,5,0,0:0:0:0:
256,192,314772,5,8,0:0:0:0:
256,192,314858,5,8,0:0:0:0:
256,192,314944,5,8,0:0:0:0:
256,192,315030,5,8,0:0:0:0:
256,192,315115,5,0,0:0:0:0:
256,192,315201,5,0,0:0:0:0:
256,192,315287,5,0,0:0:0:0:
256,192,315372,5,0,0:0:0:0:
256,192,315458,5,12,0:0:0:0:
256,192,315630,5,8,0:0:0:0:
256,192,315715,5,8,0:0:0:0:
256,192,315801,5,8,0:0:0:0:
256,192,315887,5,8,0:0:0:0:
256,192,315972,5,4,0:0:0:0:
256,192,316144,5,8,0:0:0:0:
256,192,316230,5,8,0:0:0:0:
256,192,316315,5,8,0:0:0:0:
256,192,316401,5,0,0:0:0:0:
256,192,316487,5,8,0:0:0:0:
256,192,316572,5,8,0:0:0:0:
256,192,316658,5,0,0:0:0:0:
256,192,316744,5,0,0:0:0:0:
256,192,316830,5,8,0:0:0:0:
256,192,316891,5,8,0:0:0:0:
256,192,316952,5,8,0:0:0:0:
256,192,317014,5,0,0:0:0:0:
256,192,317075,5,0,0:0:0:0:
256,192,317136,5,0,0:0:0:0:
256,192,317198,5,8,0:0:0:0:
256,192,317290,5,8,0:0:0:0:
256,192,317382,5,8,0:0:0:0:
256,192,317474,5,8,0:0:0:0:
256,192,317566,5,0,0:0:0:0:
256,192,317750,5,0,0:0:0:0:
256,192,317811,5,0,0:0:0:0:
256,192,317872,5,0,0:0:0:0:
256,192,317934,5,8,0:0:0:0:
256,192,318302,5,0,0:0:0:0:
256,192,318395,5,0,0:0:0:0:
256,192,318489,5,8,0:0:0:0:
256,192,318583,5,0,0:0:0:0:
256,192,318677,5,8,0:0:0:0:
256,192,318770,5,8,0:0:0:0:
256,192,318864,5,0,0:0:0:0:
256,192,318958,5,8,0:0:0:0:
256,192,319052,5,8,0:0:0:0:
256,192,319145,5,8,0:0:0:0:
256,192,319239,5,0,0:0:0:0:
256,192,319333,5,0,0:0:0:0:
256,192,319427,5,8,0:0:0:0:
256,192,319520,5,8,0:0:0:0:
256,192,319614,5,8,0:0:0:0:
256,192,319708,5,8,0:0:0:0:
256,192,319802,5,0,0:0:0:0:
256,192,319896,5,0,0:0:0:0:
256,192,319991,5,0,0:0:0:0:
256,192,320086,5,0,0:0:0:0:
256,192,320181,5,8,0:0:0:0:
256,192,320276,5,0,0:0:0:0:
256,192,320371,5,8,0:0:0:0:
256,192,320466,5,8,0:0:0:0:
256,192,320561,5,0,0:0:0:0:
256,192,320656,5,8,0:0:0:0:
256,192,320751,5,0,0:0:0:0:
256,192,320814,5,0,0:0:0:0:
256,192,320877,5,0,0:0:0:0:
256,192,320941,5,8,0:0:0:0:
256,192,321036,5,8,0:0:0:0:
256,192,321131,5,8,0:0:0:0:
256,192,321226,5,8,0:0:0:0:
256,192,321320,5,0,0:0:0:0:
256,192,321412,5,8,0:0:0:0:
256,192,321505,5,0,0:0:0:0:
256,192,321597,5,0,0:0:0:0:
256,192,321690,5,8,0:0:0:0:
256,192,321782,5,0,0:0:0:0:
256,192,321875,5,0,0:0:0:0:
256,192,321968,5,0,0:0:0:0:
256,192,322060,5,8,0:0:0:0:
256,192,322153,5,8,0:0:0:0:
256,192,322245,5,0,0:0:0:0:
256,192,322338,5,0,0:0:0:0:
256,192,322431,5,8,0:0:0:0:
256,192,322523,5,0,0:0:0:0:
256,192,322616,5,8,0:0:0:0:
256,192,322708,5,8,0:0:0:0:
256,192,322801,5,0,0:0:0:0:
256,192,322897,5,0,0:0:0:0:
256,192,322993,5,0,0:0:0:0:
256,192,323089,5,0,0:0:0:0:
256,192,323185,5,8,0:0:0:0:
256,192,323281,5,0,0:0:0:0:
256,192,323377,5,8,0:0:0:0:
256,192,323474,5,8,0:0:0:0:
256,192,323570,5,0,0:0:0:0:
256,192,323666,5,8,0:0:0:0:
256,192,323762,5,0,0:0:0:0:
256,192,323826,5,0,0:0:0:0:
256,192,323890,5,0,0:0:0:0:
256,192,323954,5,8,0:0:0:0:
256,192,324051,5,8,0:0:0:0:
256,192,324147,5,8,0:0:0:0:
256,192,324243,5,8,0:0:0:0:
256,192,324339,5,0,0:0:0:0:
256,192,324431,5,0,0:0:0:0:
256,192,324524,5,8,0:0:0:0:
256,192,324616,5,8,0:0:0:0:
256,192,324709,5,0,0:0:0:0:
256,192,324801,5,8,0:0:0:0:
256,192,324894,5,8,0:0:0:0:
256,192,324987,5,0,0:0:0:0:
256,192,325079,5,8,0:0:0:0:
256,192,325172,5,8,0:0:0:0:
256,192,325264,5,0,0:0:0:0:
256,192,325357,5,0,0:0:0:0:
256,192,325450,5,8,0:0:0:0:
256,192,325542,5,0,0:0:0:0:
256,192,325635,5,8,0:0:0:0:
256,192,325727,5,8,0:0:0:0:
256,192,325820,5,0,0:0:0:0:
256,192,325914,5,0,0:0:0:0:
256,192,326009,5,0,0:0:0:0:
256,192,326104,5,0,0:0:0:0:
256,192,326199,5,8,0:0:0:0:
256,192,326294,5,0,0:0:0:0:
256,192,326389,5,8,0:0:0:0:
256,192,326484,5,8,0:0:0:0:
256,192,326579,5,0,0:0:0:0:
256,192,326674,5,8,0:0:0:0:
256,192,326769,5,0,0:0:0:0:
256,192,326832,5,0,0:0:0:0:
256,192,326895,5,0,0:0:0:0:
256,192,326959,5,8,0:0:0:0:
256,192,327054,5,8,0:0:0:0:
256,192,327149,5,8,0:0:0:0:
256,192,327244,5,8,0:0:0:0:
256,192,327338,5,0,0:0:0:0:
256,192,327430,5,0,0:0:0:0:
256,192,327523,5,8,0:0:0:0:
256,192,327615,5,8,0:0:0:0:
256,192,327708,5,0,0:0:0:0:
256,192,327800,5,8,0:0:0:0:
256,192,327893,5,8,0:0:0:0:
256,192,327986,5,0,0:0:0:0:
256,192,328078,5,8,0:0:0:0:
256,192,328140,5,8,0:0:0:0:
256,192,328202,5,8,0:0:0:0:
256,192,328263,5,0,0:0:0:0:
256,192,328325,5,0,0:0:0:0:
256,192,328387,5,0,0:0:0:0:
256,192,328449,5,8,0:0:0:0:
256,192,328819,5,0,0:0:0:0:
256,192,330019,5,12,0:0:0:0:
256,192,330419,5,8,0:0:0:0:
256,192,330519,5,0,0:0:0:0:
256,192,330619,5,0,0:0:0:0:
256,192,330719,5,8,0:0:0:0:
256,192,330819,5,0,0:0:0:0:
256,192,330919,5,0,0:0:0:0:
256,192,331019,5,8,0:0:0:0:
256,192,331119,5,0,0:0:0:0:
256,192,331219,5,8,0:0:0:0:
256,192,331319,5,8,0:0:0:0:
256,192,331419,5,0,0:0:0:0:
256,192,331519,5,8,0:0:0:0:
256,192,331619,5,0,0:0:0:0:
256,192,331719,5,0,0:0:0:0:
256,192,331819,5,8,0:0:0:0:
256,192,331919,5,0,0:0:0:0:
256,192,332019,5,8,0:0:0:0:
256,192,332119,5,0,0:0:0:0:
256,192,332219,5,0,0:0:0:0:
256,192,332319,5,8,0:0:0:0:
256,192,332419,5,0,0:0:0:0:
256,192,332519,5,0,0:0:0:0:
256,192,332619,5,8,0:0:0:0:
256,192,332719,5,0,0:0:0:0:
256,192,332819,5,8,0:0:0:0:
256,192,332919,5,8,0:0:0:0:
256,192,333019,5,0,0:0:0:0:
256,192,333119,5,8,0:0:0:0:
256,192,333219,5,0,0:0:0:0:
256,192,333319,5,0,0:0:0:0:
256,192,333419,5,8,0:0:0:0:
256,192,333519,5,0,0:0:0:0:
256,192,333619,5,8,0:0:0:0:
256,192,333719,5,0,0:0:0:0:
256,192,333819,5,0,0:0:0:0:
256,192,333919,5,8,0:0:0:0:
256,192,334019,5,0,0:0:0:0:
256,192,334119,5,0,0:0:0:0:
256,192,334219,5,8,0:0:0:0:
256,192,334319,5,8,0:0:0:0:
256,192,334419,5,8,0:0:0:0:
256,192,334519,5,0,0:0:0:0:
256,192,334619,5,0,0:0:0:0:
256,192,334719,5,8,0:0:0:0:
256,192,334819,5,0,0:0:0:0:
256,192,334919,5,0,0:0:0:0:
256,192,335019,5,8,0:0:0:0:
256,192,335119,5,8,0:0:0:0:
256,192,335219,5,0,0:0:0:0:
256,192,335319,5,0,0:0:0:0:
256,192,335419,5,8,0:0:0:0:
256,192,335519,5,0,0:0:0:0:
256,192,335619,5,8,0:0:0:0:
256,192,335685,5,8,0:0:0:0:
256,192,335752,5,8,0:0:0:0:
256,192,335819,5,0,0:0:0:0:
256,192,335919,5,8,0:0:0:0:
256,192,336019,5,0,0:0:0:0:
256,192,336119,5,0,0:0:0:0:
256,192,336219,5,8,0:0:0:0:
256,192,336285,5,0,0:0:0:0:
256,192,336352,5,0,0:0:0:0:
256,192,336419,5,8,0:0:0:0:
256,192,336519,5,0,0:0:0:0:
256,192,336619,5,8,0:0:0:0:
256,192,336719,5,0,0:0:0:0:
256,192,336819,5,8,0:0:0:0:
256,192,336919,5,0,0:0:0:0:
256,192,337019,5,0,0:0:0:0:
256,192,337119,5,8,0:0:0:0:
256,192,337219,5,0,0:0:0:0:
256,192,337319,5,0,0:0:0:0:
256,192,337419,5,8,0:0:0:0:
256,192,337519,5,0,0:0:0:0:
256,192,337619,5,8,0:0:0:0:
256,192,337719,5,8,0:0:0:0:
256,192,337819,5,0,0:0:0:0:
256,192,337919,5,8,0:0:0:0:
256,192,338019,5,0,0:0:0:0:
256,192,338119,5,0,0:0:0:0:
256,192,338219,5,8,0:0:0:0:
256,192,338319,5,0,0:0:0:0:
256,192,338419,5,8,0:0:0:0:
256,192,338519,5,8,0:0:0:0:
256,192,338619,5,0,0:0:0:0:
256,192,338719,5,8,0:0:0:0:
256,192,338819,5,0,0:0:0:0:
256,192,338919,5,0,0:0:0:0:
256,192,339019,5,8,0:0:0:0:
256,192,339119,5,8,0:0:0:0:
256,192,339219,5,8,0:0:0:0:
256,192,339319,5,0,0:0:0:0:
256,192,339419,5,0,0:0:0:0:
256,192,339519,5,8,0:0:0:0:
256,192,339619,5,0,0:0:0:0:
256,192,339719,5,0,0:0:0:0:
256,192,339819,5,8,0:0:0:0:
256,192,339919,5,0,0:0:0:0:
256,192,340019,5,8,0:0:0:0:
256,192,340119,5,8,0:0:0:0:
256,192,340219,5,0,0:0:0:0:
256,192,340319,5,8,0:0:0:0:
256,192,340419,5,8,0:0:0:0:
256,192,340519,5,0,0:0:0:0:
256,192,340619,5,8,0:0:0:0:
256,192,340719,5,0,0:0:0:0:
256,192,340819,5,8,0:0:0:0:
256,192,340885,5,8,0:0:0:0:
256,192,340952,5,8,0:0:0:0:
256,192,341019,5,0,0:0:0:0:
256,192,341119,5,0,0:0:0:0:
256,192,341219,5,8,0:0:0:0:
256,192,341319,5,0,0:0:0:0:
256,192,341419,5,8,0:0:0:0:
256,192,341519,5,8,0:0:0:0:
256,192,341619,5,0,0:0:0:0:
256,192,341719,5,0,0:0:0:0:
256,192,341819,5,8,0:0:0:0:
256,192,341919,5,0,0:0:0:0:
256,192,342019,5,8,0:0:0:0:
256,192,342085,5,8,0:0:0:0:
256,192,342152,5,8,0:0:0:0:
256,192,342219,5,0,0:0:0:0:
256,192,342319,5,0,0:0:0:0:
256,192,342419,5,8,0:0:0:0:
256,192,342519,5,0,0:0:0:0:
256,192,342619,5,8,0:0:0:0:
256,192,342685,5,0,0:0:0:0:
256,192,342752,5,0,0:0:0:0:
256,192,342819,5,8,0:0:0:0:
256,192,342919,5,0,0:0:0:0:
256,192,343019,5,8,0:0:0:0:
256,192,343119,5,0,0:0:0:0:
256,192,343219,5,8,0:0:0:0:
256,192,343319,5,8,0:0:0:0:
256,192,343419,5,8,0:0:0:0:
256,192,343519,5,0,0:0:0:0:
256,192,343619,5,8,0:0:0:0:
256,192,343719,5,8,0:0:0:0:
256,192,343819,5,0,0:0:0:0:
256,192,343919,5,8,0:0:0:0:
256,192,344019,5,8,0:0:0:0:
256,192,344119,5,0,0:0:0:0:
256,192,344219,5,0,0:0:0:0:
256,192,344319,5,0,0:0:0:0:
256,192,344419,5,12,0:0:0:0:
256,192,344819,5,8,0:0:0:0:
256,192,344885,5,8,0:0:0:0:
256,192,344952,5,8,0:0:0:0:
256,192,345019,5,0,0:0:0:0:
256,192,345085,5,0,0:0:0:0:
256,192,345152,5,0,0:0:0:0:
256,192,345219,5,12,0:0:0:0:
256,192,345419,5,12,0:0:0:0:
256,192,345619,5,8,0:0:0:0:
256,192,345719,5,8,0:0:0:0:
256,192,345819,5,0,0:0:0:0:
256,192,345919,5,0,0:0:0:0:
256,192,346019,5,8,0:0:0:0:
256,192,346119,5,8,0:0:0:0:
256,192,346219,5,8,0:0:0:0:
256,192,346319,5,0,0:0:0:0:
256,192,346419,5,8,0:0:0:0:
256,192,346519,5,0,0:0:0:0:
256,192,346619,5,0,0:0:0:0:
256,192,346719,5,0,0:0:0:0:
256,192,346819,5,8,0:0:0:0:
256,192,346919,5,0,0:0:0:0:
256,192,347019,5,8,0:0:0:0:
256,192,347119,5,0,0:0:0:0:
256,192,347219,5,8,0:0:0:0:
256,192,347319,5,8,0:0:0:0:
256,192,347419,5,8,0:0:0:0:
256,192,347519,5,0,0:0:0:0:
256,192,347619,5,8,0:0:0:0:
256,192,347719,5,8,0:0:0:0:
256,192,347819,5,0,0:0:0:0:
256,192,347919,5,0,0:0:0:0:
256,192,348019,5,8,0:0:0:0:
256,192,348119,5,0,0:0:0:0:
256,192,348219,5,8,0:0:0:0:
256,192,348319,5,8,0:0:0:0:
256,192,348419,5,0,0:0:0:0:
256,192,348519,5,0,0:0:0:0:
256,192,348619,5,8,0:0:0:0:
256,192,348719,5,0,0:0:0:0:
256,192,348819,5,8,0:0:0:0:
256,192,348919,5,8,0:0:0:0:
256,192,349019,5,0,0:0:0:0:
256,192,349119,5,0,0:0:0:0:
256,192,349219,5,8,0:0:0:0:
256,192,349319,5,0,0:0:0:0:
256,192,349419,5,8,0:0:0:0:
256,192,349519,5,8,0:0:0:0:
256,192,349619,5,8,0:0:0:0:
256,192,349719,5,0,0:0:0:0:
256,192,349819,5,8,0:0:0:0:
256,192,349919,5,0,0:0:0:0:
256,192,350019,5,8,0:0:0:0:
256,192,350119,5,8,0:0:0:0:
256,192,350219,5,8,0:0:0:0:
256,192,350319,5,0,0:0:0:0:
256,192,350419,5,8,0:0:0:0:
256,192,350519,5,0,0:0:0:0:
256,192,350619,5,8,0:0:0:0:
256,192,350719,5,8,0:0:0:0:
256,192,350819,5,8,0:0:0:0:
256,192,350919,5,0,0:0:0:0:
256,192,351019,5,8,0:0:0:0:
256,192,351119,5,0,0:0:0:0:
256,192,351219,5,8,0:0:0:0:
256,192,351285,5,8,0:0:0:0:
256,192,351352,5,8,0:0:0:0:
256,192,351419,5,0,0:0:0:0:
256,192,351485,5,0,0:0:0:0:
256,192,351552,5,0,0:0:0:0:
256,192,351619,5,12,0:0:0:0:
256,192,351819,5,12,0:0:0:0:
256,192,352019,5,8,0:0:0:0:
256,192,352119,5,0,0:0:0:0:
256,192,352219,5,0,0:0:0:0:
256,192,352319,5,0,0:0:0:0:
256,192,352419,5,8,0:0:0:0:
256,192,352519,5,0,0:0:0:0:
256,192,352619,5,8,0:0:0:0:
256,192,352719,5,0,0:0:0:0:
256,192,352819,5,8,0:0:0:0:
256,192,352919,5,8,0:0:0:0:
256,192,353019,5,0,0:0:0:0:
256,192,353119,5,0,0:0:0:0:
256,192,353219,5,8,0:0:0:0:
256,192,353319,5,8,0:0:0:0:
256,192,353419,5,8,0:0:0:0:
256,192,353519,5,0,0:0:0:0:
256,192,353619,5,8,0:0:0:0:
256,192,353719,5,0,0:0:0:0:
256,192,353819,5,8,0:0:0:0:
256,192,353919,5,0,0:0:0:0:
256,192,354019,5,8,0:0:0:0:
256,192,354119,5,0,0:0:0:0:
256,192,354219,5,0,0:0:0:0:
256,192,354319,5,0,0:0:0:0:
256,192,354419,5,8,0:0:0:0:
256,192,354519,5,0,0:0:0:0:
256,192,354619,5,8,0:0:0:0:
256,192,354719,5,8,0:0:0:0:
256,192,354819,5,8,0:0:0:0:
256,192,354919,5,0,0:0:0:0:
256,192,355019,5,8,0:0:0:0:
256,192,355119,5,0,0:0:0:0:
256,192,355219,5,8,0:0:0:0:
256,192,355319,5,0,0:0:0:0:
256,192,355419,5,0,0:0:0:0:
256,192,355519,5,0,0:0:0:0:
256,192,355619,5,8,0:0:0:0:
256,192,355719,5,0,0:0:0:0:
256,192,355819,5,8,0:0:0:0:
256,192,355919,5,0,0:0:0:0:
256,192,356019,5,8,0:0:0:0:
256,192,356119,5,8,0:0:0:0:
256,192,356219,5,0,0:0:0:0:
256,192,356319,5,0,0:0:0:0:
256,192,356419,5,8,0:0:0:0:
256,192,356519,5,8,0:0:0:0:
256,192,356619,5,8,0:0:0:0:
256,192,356719,5,0,0:0:0:0:
256,192,356819,5,8,0:0:0:0:
256,192,356919,5,0,0:0:0:0:
256,192,357019,5,8,0:0:0:0:
256,192,357119,5,8,0:0:0:0:
256,192,357219,5,8,0:0:0:0:
256,192,357319,5,0,0:0:0:0:
256,192,357419,5,8,0:0:0:0:
256,192,357519,5,0,0:0:0:0:
256,192,357619,5,8,0:0:0:0:
256,192,357685,5,8,0:0:0:0:
256,192,357752,5,8,0:0:0:0:
256,192,357819,5,0,0:0:0:0:
256,192,357885,5,0,0:0:0:0:
256,192,357952,5,0,0:0:0:0:
256,192,358019,5,12,0:0:0:0:
256,192,358219,5,12,0:0:0:0:
256,192,358419,5,8,0:0:0:0:
256,192,358519,5,0,0:0:0:0:
256,192,358619,5,0,0:0:0:0:
256,192,358719,5,0,0:0:0:0:
256,192,358819,5,8,0:0:0:0:
256,192,358919,5,0,0:0:0:0:
256,192,359019,5,8,0:0:0:0:
256,192,359119,5,0,0:0:0:0:
256,192,359219,5,8,0:0:0:0:
256,192,359319,5,8,0:0:0:0:
256,192,359419,5,8,0:0:0:0:
256,192,359519,5,0,0:0:0:0:
256,192,359619,5,8,0:0:0:0:
256,192,359719,5,8,0:0:0:0:
256,192,359819,5,8,0:0:0:0:
256,192,359919,5,0,0:0:0:0:
256,192,360019,5,8,0:0:0:0:
256,192,360119,5,0,0:0:0:0:
256,192,360219,5,8,0:0:0:0:
256,192,360319,5,0,0:0:0:0:
256,192,360419,5,8,0:0:0:0:
256,192,360519,5,0,0:0:0:0:
256,192,360619,5,0,0:0:0:0:
256,192,360719,5,0,0:0:0:0:
256,192,360819,5,8,0:0:0:0:
256,192,360919,5,0,0:0:0:0:
256,192,361019,5,8,0:0:0:0:
256,192,361119,5,8,0:0:0:0:
256,192,361219,5,0,0:0:0:0:
256,192,361319,5,0,0:0:0:0:
256,192,361419,5,8,0:0:0:0:
256,192,361519,5,0,0:0:0:0:
256,192,361619,5,8,0:0:0:0:
256,192,361719,5,0,0:0:0:0:
256,192,361819,5,0,0:0:0:0:
256,192,361919,5,0,0:0:0:0:
256,192,362019,5,8,0:0:0:0:
256,192,362119,5,0,0:0:0:0:
256,192,362219,5,8,0:0:0:0:
256,192,362319,5,0,0:0:0:0:
256,192,362419,5,8,0:0:0:0:
256,192,362519,5,8,0:0:0:0:
256,192,362619,5,8,0:0:0:0:
256,192,362719,5,0,0:0:0:0:
256,192,362819,5,8,0:0:0:0:
256,192,362919,5,8,0:0:0:0:
256,192,363019,5,8,0:0:0:0:
256,192,363119,5,0,0:0:0:0:
256,192,363219,5,8,0:0:0:0:
256,192,363319,5,0,0:0:0:0:
256,192,363419,5,0,0:0:0:0:
256,192,363519,5,8,0:0:0:0:
256,192,363619,5,8,0:0:0:0:
256,192,363719,5,0,0:0:0:0:
256,192,363819,5,8,0:0:0:0:
256,192,363919,5,0,0:0:0:0:
256,192,364019,5,8,0:0:0:0:
256,192,364085,5,8,0:0:0:0:
256,192,364152,5,8,0:0:0:0:
256,192,364219,5,0,0:0:0:0:
256,192,364285,5,0,0:0:0:0:
256,192,364352,5,0,0:0:0:0:
256,192,364419,5,12,0:0:0:0:
256,192,364619,5,12,0:0:0:0:
256,192,364819,5,8,0:0:0:0:
256,192,364919,5,0,0:0:0:0:
256,192,365019,5,0,0:0:0:0:
256,192,365119,5,0,0:0:0:0:
256,192,365219,5,8,0:0:0:0:
256,192,365319,5,0,0:0:0:0:
256,192,365419,5,8,0:0:0:0:
256,192,365519,5,0,0:0:0:0:
256,192,365619,5,8,0:0:0:0:
256,192,365719,5,8,0:0:0:0:
256,192,365819,5,8,0:0:0:0:
256,192,365919,5,0,0:0:0:0:
256,192,366019,5,8,0:0:0:0:
256,192,366119,5,8,0:0:0:0:
256,192,366219,5,8,0:0:0:0:
256,192,366319,5,0,0:0:0:0:
256,192,366419,5,8,0:0:0:0:
256,192,366519,5,8,0:0:0:0:
256,192,366619,5,8,0:0:0:0:
256,192,366719,5,0,0:0:0:0:
256,192,366819,5,8,0:0:0:0:
256,192,366919,5,8,0:0:0:0:
256,192,367019,5,0,0:0:0:0:
256,192,367119,5,0,0:0:0:0:
256,192,367219,5,8,0:0:0:0:
256,192,367319,5,0,0:0:0:0:
256,192,367419,5,8,0:0:0:0:
256,192,367519,5,8,0:0:0:0:
256,192,367619,5,0,0:0:0:0:
256,192,367719,5,0,0:0:0:0:
256,192,367819,5,8,0:0:0:0:
256,192,367919,5,0,0:0:0:0:
256,192,368019,5,8,0:0:0:0:
256,192,368119,5,0,0:0:0:0:
256,192,368219,5,0,0:0:0:0:
256,192,368319,5,0,0:0:0:0:
256,192,368419,5,8,0:0:0:0:
256,192,368519,5,0,0:0:0:0:
256,192,368619,5,8,0:0:0:0:
256,192,368719,5,0,0:0:0:0:
256,192,368819,5,8,0:0:0:0:
256,192,368919,5,8,0:0:0:0:
256,192,369019,5,8,0:0:0:0:
256,192,369119,5,0,0:0:0:0:
256,192,369219,5,8,0:0:0:0:
256,192,369319,5,8,0:0:0:0:
256,192,369419,5,8,0:0:0:0:
256,192,369519,5,0,0:0:0:0:
256,192,369619,5,8,0:0:0:0:
256,192,369719,5,0,0:0:0:0:
256,192,369819,5,8,0:0:0:0:
256,192,369919,5,0,0:0:0:0:
256,192,370019,5,8,0:0:0:0:
256,192,370119,1,8,0:0:0:0:
256,192,370219,1,8,0:0:0:0:
256,192,370319,1,0,0:0:0:0:
256,192,370419,1,8,0:0:0:0:
256,192,370552,5,0,0:0:0:0:
256,192,370619,5,8,0:0:0:0:
256,192,370685,5,8,0:0:0:0:
256,192,370752,5,8,0:0:0:0:
256,192,370819,5,0,0:0:0:0:
256,192,370952,5,0,0:0:0:0:
256,192,371019,5,0,0:0:0:0:
256,192,371085,5,8,0:0:0:0:
256,192,371152,5,8,0:0:0:0:
256,192,371219,5,0,0:0:0:0:
256,192,371319,5,0,0:0:0:0:
256,192,371419,5,8,0:0:0:0:
256,192,371519,5,8,0:0:0:0:
256,192,371619,5,0,0:0:0:0:
256,192,371719,5,8,0:0:0:0:
256,192,371819,5,8,0:0:0:0:
256,192,372019,5,4,0:0:0:0:
256,192,372155,5,8,0:0:0:0:
256,192,372223,5,8,0:0:0:0:
256,192,372291,5,8,0:0:0:0:
256,192,372359,5,8,0:0:0:0:
256,192,372428,5,0,0:0:0:0:
256,192,372564,5,8,0:0:0:0:
256,192,372632,5,8,0:0:0:0:
256,192,372700,5,8,0:0:0:0:
256,192,372769,5,0,0:0:0:0:
256,192,372837,5,8,0:0:0:0:
256,192,372905,5,8,0:0:0:0:
256,192,372973,5,0,0:0:0:0:
256,192,373041,5,0,0:0:0:0:
256,192,373109,5,0,0:0:0:0:
256,192,373178,5,0,0:0:0:0:
256,192,373246,5,12,0:0:0:0:
